#TITLE:The Final Countdown;
#SUBTITLE:;
#ARTIST:Europe;
#TITLETRANSLIT:;
#SUBTITLETRANSLIT:;
#ARTISTTRANSLIT:;
#CREDIT:Braeden47;
#BANNER:;
#BACKGROUND:;
#LYRICSPATH:;
#CDTITLE:;
#MUSIC:Europe - The final countdown.ogg;
#OFFSET:-13.540;
#SAMPLESTART:117.419;
#SAMPLELENGTH:12.000;
#SELECTABLE:YES;
#BPMS:0.000=117.500,74.000=124.500,78.000=117.750,239.000=117.250;
#STOPS:0.000=0.255
,74.000=0.241
;
#BGCHANGES:;

//---------------dance-single - Copied from Copied f----------------
#NOTES:
     dance-single:
     :
     Hard:
     9:
     0.531,0.550,0.088,0.471,0.346:
0000
0000
0000
0000
0000
0000
0000
0000
0000
0000
0000
0000
0000
0000
1000
0100
,
0010
0000
0001
0000
0200
0000
0000
0000
0320
0000
0000
0000
0000
0000
1030
0100
,
0020
0000
0000
0000
0032
0000
0000
0000
0203
0000
0000
0000
0300
0000
0010
0100
,
0001
0000
0010
0000
0100
0000
1000
0000
0020
0000
0000
0000
0030
0000
1000
0100
,
0010
0000
0000
0000
0001
0000
0000
0000
0100
0000
0000
0000
0000
0000
0010
1000
,
0100
0000
0010
0000
0001
0000
0000
0000
0020
0000
0000
0000
0030
0000
0100
1000
,
0010
0000
0000
0000
0100
0000
0000
0000
0002
0000
0000
0000
0003
0000
0010
0100
,
1000
0000
0010
0000
0100
0000
0001
0000
0020
0000
0000
0000
0030
0000
1000
0100
,
2000
0000
0000
0000
3020
0000
0000
0000
0230
0000
0000
0000
0300
0000
0001
0100
,
0010
0000
1000
0000
0020
0000
0000
0000
0230
0000
0000
0000
0300
0000
0001
0100
,
0020
0000
0000
0000
2030
0000
0000
0000
3020
0000
0000
0000
0030
0000
0100
0001
,
0010
0000
0100
0000
1000
0000
0001
0000
0020
0000
0000
0000
0030
0000
0100
1000
,
0200
0000
0000
0000
2300
0000
0000
0000
3001
0000
0000
0000
0000
0000
1000
0010
,
1000
0000
0100
0000
0020
0000
0000
0000
0230
0000
0000
0000
0300
0000
0010
0001
,
0200
0000
0000
0000
0320
0000
0000
0000
2030
0000
0000
0000
3000
0000
0100
0010
,
0001
0000
0100
0000
0010
0000
1000
0000
0002
0000
0000
0000
0000
0000
0013
0100
,
2000
0000
0000
0000
0000
0000
3100
0010
0001
0000
0100
0000
0010
0000
1000
0000
,
0020
0230
0302
0000
,
1003
0000
0000
0100
0000
0000
0010
0001
0000
0000
0000
0010
0001
0000
0000
0010
,
0100
0000
0000
0100
1000
0000
0000
0000
1000
0000
0010
0100
0001
0000
0100
0010
,
1000
0000
0001
0100
0001
0000
1000
0010
1000
0000
0001
0100
0001
0000
1000
0010
,
1000
0000
0001
0010
0001
0000
1000
0100
1000
0000
0001
0100
0010
0000
1000
0010
,
0100
0000
0001
1000
0010
0000
1000
0001
0100
0000
0001
1000
0100
0000
1000
0001
,
0010
0000
0100
1000
0010
0000
0100
0001
0100
0000
0010
1000
0010
0000
0100
0001
,
0100
0000
0010
1000
0010
0000
0100
0001
0010
0000
0100
1000
0100
0000
0100
0010
,
0100
0000
0001
0000
0200
0000
0000
0000
1300
0000
0010
0100
0010
0000
0010
0001
,
0020
0000
0000
0000
2030
0000
0000
0000
3100
0000
0100
0010
0100
0000
0010
0001
,
0010
0000
0100
0000
1000
0000
0001
0000
0020
0000
0000
0000
0000
0000
0130
1000
,
0020
0000
0000
0000
0000
0000
0130
0001
0100
0000
0010
0000
1000
0000
0100
0000
,
1100
0100
0220
0000
,
0330
0000
0000
0000
0001
0100
0010
1000
0002
0000
0000
0000
1003
0000
0100
0010
,
0100
0000
0010
0100
0010
0000
0100
0010
0100
0000
0010
0100
0010
0000
0001
0000
,
0010
0000
0100
1000
0100
0000
0010
0000
0001
0000
0100
0010
1000
0000
0010
0000
,
0100
0000
0001
0100
0010
0000
1000
0000
0100
0000
0010
0001
0010
0000
0100
0000
,
0010
0000
0100
1000
0010
0000
0100
0000
0001
0000
0100
0010
1000
0000
0100
0010
,
0002
0000
0103
0000
0101
0000
0000
0020
,
1000
0000
0000
1000
0000
0000
1000
0000
2030
0000
0000
0000
3100
0000
0010
0000
,
0001
0000
1000
0010
1000
0000
0100
0000
0010
0000
0001
0100
0010
0000
2000
0000
,
0100
0000
0000
0100
0000
0000
3200
0000
0000
0000
0000
0000
0310
0000
0001
0100
,
0010
0000
1000
0000
0010
0000
0100
0000
0001
0000
0100
0010
1000
0000
0010
0000
,
0100
0000
0001
0010
0100
0000
1000
0000
0100
0000
0010
0100
0010
0000
0001
0000
,
0100
0000
0010
1000
0010
0000
0100
0000
0001
0000
0010
0100
1000
0000
0100
0000
,
0020
0000
0000
0000
0000
0000
0031
0000
0000
0100
0000
0000
0010
0000
1000
0000
,
0010
0000
1000
0100
0010
0000
0001
0000
0100
0000
0010
1000
0100
0000
0010
0001
,
0010
0000
0100
0010
0100
0000
1000
0000
1010
0000
0100
0001
0100
0000
0010
1000
,
0010
0000
0100
0001
1000
0000
0100
0000
0011
0000
0000
0000
0000
0000
0001
0000
,
0200
0320
2030
0000
,
3200
0000
0320
0000
0032
0000
0000
1003
,
0100
0000
0000
0010
0000
0000
0001
0000
0100
0000
0000
0000
0000
0000
0100
0000
,
0010
0000
0010
1000
0000
1010
1010
0000
,
0110
0110
0000
0101
0000
0000
0100
0001
,
0020
0000
0000
0000
0230
0000
0000
0000
2300
0000
0000
0000
3010
0000
0100
0001
,
0100
0000
0010
1000
0010
0000
0100
0001
0100
0000
0010
1000
0010
0000
0100
0001
,
0100
0000
0010
0000
1000
0000
0000
0000
1010
0000
0100
0001
0100
0000
0100
0010
,
0100
0000
0100
0001
0010
0000
0100
0000
0010
0000
0000
0000
0000
0000
0001
0000
,
0020
0000
0000
0000
0230
0000
0000
0000
2300
0000
0000
0000
3010
0000
1000
0100
,
0002
0000
0000
0000
0203
0000
0000
0000
2300
0000
0000
0000
3000
0000
1000
0010
,
0001
0000
0010
0000
2000
0000
0000
0000
0000
0000
0000
0000
3000
0000
1000
0100
,
0002
0000
0000
0000
0203
0000
0000
0000
0300
0000
0000
0000
0000
0000
1000
0100
,
0010
0001
1000
0001
2002
0000
3003
0000
;

//---------------dance-single - ----------------
#NOTES:
     dance-single:
     :
     Medium:
     6:
     0.330,0.309,0.088,0.494,0.029:
0000
0000
0000
0000
,
1000
0001
1000
0200
0000
0300
0000
0000
,
0010
0001
0000
0200
0000
0300
0000
0000
,
0010
1000
0001
0100
0010
2000
0000
3000
,
0100
0100
0000
2000
0000
3000
0000
0000
,
0001
0010
0001
2000
0000
3000
0000
0000
,
0100
0010
0000
0002
0000
0003
0000
0000
,
0010
0100
1000
0100
1000
0002
0000
0003
,
0100
0010
0000
2000
0000
3000
0000
0000
,
0010
1000
0001
0200
0000
0300
0000
0000
,
0001
0010
0000
0200
0000
0300
0000
0000
,
1000
0010
0100
0001
0100
0002
0000
0003
,
1000
0100
0000
0020
0000
0030
0000
0000
,
0001
0100
0010
2000
0000
3000
0000
0000
,
0010
0100
0000
0002
0000
0003
0000
0000
,
0001
0010
0100
1000
0001
0020
0000
0000
,
0130
2000
0000
0000
3010
0100
0001
0100
,
0001
0002
0000
0023
0000
0230
0000
0000
,
0000
0000
1300
0000
0000
0010
0000
0000
0100
0000
0001
0000
0002
0000
0000
0000
,
0000
0000
0000
0003
,
0000
0010
0100
0000
0220
0000
0330
0000
,
0000
0100
1000
0001
0020
0000
0030
0000
,
0000
0100
1000
0000
0022
0000
0033
0000
,
0000
0010
0100
1000
0001
0100
0001
0000
,
0000
1000
0010
0000
2020
0000
3030
0000
,
0000
1000
0001
0100
0002
0000
0003
0000
,
0000
0010
0100
0000
2200
0000
3300
0000
,
0000
0100
0010
0001
0100
0010
2000
0000
,
0000
3010
0200
0000
0000
0301
0010
0001
,
1000
0100
0020
0000
0032
0000
2003
0000
,
0000
0000
0000
0000
3100
0010
0020
0000
,
0000
0000
0030
0001
,
0001
0010
0100
1000
,
0100
0020
0032
2003
,
3020
0230
0301
0011
,
0000
0022
0033
0011
,
0000
0000
0001
0000
0100
0000
0000
0010
0000
0000
1000
0000
0010
0000
0000
0000
,
2000
3100
0010
0001
,
1000
0000
0100
0000
1000
0000
0000
0100
0000
0000
0010
0000
0000
0000
0000
0000
,
0010
0001
0010
0100
,
1000
0100
0010
0001
,
1000
0001
0010
0100
,
0000
0000
0000
0000
1000
0000
0000
0000
0100
0000
0000
0000
0000
0000
0000
0000
0000
0000
0000
0000
0000
0000
0010
0000
0000
0000
0000
0001
0000
0000
0000
0000
,
2000
0000
0000
3020
,
0130
0000
0010
0000
1000
0000
0000
0010
0000
0000
0100
0000
0001
0000
0000
0010
,
0000
0001
0200
0000
0300
0000
0000
0000
,
0000
0001
2000
0000
3020
0000
0230
0000
,
0000
0302
0203
0302
,
0003
0000
1000
0000
0010
0000
0000
0100
0000
0000
0001
0000
0100
0000
0000
0000
,
0000
0010
1000
0000
0100
0010
0000
0001
,
0100
0000
0010
1000
0000
0001
0000
0000
,
1000
0100
0020
0000
0032
0000
0203
0000
,
0310
1000
0010
0000
0220
0000
0330
0000
,
0000
0010
1000
0100
0010
0000
0000
0000
,
0000
0001
0010
0000
0220
0000
0330
0000
,
0000
1000
0200
0000
0320
0000
0032
0000
,
0103
0010
1000
0000
0202
0000
0303
0000
,
0000
0001
0010
0100
1000
0000
0000
0000
,
0000
0010
0100
0000
1100
0000
0000
0000
,
0000
0001
0010
0100
1000
0001
2002
0000
,
3003
0000
0000
0000
;

//---------------dance-single - ----------------
#NOTES:
     dance-single:
     :
     Easy:
     3:
     0.198,0.242,0.029,0.118,0.000: // measure 1
0000
0000
0000
0000
,  // measure 2
1000
0100
0000
0000
,  // measure 3
1000
0001
0000
0000
,  // measure 4
0010
0100
1000
0000
,  // measure 5
0100
0010
0000
0000
,  // measure 6
0001
1000
0001
0000
,  // measure 7
0010
0100
0000
0000
,  // measure 8
1000
0010
0100
0000
,  // measure 9
0001
0010
0000
0000
,  // measure 10
0100
1000
0010
0000
,  // measure 11
0100
0001
0000
0000
,  // measure 12
0010
0100
0010
0000
,  // measure 13
0001
0100
0000
0000
,  // measure 14
0010
1000
0000
0000
,  // measure 15
0100
0010
0001
0000
,  // measure 16
0100
0010
1000
0000
,  // measure 17
0100
0000
0010
0001
,  // measure 18
0010
0100
0010
0000
,  // measure 19
0100
0000
2002
0000
,  // measure 20
0000
3003
0001
0100
,  // measure 21
0010
0100
0001
0100
,  // measure 22
0010
1000
0010
0100
,  // measure 23
0001
0010
0100
1000
,  // measure 24
0100
0010
0001
0100
,  // measure 25
0010
1000
0010
0100
,  // measure 26
0001
0010
0100
1000
,  // measure 27
0100
0010
0001
0010
,  // measure 28
0100
0010
0100
1000
,  // measure 29
0100
0010
0001
0010
,  // measure 30
0001
1000
0200
0000
,  // measure 31
0000
0310
0002
0000
,  // measure 32
0000
0000
0000
0103
,  // measure 33
0010
0000
1000
0000
,  // measure 34
0100
0010
0001
0100
,  // measure 35
0010
1000
0100
0000
,  // measure 36
2002
0000
3003
0011
,  // measure 37
0000
0001
0000
0010
,  // measure 38
0000
0100
0000
1000
,  // measure 39
0000
0100
0000
1000
,  // measure 40
0000
0001
0000
0100
,  // measure 41
0000
0010
0000
1000
,  // measure 42
0000
0010
0000
0100
,  // measure 43
0000
0001
0000
0010
,  // measure 44
0000
0001
0000
0010
,  // measure 45
0100
1000
0100
0010
,  // measure 46
0001
0100
0010
1000
,  // measure 47
0010
1000
0002
0000
,  // measure 48
0103
0010
2000
0000
,  // measure 49
3010
0010
0100
0001
,  // measure 50
0000
0000
1000
0000
0000
0010
0000
0000
,  // measure 51
0100
0000
0000
0001
0000
0000
0100
0000
,  // measure 52
0010
2000
3020
0230
,  // measure 53
0301
0100
0001
0000
,  // measure 54
0010
0001
1000
0000
,  // measure 55
1000
0100
0010
0000
,  // measure 56
0001
0020
0032
2003
,  // measure 57
3001
0100
0001
0000
,  // measure 58
1000
0001
0010
0000
,  // measure 59
0010
0100
0100
0000
,  // measure 60
1000
0001
2002
3003
;
