#TITLE:Straight Up;
#SUBTITLE:;
#ARTIST:Paula Abdul;
#TITLETRANSLIT:;
#SUBTITLETRANSLIT:;
#ARTISTTRANSLIT:;
#CREDIT:348;
#BANNER:Straight Up Banner.png;
#BACKGROUND:Straight Up Background.png;
#LYRICSPATH:Straight Up.lrc;
#CDTITLE:;
#MUSIC:Straight Up.mp3;
#OFFSET:-0.267;
#SAMPLESTART:62.858;
#SAMPLELENGTH:15.000;
#SELECTABLE:YES;
#BPMS:0.000=95.859;
#STOPS:;
#BGCHANGES:;

//---------------dance-single - ----------------
#NOTES:
     dance-single:
     :
     Beginner:
     1:
     0.091,0.105,0.018,0.000,0.000:
0000
0000
0000
0000
,
0000
0000
0000
0000
,
0000
0000
0000
0000
,
0000
0000
0000
0000
,
1000
0000
0000
1000
,
1000
0000
0000
0000
,
0001
0000
0000
0001
,
0001
0000
0000
0000
,
1000
0000
0000
1000
,
0100
0000
0000
0100
,
0010
0000
0000
0010
,
0001
0000
1000
0000
,
0001
0000
0000
0001
,
0100
0000
0000
0100
,
0010
0000
0000
0010
,
1000
0000
0000
0000
,
0001
0000
0010
0000
,
0001
0000
0010
0000
,
0100
0000
1000
0000
,
0100
0000
1000
0000
,
0001
0000
0100
0000
,
0001
0000
0100
0000
,
0010
0000
1000
0000
,
0010
0000
1000
0000
,
0110
0000
0000
0000
,
1001
0000
0000
0001
,
0001
0000
1000
0000
,
0010
0000
0000
0100
,
0100
0000
0010
0000
,
1000
0000
0000
1000
,
1000
0000
0001
0000
,
0100
0000
0000
0010
,
0010
0000
0100
0000
,
0100
0000
0100
0000
,
0100
0100
0000
0010
,
0010
0000
0010
0000
,
1000
1000
0000
0001
,
0001
0000
0010
0000
,
0100
0000
1000
0000
,
0001
0000
0000
0000
;

//---------------dance-single - ----------------
#NOTES:
     dance-single:
     :
     Easy:
     2:
     0.139,0.160,0.090,0.063,0.000:
0000
0000
0000
0000
,
0000
0000
0000
0000
,
0000
0000
0000
0000
,
0000
0000
0000
0000
,
1000
0001
1000
0000
,
0001
1000
0001
0000
,
0100
0010
0100
0000
,
0010
0100
0010
0000
,
1000
0000
0001
0000
,
0001
0000
1000
0000
,
0010
0000
0100
0000
,
0100
0000
0010
0000
,
0100
0000
0001
0010
,
0001
0000
1000
0100
,
1000
0000
0001
0000
,
0110
0000
1001
0000
,
0110
0000
1000
0001
,
0100
0000
0001
1000
,
0010
0000
0100
0010
,
2000
3000
0002
0003
,
1000
0000
0010
1000
,
0001
0000
0010
0001
,
1000
0000
0001
1000
,
0001
0000
1000
0000
,
0020
0030
0200
0300
,
0011
0000
1000
0010
,
1000
0001
1000
0000
,
0101
0000
0010
0001
,
0200
0000
0000
0300
,
1010
0000
0001
0100
,
0001
1000
0001
0000
,
1100
0000
0010
0001
,
0020
0000
0000
0030
,
0001
0100
0000
0100
,
0010
1000
0000
1000
,
0100
0010
0000
0010
,
0001
0000
0110
0000
,
1001
0000
0110
0000
,
1000
0001
0100
0000
,
0020
0000
0030
0000
;

//---------------dance-single - ----------------
#NOTES:
     dance-single:
     :
     Medium:
     5:
     0.255,0.249,0.171,0.072,0.000: // measure 1
0000
0000
0000
0000
,  // measure 2
0000
0000
0000
0000
,  // measure 3
0000
0000
0000
0000
,  // measure 4
0000
0000
0000
0000
,  // measure 5
0001
0000
1000
0000
0001
0010
0100
0000
,  // measure 6
1001
0000
1000
0100
1000
0000
0000
0000
,  // measure 7
0010
0000
0100
0000
0010
0100
0001
0000
,  // measure 8
0110
0000
0001
0010
0001
0000
0000
0000
,  // measure 9
0001
0000
1000
0100
1000
0000
0001
0000
,  // measure 10
1000
0000
0001
0010
0001
0000
1000
0000
,  // measure 11
0010
0000
0100
0000
0001
1000
0001
0000
,  // measure 12
2000
3100
0002
0013
,  // measure 13
0100
0000
0010
1000
0010
0000
0100
0000
,  // measure 14
0010
0000
0100
0001
0100
0000
0010
0000
,  // measure 15
0100
0000
0001
0000
1000
0010
1000
0000
,  // measure 16
0020
1030
0200
0301
,  // measure 17
1001
0000
0100
0000
0010
1000
0010
0100
,  // measure 18
0010
0000
1000
0000
0001
0010
0001
0100
,  // measure 19
0001
0000
0100
0000
0001
0000
1000
0001
,  // measure 20
2000
0100
0010
3001
,  // measure 21
0110
0000
0001
0000
1000
0100
1000
0010
,  // measure 22
1000
0000
0001
0000
0100
0001
0100
0010
,  // measure 23
0100
0000
0001
0000
1000
0000
0010
0100
,  // measure 24
0010
1100
0010
0101
,  // measure 25
1000
0100
0001
0100
1000
0000
0110
0000
,  // measure 26
1000
0000
0001
0000
1000
0100
1000
0000
,  // measure 27
0010
0010
1010
0011
,  // measure 28
0100
0000
0010
0000
0100
0001
0100
0000
,  // measure 29
0001
0001
0101
1100
,  // measure 30
0001
0000
0100
0000
0010
1000
0010
0000
,  // measure 31
0100
0100
0101
0011
,  // measure 32
0100
0000
1000
0000
0010
0001
0010
0000
,  // measure 33
1000
1000
1100
1010
,  // measure 34
0002
0000
0103
0000
1000
0010
1000
0000
,  // measure 35
0001
0100
0001
0000
1000
0000
0110
0000
,  // measure 36
2000
0000
3001
0000
0010
0001
0010
0000
,  // measure 37
0100
1000
0100
0000
0010
0000
1001
0000
,  // measure 38
0010
0100
0010
0000
1000
0001
1000
0000
,  // measure 39
0100
0011
0100
1010
,  // measure 40
0200
0000
0300
0000
;

//---------------dance-single - ----------------
#NOTES:
     dance-single:
     :
     Hard:
     7:
     0.352,0.338,0.234,0.135,0.099:
0000
0000
0000
0000
,
0000
0000
0000
0000
,
0000
0000
0000
0000
,
0000
0000
0000
0000
,
1000
0000
0001
0000
1000
0100
1000
0000
,
0001
0010
1000
0010
0001
0000
0110
0000
,
0001
0000
1000
0000
0001
0010
0001
0000
,
1000
0100
0001
0100
1000
0000
1001
0000
,
0011
0000
1000
0100
1000
0000
0001
0010
,
0001
0000
1000
0001
1000
0000
0110
0000
,
1001
0000
0100
0010
0100
0000
0001
0000
,
2002
0000
0000
0000
3003
0000
0000
0000
0000
0010
0100
0000
0001
0000
1000
0000
,
0001
0010
0001
0100
0001
0000
1100
0000
,
0010
0000
1000
0000
0010
0000
0001
0000
0010
0000
0000
1000
0001
0000
0010
0000
,
0001
0100
1000
0000
1000
0100
0001
0000
,
0100
0001
0100
1000
0100
0000
0110
0000
,
1001
0000
0000
0000
1000
0000
0000
0001
0010
0000
1000
0000
0010
0000
0001
0000
,
1001
0000
0000
0000
0001
0000
0000
1000
0100
0000
0001
0000
0100
0000
1000
0000
,
0001
0000
0110
0000
1000
0010
0001
0100
,
2000
3020
0230
0302
,
0103
0000
0000
0000
0110
0000
0000
1000
0010
0000
0001
0000
0010
0000
1000
0000
,
0010
0000
0000
0000
0110
0000
0000
0001
0100
0000
1000
0000
0100
0000
0001
0000
,
1000
0000
1001
0000
0010
1000
0001
0100
,
2001
0000
3002
0000
0000
0203
0310
0000
,
1000
0000
0010
0000
0010
0000
1000
0100
0000
0100
1000
0000
0010
0000
0100
0000
,
1001
0010
0100
0001
0010
0100
1000
0001
,
0100
0000
0000
0010
0100
0000
0010
0000
1000
0000
0001
0000
0100
0000
0010
0000
,
1001
0000
0000
0000
0100
0001
0000
1000
0000
0001
0100
0000
0001
0000
1000
0000
,
0110
0001
0100
0010
1000
0001
1000
0000
,
0110
0001
1000
0010
1000
0001
0100
0010
,
1000
0000
0000
0001
1000
0000
0100
0000
0010
0000
0001
0000
1000
0000
0001
0000
,
0110
0000
0000
0000
0011
0000
0000
1100
0000
0000
0001
0000
1000
0000
0010
0000
,
1000
0100
0010
0001
0100
0010
1000
0000
,
0002
0000
0010
0000
0013
0000
0000
0000
2000
0000
3001
1000
0000
0000
0000
0000
,
0001
0000
1000
0000
0110
0000
1000
0001
0000
0001
1000
0000
0010
0000
0010
0000
,
2000
0000
0100
0000
3100
0000
0000
0000
0002
0000
1003
0001
0000
0000
0000
0000
,
0100
0000
0010
0000
1001
0000
0010
0100
0000
0100
0010
0000
1000
0000
0001
0000
,
1000
0001
0110
0000
0001
0010
1000
0010
,
0001
0000
1000
0000
0001
0000
1000
0100
0000
0010
0001
0000
1000
0000
0001
0000
,
0220
0000
0330
0000
;

//---------------dance-single - ----------------
#NOTES:
     dance-single:
     :
     Challenge:
     9:
     0.564,0.533,0.360,0.189,0.702:
0000
0000
0000
0000
,
0000
0000
0000
0000
,
0000
0000
0000
0000
,
0000
0000
0000
0000
,
1000
0100
1000
0000
0002
0000
0000
0000
1003
0100
0010
0001
0000
1000
0001
0000
,
1000
0001
1000
0000
0001
0100
0010
1000
0000
0010
0100
0000
0110
0000
0000
0000
,
0001
0000
0010
0000
0001
0000
0000
0000
1000
0000
0000
0000
0001
0000
1000
0100
1000
0000
0001
0000
0100
0000
0010
0000
0000
0000
1000
0000
0001
0000
1000
0000
,
0010
0100
0010
0000
1000
0001
0100
0010
0000
1000
0001
0000
1001
0000
0000
0000
,
0110
0000
0000
0000
0001
1000
0010
1000
0000
0100
1000
0000
0001
0000
0010
0000
,
1100
0000
0001
0000
1000
0100
1000
0010
0000
0100
0001
0000
1000
0000
1001
0000
,
0011
0000
1000
0000
0010
0100
0000
0000
1001
0000
0010
0000
0100
0001
0000
0000
,
0100
0000
0000
0010
0000
0000
0100
0000
0000
0000
0000
0000
0001
0000
0000
0010
0000
0000
0100
0000
0000
1000
0000
0000
0000
0000
0000
0000
0001
0000
0100
0000
0000
0000
0010
0000
1000
0000
0000
0000
0001
0000
1000
0000
0000
0000
0010
0000
,
0200
0000
0010
0000
0310
0100
0000
0001
1000
0001
1000
0000
0001
0000
0101
0000
,
0001
0010
0100
0000
1000
0100
0001
0100
0000
1000
0010
0001
0010
0000
1000
0000
,
0001
0000
0100
0000
0100
0002
0000
1003
0010
0000
0010
0000
0010
1000
0000
0000
,
0001
0000
0000
1000
0000
0000
0001
0000
0000
0000
0000
0000
0100
0000
0000
0010
0000
0000
1000
0000
0000
0001
0000
0000
0000
0000
0000
0000
0100
0000
0010
0000
0000
0000
1000
0000
0100
0000
0000
0000
0010
0000
0001
0000
0000
0000
0000
0000
,
1100
0000
0001
0000
1000
0000
0001
0000
0011
0000
1000
0100
0000
1001
0000
0011
,
0000
1000
0001
1000
0002
0000
1000
0000
1003
0000
0010
0001
0000
1100
0000
0110
,
0000
0000
0001
0100
0010
0000
2000
0000
0001
0000
3001
1000
0000
0000
0110
0000
,
0012
1003
2100
3001
0201
0310
1020
0130
,
1001
0000
0010
0100
0002
0000
1003
0000
0110
0000
2000
0100
0000
0010
0000
3001
,
0000
0010
1000
0010
0001
0000
1000
0010
1000
0000
0002
1000
0000
0100
0000
0013
,
0000
0000
1000
0001
1000
0000
0110
0000
0001
0000
1000
0020
0000
0130
0000
0000
,
0100
0000
0000
0001
0000
0000
0100
0000
0000
0000
0000
0000
0010
0000
0000
1000
0000
0000
0010
0000
0000
0000
0000
0000
0000
0000
0000
0000
1000
0000
0010
0000
0000
0000
0100
0000
0001
0000
0000
0000
0000
0000
1000
0000
0000
0000
0000
0000
,
1100
0000
0000
0000
0000
0000
0011
0000
0000
0000
0000
0000
2000
0000
0000
0000
0000
0000
3001
0000
0000
0200
0000
0000
0000
0000
0000
0000
1300
0000
0100
0000
0000
0000
0001
0000
0100
0000
0000
0000
1000
0000
0100
0000
0000
0000
0001
0000
,
1000
0000
0010
0100
0000
1001
0000
0100
0000
0010
0100
0010
1000
0001
1000
0001
,
1000
0000
0001
0010
0001
0000
0100
0002
0000
1003
0001
1000
0010
0000
1100
0000
,
0011
0000
0100
0000
0010
1000
0000
0110
0000
0001
0100
0010
1000
0000
0001
0000
,
1000
0000
0000
0100
0000
0000
1000
0000
0000
0000
0000
0000
0010
0000
0000
0100
0000
0000
0001
0000
0000
1000
0000
0000
0000
0000
0000
0000
0001
0000
1000
0000
0000
0000
0001
0000
0010
0000
0000
0000
0100
0000
1000
0000
0000
0000
0010
0000
,
0100
0000
0001
1000
0000
0011
0000
1001
0000
0100
0010
1000
0100
1000
0001
0000
,
1100
0000
0000
0001
0100
0000
0100
0010
0000
0010
1000
0001
0100
0000
1010
0000
,
0101
0000
0001
0000
0010
0001
0000
1010
0000
0001
0010
0100
1000
0000
0002
0000
,
0010
0000
0000
0000
0000
0000
0100
0000
0000
0000
0000
0000
1003
0000
0000
0100
0000
0000
0001
0000
0000
0100
0000
0000
0000
0000
0000
0000
1000
0000
0001
0000
0000
0000
0100
0000
0001
0000
0000
0000
0010
0000
0001
0000
0000
0000
1000
0000
,
0001
0000
0000
0000
1000
0000
0100
0000
2000
0000
0000
0000
0000
0000
0000
0000
3001
0000
0010
0000
0100
0000
0010
0000
0000
0000
0001
0000
1000
0001
1000
0000
,
0001
0000
0000
0000
0000
0000
1100
0000
0000
0000
0000
0000
0001
0000
0000
0100
0000
0000
0010
0000
0000
0100
0000
0000
0000
0000
0000
0000
0001
0000
0100
0000
0000
0000
0010
0000
1000
0000
0000
0000
0000
0000
0110
0000
0000
0000
0000
0000
,
1000
0000
0000
0000
0001
0000
0010
0000
0002
0000
0000
0000
0000
0000
0000
0000
1003
0000
0100
0000
0010
0000
0100
0000
0000
0000
1000
0000
0001
1000
0001
0000
,
1000
0000
0000
0000
0000
0000
0011
0000
0000
0000
0000
0000
1000
0000
0000
0010
0000
0000
0100
0000
0000
0010
0000
0000
0000
0000
0000
0000
1000
0000
0010
0000
0000
0000
0100
0000
0001
0000
0000
0000
0000
0000
1001
0000
0000
0000
0000
0000
,
0100
0010
1000
0100
0000
0010
0001
0000
0010
0001
0100
0010
0000
1000
0100
0000
,
1000
0000
0000
0001
0000
0000
1000
0000
0000
0000
0000
0000
0010
0000
0000
0100
0000
0000
0010
0000
0000
0100
0000
0000
0000
0000
0000
0000
0001
0000
1000
0000
0000
0000
0010
0000
0100
0000
0000
0000
0000
0000
0110
0000
0000
0000
0000
0000
,
2002
0000
3003
0000
;
