#TITLE:Speed Demon;
#SUBTITLE:;
#ARTIST:Michael Jackson;
#TITLETRANSLIT:;
#SUBTITLETRANSLIT:;
#ARTISTTRANSLIT:;
#GENRE:;
#CREDIT:;
#MENUCOLOR:;
#METERTYPE:DDR;
#BANNER:;
#BACKGROUND:;
#LYRICSPATH:; #CDTITLE;
#MUSIC:Speed Demon.mp3;
#OFFSET:-1.377;
#SAMPLESTART:40.003;
#SAMPLELENGTH:12.000;
#SELECTABLE:YES;
#LISTSORT:;
#DISPLAYBPM:198.000;
#BPMS:0.000=197.800;
#STOPS:322.000=1.517
,323.000=0.910
;
#BGCHANGES:;
#ATTACKS:;

//---------------dance-single - BEGINNER----------------
#NOTES:
     dance-single:
     BEGINNER:
     Beginner:
     2:
     0.146,0.352,0.058,0.058,0.000: // measure 1
0000
0000
0000
0000
,  // measure 2
0000
0000
0000
0000
,  // measure 3
0000
0000
0000
0000
,  // measure 4
0000
0000
0000
0000
,  // measure 5
0100
0000
0000
0000
,  // measure 6
0000
0000
0000
0000
,  // measure 7
0100
0000
0000
0000
,  // measure 8
0000
0000
0000
0000
,  // measure 9
0001
0000
0000
0000
,  // measure 10
0000
0000
0000
0000
,  // measure 11
0001
0000
0000
0000
,  // measure 12
0000
0000
0000
0000
,  // measure 13
1000
0000
0000
0000
,  // measure 14
0000
0000
0000
0000
,  // measure 15
1000
0000
0000
0000
,  // measure 16
0000
0000
0000
0000
,  // measure 17
0100
0000
0100
0000
,  // measure 18
0000
0000
0000
0000
,  // measure 19
0001
0000
0001
0000
,  // measure 20
0000
0000
0000
0000
,  // measure 21
1000
0000
1000
0000
,  // measure 22
0000
0000
0000
0000
,  // measure 23
0010
0000
0010
0000
,  // measure 24
0010
0000
0000
0000
,  // measure 25
0100
0000
0100
0000
,  // measure 26
0000
0000
0000
0000
,  // measure 27
1000
0000
1000
0000
,  // measure 28
0000
0000
0000
0000
,  // measure 29
0001
0000
0001
0000
,  // measure 30
0000
0000
0000
0000
,  // measure 31
0100
0000
0100
0000
,  // measure 32
0100
0000
0000
0000
,  // measure 33
0010
0000
0020
0000
,  // measure 34
0000
0000
0030
0000
,  // measure 35
1000
0000
1000
0000
,  // measure 36
0001
0000
0001
0000
,  // measure 37
0100
0000
0200
0000
,  // measure 38
0000
0000
0300
0000
,  // measure 39
0001
0000
0001
0000
,  // measure 40
0100
0000
0100
0000
,  // measure 41
0010
0000
0020
0000
,  // measure 42
0000
0000
0030
0000
,  // measure 43
0100
0000
0100
0000
,  // measure 44
0001
0000
0001
0000
,  // measure 45
1000
0000
2000
0000
,  // measure 46
0000
0000
3000
0000
,  // measure 47
1001
1001
1001
0000
,  // measure 48
0000
0000
1001
0000
,  // measure 49
0100
0000
0000
0000
,  // measure 50
0000
0000
0000
0000
,  // measure 51
0010
0000
0000
0000
,  // measure 52
0000
0000
0000
0000
,  // measure 53
0001
0000
0001
0000
,  // measure 54
0001
0000
0000
0000
,  // measure 55
1000
0000
1000
0000
,  // measure 56
1000
0000
0000
0000
,  // measure 57
0001
0000
1000
0000
,  // measure 58
0001
0000
0000
0000
,  // measure 59
1000
0000
0001
0000
,  // measure 60
1000
0000
0000
0000
,  // measure 61
0001
0000
0002
0000
,  // measure 62
0000
0000
0003
0000
,  // measure 63
0100
0000
0010
0000
,  // measure 64
0100
0000
0010
0000
,  // measure 65
1000
0000
2000
0000
,  // measure 66
0000
0000
3000
0000
,  // measure 67
0100
0000
0010
0000
,  // measure 68
0100
0000
0010
0000
,  // measure 69
0001
0000
0001
0000
,  // measure 70
0100
0000
0000
0000
,  // measure 71
1000
0000
1000
0000
,  // measure 72
0010
0000
0000
0000
,  // measure 73
0100
0000
0100
0000
,  // measure 74
1000
0000
0000
0000
,  // measure 75
0001
0000
0001
0000
,  // measure 76
0010
0000
0000
0000
,  // measure 77
0001
0000
0100
0000
,  // measure 78
0001
0000
0000
0000
,  // measure 79
0010
0000
1000
0000
,  // measure 80
0010
0000
0000
0000
,  // measure 81
1001
0000
0000
1001
;

//---------------dance-single - BASIC----------------
#NOTES:
     dance-single:
     BASIC:
     Easy:
     5:
     0.303,0.434,0.164,0.000,0.000: // measure 1
0000
0000
0000
0000
,  // measure 2
0000
0000
0000
0000
,  // measure 3
0000
0000
0000
0000
,  // measure 4
0000
0000
0000
0000
,  // measure 5
0010
0100
0000
0000
,  // measure 6
0010
0000
0010
0000
,  // measure 7
0100
0000
0010
0000
,  // measure 8
0100
0000
0100
0000
,  // measure 9
1000
0000
0001
0000
,  // measure 10
1000
0100
1000
0000
,  // measure 11
0001
0000
1000
0000
,  // measure 12
0001
0100
0001
0000
,  // measure 13
1000
0000
0001
0000
,  // measure 14
1000
0010
1000
0000
,  // measure 15
0001
0000
1000
0000
,  // measure 16
0001
0010
0001
0000
,  // measure 17
0100
0000
0001
0000
,  // measure 18
0010
0000
1010
0000
,  // measure 19
0100
0000
1000
0000
,  // measure 20
0010
0000
0011
0000
,  // measure 21
0010
0000
0001
0000
,  // measure 22
0100
0000
0101
0000
,  // measure 23
0001
0100
1000
0100
,  // measure 24
0001
0000
0000
0000
,  // measure 25
0100
0000
0001
0000
,  // measure 26
1000
0000
1100
0000
,  // measure 27
0100
0000
1000
0000
,  // measure 28
0001
0000
0011
0000
,  // measure 29
0010
0000
0001
0000
,  // measure 30
1000
0000
1010
0000
,  // measure 31
1000
0010
0001
0010
,  // measure 32
1000
0000
0001
0000
,  // measure 33
0110
0000
1001
0000
,  // measure 34
0001
1000
0010
0100
,  // measure 35
0001
0100
0001
0000
,  // measure 36
1000
0100
1000
0000
,  // measure 37
0100
0000
0010
0000
,  // measure 38
0001
0100
0010
1000
,  // measure 39
0100
1000
0010
0000
,  // measure 40
0100
0001
0010
0000
,  // measure 41
0001
0000
1000
0000
,  // measure 42
0001
0010
0100
1000
,  // measure 43
0001
0100
1000
0000
,  // measure 44
0001
0010
1000
0000
,  // measure 45
0100
0000
0010
0000
,  // measure 46
0001
0010
0100
0000
,  // measure 47
1000
0001
1000
0000
,  // measure 48
0010
0100
0010
0000
,  // measure 49
0001
0000
0100
0000
,  // measure 50
0010
0000
1001
0000
,  // measure 51
1000
0000
0100
0000
,  // measure 52
0010
0000
1001
0000
,  // measure 53
0001
0100
0001
0000
,  // measure 54
1000
0010
1000
0000
,  // measure 55
0100
1000
0100
0000
,  // measure 56
0010
0001
0010
0000
,  // measure 57
1000
0001
1000
0000
,  // measure 58
0010
0100
0010
0000
,  // measure 59
0001
1000
0001
0000
,  // measure 60
0100
0010
0100
0000
,  // measure 61
1001
0000
0110
0000
,  // measure 62
0100
0010
1000
0001
,  // measure 63
1000
0100
0001
0000
,  // measure 64
0001
0100
1000
0000
,  // measure 65
0001
0000
1000
0000
,  // measure 66
0100
0010
0100
1000
,  // measure 67
0001
0010
0100
0000
,  // measure 68
1000
0010
0100
0000
,  // measure 69
0001
0000
0001
0000
,  // measure 70
0100
0000
0001
0100
,  // measure 71
1000
0000
1000
0000
,  // measure 72
0100
0000
1000
0100
,  // measure 73
1000
0000
1000
0000
,  // measure 74
0010
0000
1000
0010
,  // measure 75
0001
0000
0001
0000
,  // measure 76
0010
0000
0010
1000
,  // measure 77
0100
0000
0100
0000
,  // measure 78
0010
0000
0001
1000
,  // measure 79
0010
0000
0010
0000
,  // measure 80
0100
0010
0100
0000
,  // measure 81
1001
1001
1001
0110
,  // measure 82
0100
0000
0110
0000
;

//---------------dance-single - DIFFICULT----------------
#NOTES:
     dance-single:
     DIFFICULT:
     Medium:
     7:
     0.485,0.475,0.261,0.126,0.000: // measure 1
0000
0000
0000
0000
,  // measure 2
0000
0000
0000
0000
,  // measure 3
0000
0000
0000
0000
,  // measure 4
0000
0000
0000
0000
,  // measure 5
0001
0100
0001
1000
,  // measure 6
0010
0000
1000
0000
0100
0010
0000
0000
,  // measure 7
0001
0010
0100
1000
,  // measure 8
0010
0000
0100
0000
0001
1000
0000
0000
,  // measure 9
1001
0100
1000
0001
,  // measure 10
0010
0000
0100
1000
0100
1000
0000
0000
,  // measure 11
0100
1000
0001
1000
,  // measure 12
0010
0000
0100
0001
0100
0001
0000
0000
,  // measure 13
0100
0001
0010
0001
,  // measure 14
1000
0000
0010
0001
0010
0001
0000
0000
,  // measure 15
0010
0100
0001
1000
,  // measure 16
0010
0000
1000
0010
1000
0010
0000
0000
,  // measure 17
1000
0100
0010
0001
,  // measure 18
0100
0000
0001
0100
0010
1000
0000
0000
,  // measure 19
0010
0100
1000
0100
,  // measure 20
0001
0000
1000
0100
1000
0001
0000
0000
,  // measure 21
0100
0001
0010
0100
,  // measure 22
1000
0000
0010
0001
0010
1000
0000
0000
,  // measure 23
0010
0100
0001
1000
,  // measure 24
1010
0010
0011
0000
,  // measure 25
0010
0100
0001
1000
,  // measure 26
0100
0000
1000
0001
0010
0100
0000
0000
,  // measure 27
0001
0100
0010
1000
,  // measure 28
0001
0000
1000
0010
0100
0001
0000
0000
,  // measure 29
0001
0100
0001
0010
,  // measure 30
0100
0000
1000
0001
1000
0100
0000
0000
,  // measure 31
0010
0100
1000
0001
,  // measure 32
0101
0100
1100
0000
,  // measure 33
0120
0000
1030
0000
,  // measure 34
0010
1000
0001
0100
0010
1000
0001
0000
,  // measure 35
0100
0001
0101
0100
,  // measure 36
1000
0100
1100
0000
,  // measure 37
0020
0000
0130
0000
,  // measure 38
0010
1000
0001
0100
0001
1000
0010
0000
,  // measure 39
1000
0100
1001
0100
,  // measure 40
0001
0010
1001
0000
,  // measure 41
0200
0000
0310
0000
,  // measure 42
0001
0010
0100
1000
0010
0100
0010
0000
,  // measure 43
1000
0001
0110
0001
,  // measure 44
1000
0010
1001
0000
,  // measure 45
0002
0000
1003
0000
,  // measure 46
0001
0010
0100
1000
0010
0100
0001
0000
,  // measure 47
1001
0000
0110
0000
1001
0000
0000
0010
,  // measure 48
0000
0100
0010
0000
,  // measure 49
0001
0000
0100
0000
0010
0000
1000
0100
,  // measure 50
0000
0000
0100
1000
0001
0010
0000
0000
,  // measure 51
0001
0000
0010
0000
0100
0000
1000
0001
,  // measure 52
0000
0000
0001
0100
0010
1000
0000
0000
,  // measure 53
0010
0000
0100
0000
0001
0000
0002
0100
,  // measure 54
0000
0100
0003
0000
0001
0000
0000
0000
,  // measure 55
0010
0000
0001
0000
0100
0000
0020
1000
,  // measure 56
0000
1000
0030
0000
0100
0000
0000
0000
,  // measure 57
0001
0000
1000
0000
0100
0000
2000
0100
,  // measure 58
0000
0100
3000
0000
0001
0000
0000
0000
,  // measure 59
0010
0000
0100
0000
1000
0000
0002
0100
,  // measure 60
0000
0100
0003
0000
1000
0000
0000
0000
,  // measure 61
2000
0000
3001
0000
,  // measure 62
1000
0100
1000
0001
0100
0001
1000
0000
,  // measure 63
0100
0010
1001
0001
,  // measure 64
0100
0010
1001
0000
,  // measure 65
0020
0000
0130
0000
,  // measure 66
0010
1000
0001
0100
0010
1000
0100
0000
,  // measure 67
1000
0001
0110
0001
,  // measure 68
0010
0100
1001
0000
,  // measure 69
2000
0000
0100
0000
,  // measure 70
3001
0000
0000
0001
0100
0000
0010
0000
,  // measure 71
1000
0100
1000
0001
,  // measure 72
0011
0100
1100
0010
,  // measure 73
0002
0000
0010
0000
,  // measure 74
1000
0003
0000
0010
0100
0000
0001
0000
,  // measure 75
1000
0100
0010
0001
,  // measure 76
0101
1000
1100
0001
,  // measure 77
0200
0000
0001
0000
,  // measure 78
1300
0000
0000
0100
0001
0000
1000
0000
,  // measure 79
0010
0100
0001
1000
,  // measure 80
0010
0100
0001
1000
,  // measure 81
1001
0110
1001
0110
,  // measure 82
0010
0000
0100
0000
0010
0000
0000
0100
;

//---------------dance-single - EXPERT----------------
#NOTES:
     dance-single:
     EXPERT:
     Hard:
     9:
     0.676,0.792,0.281,0.000,0.116: // measure 1
0000
0000
0000
0000
,  // measure 2
0000
0000
0000
0000
,  // measure 3
0000
0000
0000
0000
,  // measure 4
0000
0000
0000
0000
,  // measure 5
1000
0100
1000
0010
0100
0001
1000
0010
,  // measure 6
0000
0000
0010
0100
1000
0100
0000
0000
,  // measure 7
0001
0100
0010
1000
0100
0010
0001
0100
,  // measure 8
0000
0100
0001
0100
0010
1000
0000
0000
,  // measure 9
0001
0100
0010
1000
0100
0010
0001
0100
,  // measure 10
0000
0000
0010
1000
0010
0100
0000
0000
,  // measure 11
1000
0100
0001
1000
0010
0100
0001
0010
,  // measure 12
0000
0000
1000
0100
0010
0001
0000
0000
,  // measure 13
0001
0010
0100
1000
0001
0010
0001
1000
,  // measure 14
0000
0000
1000
0010
0001
0100
0000
0000
,  // measure 15
0010
0100
0001
0010
0100
1000
0010
0100
,  // measure 16
0000
0000
0001
0100
0010
1000
0000
0000
,  // measure 17
0001
0100
0001
1000
0010
0000
1000
0100
,  // measure 18
0000
0000
0010
0001
1000
0100
0000
0000
,  // measure 19
0001
0100
1000
0100
0001
0000
1000
0100
,  // measure 20
0000
0000
0010
0001
1000
0100
0000
0000
,  // measure 21
0010
0100
0001
0100
0010
0000
1000
0010
,  // measure 22
0000
0000
0010
1000
0001
0100
0000
0000
,  // measure 23
0001
0100
0001
1000
0010
0000
1000
0000
,  // measure 24
1100
0001
0101
0000
,  // measure 25
0001
0010
0100
1000
0010
0000
0100
1000
,  // measure 26
0000
0000
0100
0001
0010
0100
0000
0000
,  // measure 27
0010
0001
0100
0010
1000
0000
0001
0100
,  // measure 28
0000
0000
0010
0100
1000
0001
0000
0000
,  // measure 29
1000
0010
1000
0001
0010
0000
0100
0010
,  // measure 30
0000
0000
0001
0100
0010
1000
0000
0000
,  // measure 31
0010
0100
0001
1000
0010
0000
1000
0000
,  // measure 32
1010
0001
0101
0000
,  // measure 33
0101
0000
0000
0000
0100
0000
0000
0000
1010
0000
0000
0000
1000
0010
1000
0000
,  // measure 34
0010
0100
0010
0000
0100
0001
0100
0000
0001
1000
0001
0000
0100
0000
0000
0000
,  // measure 35
0001
0100
1000
0010
0001
0000
0100
0000
,  // measure 36
1000
0100
0001
0010
1000
0000
0100
0000
,  // measure 37
0011
0000
0000
0000
1000
0000
0000
0000
1010
0000
0000
0000
1000
0010
1000
0000
,  // measure 38
0010
0100
0010
0000
0100
1000
0100
0000
0001
0100
0001
0000
0100
0000
0000
0000
,  // measure 39
0010
1000
0100
1000
0001
0000
1000
0000
,  // measure 40
0001
0100
0001
0010
0100
0000
0000
0000
,  // measure 41
1001
0000
0000
0000
0010
0000
0000
0000
0110
0000
0000
0000
0001
0100
0001
0000
,  // measure 42
1000
0100
1000
0000
0001
0010
0001
0000
1000
0010
1000
0000
0100
0000
0000
0000
,  // measure 43
0001
0100
0001
0100
1000
0000
0100
0000
,  // measure 44
1000
0100
1000
0100
0001
0000
0100
0000
,  // measure 45
1001
0000
0000
0000
0100
0000
0000
0000
0110
0000
0000
0000
0100
0010
1000
0000
,  // measure 46
0010
0100
1000
0000
0100
0010
0001
0000
0010
0100
0001
0000
1000
0000
0000
0000
,  // measure 47
1001
0000
0110
0000
1001
0000
0000
0010
,  // measure 48
0000
0000
1000
0000
0001
0100
0000
0000
,  // measure 49
0001
0100
0010
1000
0100
0010
0001
1000
,  // measure 50
0000
0000
1000
0001
1000
0100
0000
0000
,  // measure 51
0001
0100
0010
1000
0001
0010
0100
1000
,  // measure 52
0000
1000
0010
0100
0001
1000
0010
0000
,  // measure 53
0001
0100
0010
1000
0100
0000
0001
0100
,  // measure 54
0000
0010
0000
1000
0010
0100
0001
0000
,  // measure 55
1000
0100
1000
0001
0100
0000
0001
0010
,  // measure 56
0000
0010
0000
0001
1000
0100
0010
0000
,  // measure 57
1000
0100
0010
0001
0100
0000
0010
0100
,  // measure 58
0000
0001
0000
0100
0010
1000
0010
0000
,  // measure 59
0010
0100
0001
0100
1000
0000
0100
0010
,  // measure 60
0000
0010
0000
1000
0100
0010
0001
0000
,  // measure 61
0110
0000
0000
0000
0001
0000
0000
0000
1001
0000
0000
0000
0001
0100
0001
0000
,  // measure 62
1000
0100
1000
0000
0001
0010
0001
0000
1000
0010
1000
0000
0001
0000
0000
0000
,  // measure 63
0001
0010
1000
0100
0001
0000
0100
0000
,  // measure 64
1000
0010
0001
0100
1000
0000
0001
0000
,  // measure 65
0101
0000
0000
0000
0010
0000
0000
0000
1010
0000
0000
0000
1000
0100
0001
0000
,  // measure 66
1000
0010
0001
0000
0001
0010
1000
0000
0001
0100
1000
0000
0100
0000
0000
0000
,  // measure 67
0010
0100
1000
0100
0001
0000
0100
0000
,  // measure 68
0001
0100
0010
1000
0010
0000
0100
0000
,  // measure 69
0010
0100
0001
0100
,  // measure 70
0010
0000
1000
0001
0100
0000
0010
0000
,  // measure 71
1000
0100
0010
0001
0100
0000
0010
0000
,  // measure 72
0101
0010
1010
0100
,  // measure 73
1000
0001
0100
0010
,  // measure 74
1000
0000
0001
0100
1000
0000
0100
0000
,  // measure 75
0001
0010
0100
1000
0010
0000
0100
0000
,  // measure 76
0110
0001
0110
1000
,  // measure 77
0001
0010
0100
1000
,  // measure 78
0010
0000
1000
0100
0010
0000
0001
0000
,  // measure 79
1000
0100
0010
0001
0100
0000
0010
0000
,  // measure 80
1001
0000
0110
0000
0001
1000
0100
0000
,  // measure 81
1001
0110
1001
0110
,  // measure 82
0010
0000
0100
0000
1000
0001
0000
0001
;
