#TITLE:Lucky Star;
#SUBTITLE:;
#ARTIST:Madonna;
#TITLETRANSLIT:;
#SUBTITLETRANSLIT:;
#ARTISTTRANSLIT:;
#GENRE:;
#CREDIT:;
#MENUCOLOR:;
#METERTYPE:DDR;
#BANNER:;
#BACKGROUND:;
#LYRICSPATH:; #CDTITLE;
#MUSIC:Lucky Star.mp3;
#OFFSET:0.010;
#SAMPLESTART:40.800;
#SAMPLELENGTH:12.000;
#SELECTABLE:YES;
#LISTSORT:;
#DISPLAYBPM:118.000;
#BPMS:0.000=117.160;
#STOPS:;
#BGCHANGES:;
#ATTACKS:;

//---------------dance-single - BEGINNER----------------
#NOTES:
     dance-single:
     BEGINNER:
     Beginner:
     1:
     0.108,0.143,0.011,0.000,0.000: // measure 1
0000
0000
0000
0000
,  // measure 2
0000
0000
0000
0000
,  // measure 3
0000
0000
0000
0000
,  // measure 4
0000
0000
0000
0000
,  // measure 5
1000
0000
0000
0000
,  // measure 6
0001
0000
0000
0000
,  // measure 7
1000
0000
0000
0000
,  // measure 8
0001
0000
0000
0000
,  // measure 9
0010
0000
0000
0000
,  // measure 10
0100
0000
0000
0000
,  // measure 11
0010
0000
0000
0000
,  // measure 12
0100
0000
0000
0000
,  // measure 13
1000
0000
1000
0000
,  // measure 14
0000
0000
0000
0000
,  // measure 15
0001
0000
1000
0000
,  // measure 16
0001
0000
0001
0000
,  // measure 17
0010
0000
0010
0000
,  // measure 18
1000
0000
0100
0000
,  // measure 19
0010
0000
0010
0000
,  // measure 20
0001
0000
0100
0000
,  // measure 21
1000
1000
0000
1000
,  // measure 22
1000
0000
0000
0000
,  // measure 23
0001
0001
0000
0001
,  // measure 24
0001
0000
0000
0000
,  // measure 25
0010
0010
0000
0010
,  // measure 26
0010
0000
0000
0000
,  // measure 27
0100
0100
0000
0100
,  // measure 28
0100
0000
0000
0000
,  // measure 29
1001
0000
0000
0000
,  // measure 30
0001
0000
0000
0000
,  // measure 31
1000
0000
0000
0000
,  // measure 32
0001
0001
0001
0000
,  // measure 33
0100
0000
0000
0000
,  // measure 34
0010
0000
0000
0000
,  // measure 35
0010
0000
0000
0000
,  // measure 36
0100
0100
0100
0000
,  // measure 37
1000
0000
1000
0000
,  // measure 38
0010
0000
0100
0000
,  // measure 39
0010
0000
0010
0000
,  // measure 40
0100
0000
0001
0000
,  // measure 41
0010
0000
0010
0000
,  // measure 42
0001
0000
0010
0000
,  // measure 43
0100
0000
0100
0000
,  // measure 44
1000
0000
0010
0000
,  // measure 45
0100
0100
0000
0100
,  // measure 46
0100
0000
0000
0000
;

//---------------dance-single - BASIC----------------
#NOTES:
     dance-single:
     BASIC:
     Easy:
     3:
     0.199,0.239,0.053,0.106,0.000: // measure 1
0000
0000
0000
0000
,  // measure 2
0000
0000
0000
0000
,  // measure 3
0000
0000
0000
0000
,  // measure 4
0000
0000
0000
0000
,  // measure 5
0001
0000
0100
0000
,  // measure 6
0001
0000
0100
0001
,  // measure 7
0010
0000
1000
0000
,  // measure 8
0010
0000
0010
1000
,  // measure 9
0100
0000
1000
0000
,  // measure 10
0001
0000
0100
0001
,  // measure 11
1000
0000
0100
0000
,  // measure 12
0010
0000
0001
1000
,  // measure 13
0001
0100
0001
1000
,  // measure 14
0002
0003
0100
0000
,  // measure 15
0010
0100
0001
0000
,  // measure 16
0010
0100
1000
0000
,  // measure 17
0100
1000
0010
0000
,  // measure 18
0002
0103
1000
0000
,  // measure 19
0001
0100
0010
0000
,  // measure 20
2000
3010
0001
0000
,  // measure 21
0010
0020
0030
0100
,  // measure 22
0100
0000
1000
0001
,  // measure 23
0100
0200
0300
0010
,  // measure 24
0010
0000
0100
0010
,  // measure 25
1000
2000
3000
0001
,  // measure 26
0001
0000
0100
0010
,  // measure 27
0001
0002
0003
1000
,  // measure 28
1000
0000
2002
3003
,  // measure 29
0001
0000
0010
1001
,  // measure 30
0010
0000
0100
1001
,  // measure 31
0100
0000
0100
0000
,  // measure 32
1000
0001
0010
0100
,  // measure 33
1000
0000
1000
0110
,  // measure 34
0001
0000
0001
0110
,  // measure 35
1000
0100
0010
0001
,  // measure 36
0100
0001
1000
0010
,  // measure 37
1000
0000
1000
0000
,  // measure 38
1000
0010
0100
0000
,  // measure 39
0001
0000
0001
0000
,  // measure 40
0100
0001
0010
0000
,  // measure 41
0100
0000
0100
0000
,  // measure 42
0010
0001
1000
0000
,  // measure 43
0100
0000
0010
0000
,  // measure 44
0100
1000
0001
0100
,  // measure 45
0010
0020
0000
0000
,  // measure 46
0030
0000
0000
0000
;

//---------------dance-single - DIFFICULT----------------
#NOTES:
     dance-single:
     DIFFICULT:
     Medium:
     4:
     0.317,0.358,0.212,0.233,0.000: // measure 1
0000
0000
0000
0000
,  // measure 2
0000
0000
0000
0000
,  // measure 3
0000
0000
0000
0000
,  // measure 4
0000
0000
0000
0000
,  // measure 5
0001
0000
0001
0100
1000
0000
0001
0010
,  // measure 6
1000
0000
0100
1001
,  // measure 7
0010
0000
0100
1000
0010
0000
0010
0001
,  // measure 8
0100
0000
0001
1100
,  // measure 9
0010
0000
0001
0010
1000
0000
0001
0100
,  // measure 10
1000
0000
0001
0101
,  // measure 11
1000
0000
0100
0001
1000
0000
0010
0100
,  // measure 12
0001
0000
1000
0110
,  // measure 13
1000
0000
0010
0000
0001
0100
1000
0000
,  // measure 14
0001
1000
0100
0000
,  // measure 15
2000
3100
0010
0001
,  // measure 16
0200
0301
0010
0100
,  // measure 17
2000
0100
0100
3100
,  // measure 18
0010
0000
0001
0000
0100
0001
1000
0000
,  // measure 19
0002
0010
0010
0013
,  // measure 20
1000
0010
0200
0300
,  // measure 21
0110
2002
3003
1001
,  // measure 22
0110
0000
1000
0000
0001
0100
0010
0000
,  // measure 23
1000
0200
0300
0010
,  // measure 24
0001
0000
0100
0000
0001
1000
0010
0000
,  // measure 25
0101
0202
0303
1010
,  // measure 26
1010
0000
0100
0000
0010
0100
0001
0000
,  // measure 27
1000
2000
3000
0200
,  // measure 28
0020
0330
2002
3003
,  // measure 29
0010
0000
1000
0010
1000
0000
0100
0000
,  // measure 30
0010
0000
0001
0010
0001
0000
0100
0000
,  // measure 31
1000
1000
0001
0001
,  // measure 32
1000
0100
0001
0100
0000
1000
0001
0000
,  // measure 33
0110
0001
1000
1000
,  // measure 34
0010
1000
0001
0001
,  // measure 35
0100
0000
0010
0000
0100
0001
1000
0010
,  // measure 36
0000
0100
0000
0020
0000
0030
0000
0000
,  // measure 37
1000
0001
0010
0110
,  // measure 38
0010
0100
0001
1001
,  // measure 39
2000
3100
2000
3100
,  // measure 40
1000
0010
0100
0001
,  // measure 41
0001
0100
1000
0110
,  // measure 42
1000
0100
0001
0110
,  // measure 43
0002
0013
0002
0013
,  // measure 44
0100
1000
0001
0010
,  // measure 45
0110
0220
0000
0000
,  // measure 46
0330
0000
0000
0000
;

//---------------dance-single - EXPERT----------------
#NOTES:
     dance-single:
     EXPERT:
     Hard:
     6:
     0.389,0.382,0.202,0.159,0.133: // measure 1
0000
0000
0000
0000
,  // measure 2
0000
0000
0000
0000
,  // measure 3
0000
0000
0000
0000
,  // measure 4
0000
0000
0000
0000
,  // measure 5
1000
0000
0000
0000
0001
0100
0001
0100
0000
0000
0000
0000
0010
1000
0010
1000
,  // measure 6
0000
0000
0001
0100
1000
0100
0001
1000
,  // measure 7
0010
0000
0000
0000
0100
0001
0100
0001
0000
0000
0000
0000
1000
0010
1000
0010
,  // measure 8
0000
0000
0000
0000
0010
0000
0100
0000
0001
0000
0000
0100
0000
0000
0010
0000
,  // measure 9
1000
0000
0000
0000
0001
0100
0001
1000
0000
0000
0000
0000
1000
0100
1000
0001
,  // measure 10
0000
0000
1000
0100
0001
0010
1000
0100
,  // measure 11
0010
0000
0000
0000
0001
0010
0100
1000
0000
0000
0000
0000
1000
0010
0100
0001
,  // measure 12
0000
0000
0000
0000
0100
0000
1000
0000
0010
0000
0000
1000
0000
0000
0010
0000
,  // measure 13
1000
0100
1000
0001
0100
0010
2000
0000
,  // measure 14
3001
0000
0100
0000
0001
0100
1000
0100
,  // measure 15
0000
0001
0000
1000
0000
0010
0000
0100
,  // measure 16
0000
0001
0000
0010
0000
1000
1000
0000
,  // measure 17
0010
0001
0100
0000
0010
0001
0100
0000
,  // measure 18
0101
1000
0002
0103
,  // measure 19
0001
0010
1000
0000
0001
0010
1000
0000
,  // measure 20
1010
0100
0002
0103
,  // measure 21
1010
0000
0012
0000
0000
0000
1000
1000
,  // measure 22
0003
1000
0100
0010
0001
1000
0100
0000
,  // measure 23
0101
0000
1200
0000
0000
0000
0010
0010
,  // measure 24
0300
1000
0001
0010
0001
1000
0010
0000
,  // measure 25
0101
0000
2100
0000
0000
0000
0001
0001
,  // measure 26
3000
1000
0100
0010
0001
0010
0100
0000
,  // measure 27
1010
0000
0102
0000
0000
0000
0010
0020
,  // measure 28
0000
0033
2002
3003
,  // measure 29
1000
0000
0000
0100
1000
0000
0010
0000
0100
0000
0000
0001
0000
0000
0100
0000
,  // measure 30
0010
0000
0000
1000
0001
0000
0100
0000
0001
0000
0000
0010
0000
0000
0100
0000
,  // measure 31
1000
0000
0001
0000
1000
0100
0001
0100
,  // measure 32
0000
1000
0100
1000
0000
0001
0100
0000
,  // measure 33
0010
0000
0000
1000
0010
0000
0100
0000
0001
0000
0000
0100
0000
0000
0001
0000
,  // measure 34
1000
0000
0000
0100
0001
0000
1000
0000
0001
0000
0100
0000
0001
0000
0010
0000
,  // measure 35
0000
1000
0100
0001
0100
1000
0001
0010
,  // measure 36
0000
0011
0000
1100
0000
0011
0000
0000
,  // measure 37
1000
0100
0010
0001
,  // measure 38
1000
0010
0100
0001
0000
0100
0001
1000
,  // measure 39
0010
0000
1000
0100
0000
0010
0000
0001
,  // measure 40
0000
1000
0000
0010
0000
0100
0001
0000
,  // measure 41
0101
1100
0202
0303
,  // measure 42
0001
0010
1000
0010
0000
1000
0100
1000
,  // measure 43
0010
0000
1000
0100
0000
0010
0000
0100
,  // measure 44
0000
0001
0000
0020
0000
0000
0030
0000
,  // measure 45
0110
0220
0000
0000
,  // measure 46
0330
0000
0000
0000
;
