#TITLE:Leave Me Alone;
#SUBTITLE:;
#ARTIST:Michael Jackson;
#TITLETRANSLIT:;
#SUBTITLETRANSLIT:;
#ARTISTTRANSLIT:;
#GENRE:;
#CREDIT:;
#MENUCOLOR:;
#METERTYPE:DDR;
#BANNER:80s - Leave Me Alone.png;
#BACKGROUND:80s - Leave Me Alone-BG.png;
#LYRICSPATH:;
#CDTITLE:;
#MUSIC:80s - Leave Me Alone.mp3;
#OFFSET:-0.678;
#SAMPLESTART:68.581;
#SAMPLELENGTH:12.000;
#SELECTABLE:YES;
#LISTSORT:;
#DISPLAYBPM:124.000;
#BPMS:0.000=123.600;
#STOPS:;
#BGCHANGES:-1.5=80s - Leave Me Alone,191.75=80s - Leave Me Alone-BG.png;
#ATTACKS:;

//---------------dance-single - BEGINNER----------------
#NOTES:
     dance-single:
     BEGINNER:
     Beginner:
     1:
     0.121,0.203,0.074,0.042,0.000: // measure 1
0000
0000
0000
0000
,  // measure 2
0000
0000
0000
0000
,  // measure 3
0000
0000
0000
0000
,  // measure 4
0000
0000
0000
0000
,  // measure 5
0100
0000
0000
0000
,  // measure 6
0010
0000
0000
0000
,  // measure 7
0100
0000
0000
0000
,  // measure 8
0010
0000
0000
0000
,  // measure 9
1000
0000
0000
0000
,  // measure 10
0001
0000
0000
0000
,  // measure 11
1000
0000
0000
0000
,  // measure 12
0001
0000
0000
0000
,  // measure 13
0100
0000
1000
0000
,  // measure 14
0100
0000
1000
0000
,  // measure 15
0100
0000
0001
0000
,  // measure 16
0100
0000
0000
0000
,  // measure 17
0010
0000
0001
0000
,  // measure 18
0010
0000
0001
0000
,  // measure 19
1000
0000
0100
0000
,  // measure 20
1000
0000
0000
0000
,  // measure 21
0010
0000
0100
0000
,  // measure 22
0010
0000
0100
0000
,  // measure 23
0001
0000
1000
0000
,  // measure 24
0001
0000
0000
0000
,  // measure 25
1000
0000
0010
0000
,  // measure 26
1000
0000
0010
0000
,  // measure 27
0100
0000
0001
0000
,  // measure 28
0100
0000
0000
0000
,  // measure 29
2000
0000
3000
0000
,  // measure 30
0002
0000
0003
0000
,  // measure 31
1000
0000
1000
0000
,  // measure 32
0001
0000
0001
0000
,  // measure 33
0200
0000
0300
0000
,  // measure 34
0020
0000
0030
0000
,  // measure 35
0100
0000
0010
0000
,  // measure 36
0110
0000
0000
0000
,  // measure 37
0001
0000
0001
0000
,  // measure 38
1000
0000
1000
0000
,  // measure 39
0001
0000
1000
0000
,  // measure 40
0100
0000
0010
0000
,  // measure 41
0100
0000
0100
0000
,  // measure 42
0001
0000
0001
0000
,  // measure 43
0010
0000
1000
0000
,  // measure 44
0110
0000
1001
0000
,  // measure 45
1001
0000
0000
0000
,  // measure 46
1000
0000
0000
0000
,  // measure 47
0010
0000
0000
0000
,  // measure 48
1001
0000
0110
0000
,  // measure 49
0110
0000
0000
0000
;

//---------------dance-single - BASIC----------------
#NOTES:
     dance-single:
     BASIC:
     Easy:
     4:
     0.299,0.356,0.254,0.191,0.000: // measure 1
0000
0000
0000
0000
,  // measure 2
0000
0000
0000
0000
,  // measure 3
0000
0000
0000
0000
,  // measure 4
0000
0000
0000
0000
,  // measure 5
0100
0000
0010
0001
,  // measure 6
0100
0000
0010
1000
,  // measure 7
0200
0300
0001
0000
,  // measure 8
0200
0300
1000
0000
,  // measure 9
0200
0300
0010
1000
,  // measure 10
0020
0030
0100
0001
,  // measure 11
2000
3000
1000
0100
,  // measure 12
0002
0003
0001
0100
,  // measure 13
1000
0001
0100
0010
,  // measure 14
0100
0001
1000
1000
,  // measure 15
0100
1000
0001
0010
,  // measure 16
0100
0020
0031
0200
,  // measure 17
1300
0001
0010
0100
,  // measure 18
1000
1000
0001
0001
,  // measure 19
0100
0001
1000
0010
,  // measure 20
2000
3100
0002
0013
,  // measure 21
0100
0010
0001
0010
,  // measure 22
0100
0010
1010
1010
,  // measure 23
0010
1000
0001
0100
,  // measure 24
0010
0100
1000
0100
,  // measure 25
0001
1000
0100
0010
,  // measure 26
0001
0100
1100
1100
,  // measure 27
1000
0100
0001
0010
,  // measure 28
0002
0103
1000
0010
,  // measure 29
1000
0200
0300
0010
,  // measure 30
0000
0002
0003
1000
,  // measure 31
0010
1000
0100
1001
,  // measure 32
0010
0001
0100
1001
,  // measure 33
0100
0002
0003
0010
,  // measure 34
0000
2000
3000
0010
,  // measure 35
0001
0100
1000
0010
,  // measure 36
0100
0100
0010
0010
,  // measure 37
1000
1100
0001
0101
,  // measure 38
1000
1010
0001
0011
,  // measure 39
0100
1000
0010
0001
,  // measure 40
0200
0300
0010
0000
,  // measure 41
0001
0011
0100
1100
,  // measure 42
0010
1010
0100
0101
,  // measure 43
0010
0010
0100
0100
,  // measure 44
0110
1001
0110
0110
,  // measure 45
1001
0000
0100
0010
,  // measure 46
0002
0003
0100
0010
,  // measure 47
2000
3000
0010
1000
,  // measure 48
1001
0110
1001
1001
,  // measure 49
0110
0000
0000
0000
;

//---------------dance-single - DIFFICULT----------------
#NOTES:
     dance-single:
     DIFFICULT:
     Medium:
     5:
     0.358,0.457,0.360,0.127,0.148: // measure 1
0000
0000
0000
0000
,  // measure 2
0000
0000
0000
0000
,  // measure 3
0000
0000
0000
0000
,  // measure 4
0000
0000
0000
0000
,  // measure 5
0010
0000
0010
0100
0000
0000
0001
0000
0000
1000
0000
0000
,  // measure 6
0001
0000
0001
0100
0000
0000
1000
0000
0000
0001
0000
0000
,  // measure 7
1000
0000
1000
0010
0000
0000
1000
0000
0000
0100
0000
0000
,  // measure 8
0010
0000
0010
0001
0000
0000
0100
0000
0000
1001
0000
0000
,  // measure 9
0100
0000
0100
0010
0000
0000
1000
0000
0000
0001
0000
0000
,  // measure 10
0100
0000
0100
1000
0000
0000
0001
0000
0000
0010
0000
0000
,  // measure 11
1000
0000
1000
0001
0000
0000
0010
0000
0000
0001
0000
0000
,  // measure 12
1000
0000
1000
0100
0000
0000
0010
0000
0000
1001
0000
0000
,  // measure 13
0000
0000
1000
0000
1000
0000
1000
0000
0000
0100
0000
0000
,  // measure 14
0010
0001
0101
1100
,  // measure 15
0000
0000
0001
0000
0001
0000
0001
0000
0000
0100
0000
0000
,  // measure 16
0010
0000
0000
1000
0000
0001
1000
0000
0000
0110
0000
0000
,  // measure 17
0000
0000
0010
0000
0010
0000
0010
0000
0000
1000
0000
0000
,  // measure 18
0100
0010
0101
1100
,  // measure 19
0000
0000
0001
0000
0001
0000
0001
0000
0000
1000
0000
0000
,  // measure 20
0010
0100
0001
1000
,  // measure 21
0010
1100
0010
1100
,  // measure 22
0010
0100
1000
0010
,  // measure 23
0100
0011
0100
0011
,  // measure 24
0001
0100
0010
1000
,  // measure 25
0001
0110
1000
0110
,  // measure 26
0001
0000
0100
0000
0001
0000
1000
0000
0000
0001
0000
0000
,  // measure 27
0010
0001
1000
0100
,  // measure 28
1000
0001
1001
0110
,  // measure 29
1000
0020
0030
0001
,  // measure 30
0100
0020
0030
1000
,  // measure 31
0001
0000
0000
0100
0000
0010
1000
0000
0000
1010
0000
0000
,  // measure 32
1000
0000
0000
0100
0000
0010
0001
0000
0000
0011
0000
0000
,  // measure 33
1000
0002
0003
0001
,  // measure 34
0010
0200
0300
0100
,  // measure 35
1000
0000
0000
0010
0000
1000
0100
0000
0000
0010
0000
0000
,  // measure 36
0110
0010
0100
0100
,  // measure 37
1000
2100
3001
0102
,  // measure 38
1003
2010
3001
0012
,  // measure 39
1003
0100
0010
0001
,  // measure 40
0100
0000
0000
0010
0000
0000
1000
0000
1000
0001
0000
0000
,  // measure 41
1001
1020
0130
0201
,  // measure 42
0010
0300
0000
0021
0000
0000
0130
0000
0000
1200
0000
0000
,  // measure 43
0310
0000
0000
1000
0000
0000
0100
0000
0010
0000
0000
0000
,  // measure 44
0110
0000
0000
1001
0000
0000
0010
0000
0010
0100
0000
0100
,  // measure 45
0010
1000
0100
1001
,  // measure 46
0001
1000
0100
1001
,  // measure 47
1000
0001
0010
1001
,  // measure 48
0110
0000
0000
1001
0000
0000
0010
0000
0010
0100
0000
0100
,  // measure 49
0010
0000
0000
0000
;

//---------------dance-single - EXPERT----------------
#NOTES:
     dance-single:
     EXPERT:
     Hard:
     8:
     0.504,0.483,0.180,0.000,0.889: // measure 1
0000
0000
0000
0000
,  // measure 2
0000
0000
0000
0000
,  // measure 3
0000
0000
0000
0000
,  // measure 4
0000
0000
0000
0000
,  // measure 5
0010
0000
0010
0000
0100
1000
0100
0000
1000
0001
0000
0001
,  // measure 6
0100
0000
0100
0000
0010
0100
0010
0000
1000
0010
0000
0010
,  // measure 7
0100
0000
0001
0000
0001
0100
0001
0000
1000
0001
0000
0001
,  // measure 8
0100
0000
0010
0000
1000
0010
0100
0000
0010
1000
0000
0010
,  // measure 9
0100
0000
0001
0000
1000
0100
1000
0000
0001
0010
0000
0100
,  // measure 10
1000
0000
0010
0000
0100
0001
0010
0000
0001
1000
0000
0010
,  // measure 11
0100
0000
0001
0000
1000
0010
0100
0000
0010
1000
0000
0100
,  // measure 12
0010
0000
0001
0000
0010
0001
0100
0000
0010
1000
0000
0001
,  // measure 13
0100
0000
0001
0000
0100
0000
1000
0000
0100
0000
0001
0000
,  // measure 14
1000
0000
0010
0000
0001
0000
0010
0000
1000
0100
0000
0100
,  // measure 15
1000
0000
0001
0000
0010
0000
0100
0000
1000
0000
0010
0000
,  // measure 16
0100
0000
0001
0100
0001
1000
0010
0000
0010
0100
0000
0001
,  // measure 17
1000
0000
0100
0000
1000
0000
0010
0000
0100
0000
0001
0000
,  // measure 18
1000
0000
0010
0000
0100
0000
0001
0100
0000
0001
0000
0000
,  // measure 19
0010
0000
0100
0000
1000
0000
0001
0000
0010
0000
0100
0000
,  // measure 20
1000
0000
1000
0010
1000
0010
0100
0000
0001
0100
0000
0010
,  // measure 21
1000
0000
0010
0000
0100
0001
0100
0000
0001
0100
0000
0100
,  // measure 22
0010
0000
0100
0000
0001
0000
0010
0000
0100
0000
1000
0000
,  // measure 23
0010
0000
1000
0000
0010
0000
0001
0000
1000
0000
0100
0000
,  // measure 24
0001
0000
0001
0100
1000
0100
0001
0000
1000
0010
0000
0010
,  // measure 25
0001
0000
0010
0000
1000
0000
0001
0000
0100
0000
0001
0000
,  // measure 26
0010
0000
0100
0000
1000
0000
0001
0010
0000
0100
0000
0100
,  // measure 27
1000
0000
0001
0000
0100
0000
1000
0000
0001
0000
0100
0000
,  // measure 28
0001
0000
0001
0100
0000
0100
0010
0000
1000
0000
0001
0100
,  // measure 29
0001
0000
0000
1001
0000
1000
0001
0000
0000
1001
0000
0001
,  // measure 30
1000
0000
0000
0110
0000
0001
1000
0000
0000
0110
0000
1000
,  // measure 31
0001
0000
1000
0100
1000
0001
0010
0000
0100
1000
0000
0001
,  // measure 32
0010
0000
0001
0100
0001
1000
0010
0000
0100
0001
0000
1000
,  // measure 33
0010
0000
0000
0110
0000
0001
1000
0000
0000
0110
0000
1000
,  // measure 34
0001
0000
0000
1001
0000
0100
0010
0000
0000
1001
0000
0010
,  // measure 35
0100
0000
0001
0100
0010
1000
0001
0000
0001
0010
0000
0010
,  // measure 36
0100
0100
0010
0010
,  // measure 37
1000
0000
0001
0100
0000
0001
1000
0000
0001
0100
0000
0001
,  // measure 38
1000
0000
0001
0010
0000
0001
0100
0000
0001
1000
0000
0010
,  // measure 39
1000
1100
0001
0011
,  // measure 40
1000
0000
0000
0110
0000
0000
0001
0000
0010
0100
0000
1000
,  // measure 41
0010
0000
1000
0001
0000
1000
0100
0000
1000
0001
0000
0100
,  // measure 42
0001
0000
1000
0010
0000
0100
0010
0000
1000
0100
0000
0010
,  // measure 43
0001
0100
0110
1001
,  // measure 44
0110
0000
0000
0110
0000
0000
0001
0000
0100
0010
0000
1000
,  // measure 45
0100
0000
1000
0001
0100
0001
1000
0000
0010
1000
0000
0001
,  // measure 46
0100
0000
0010
0100
0001
0100
0010
0000
1000
0001
0000
0100
,  // measure 47
0010
0000
1000
0001
0100
0001
0010
0000
1000
0100
0000
0001
,  // measure 48
1001
0000
0000
0110
0000
0000
0001
0000
0001
0100
0000
0100
,  // measure 49
1000
0000
0000
0000
;
