#TITLE:I Can't Wait;
#SUBTITLE:;
#ARTIST:Stevie Nicks;
#TITLETRANSLIT:;
#SUBTITLETRANSLIT:;
#ARTISTTRANSLIT:;
#CREDIT:;
#BANNER:TimeHollow.png;
#BACKGROUND:TimeHollow-bg.png;
#LYRICSPATH:;
#CDTITLE:;
#MUSIC:I Can't Wait.mp3;
#OFFSET:0.046;
#SAMPLESTART:66.364;
#SAMPLELENGTH:15.000;
#SELECTABLE:YES;
#DISPLAYBPM:125.570;
#BPMS:0.000=125.570;
#STOPS:;
#BGCHANGES:;

//---------------dance-double - ----------------
#NOTES:
     dance-double:
     :
     Hard:
     6:
     0.246,0.327,0.064,0.046,0.000:
00000000
00000000
00000000
00000000
,
00000000
00000000
00000000
00000000
,
00000000
00000000
00000000
00000000
,
00000000
00000000
00000000
00000000
,
00100000
10000000
00010000
00100000
01000000
00100000
00010000
00000000
,
10000000
00010000
00001000
00000001
,
00000100
00001000
00000010
00000100
00000010
00001000
00000100
00000000
,
00000001
00001000
00010000
10000000
,
00100000
00000000
00001000
00000000
,
00000001
00000000
00000100
00000000
,
00001000
00010000
00100000
00010000
00001000
00000000
01000000
00000000
,
10000000
00100000
10000000
01000000
,
00100000
01000000
10000000
00010000
01000000
00000000
00100000
00000000
,
00010000
00000100
00000010
00000001
,
00001000
00000010
00010000
00001000
00000100
00000000
00000001
00000000
,
00001000
00010000
01000000
10000000
,
00100000
01000000
00010000
00100000
01000000
00000000
10000000
00000000
,
00010000
00001000
00010000
00000100
,
00000010
00001000
00000001
00000100
00000000
00000000
00000000
00000000
,
00100000
00010000
10000000
01000000
00000000
00000000
00000000
00000000
,
10000000
00010000
00001000
00000001
00000000
00000000
00000000
00000000
,
00000001
00001000
00010000
10000000
00000000
00000000
00000000
00000000
,
00100000
10000000
01000000
00010000
,
00001000
00000010
00000001
00000100
,
00022000
00000000
00000000
00033000
,
00000000
00000000
00000000
00000000
,
01000000
10000000
00100000
10000000
01000000
00010000
00001000
00000000
,
00000010
00000001
00001000
00000010
00010010
00001010
00000101
00000000
,
00000010
00000001
00000100
00001000
00010000
00100000
10000000
01000000
,
00000000
00100000
01000000
00000000
00010000
01000000
10000000
00000000
,
00010000
00001000
00000100
00000001
00001000
00000100
00000001
00000000
,
00000010
00001000
00010000
00100000
10010000
01100000
10010000
00000000
,
01000000
00001000
00100000
00010000
01000000
00001000
00010000
00100000
,
00000000
10000000
01000000
00000000
00010000
00001000
00000010
00000000
,
00000100
00000010
00001000
00000010
00000001
00000100
00001000
00000000
,
00100000
00010000
01000000
10000000
01000000
00001000
00010000
00000000
,
00000010
00001000
00000100
00000000
01000000
00010000
00100000
00000000
,
10000000
00010000
01000000
00100000
00010000
00001000
00000010
00000100
,
00002000
00000000
00000002
00003000
,
00000200
00000000
00000000
00000303
;

//---------------dance-double - ----------------
#NOTES:
     dance-double:
     :
     Medium:
     4:
     0.187,0.200,0.009,0.046,0.000:
00000000
00000000
00000000
00000000
,
00000000
00000000
00000000
00000000
,
00000000
00000000
00000000
00000000
,
00000000
00000000
00000000
00000000
,
00100000
00000000
00010000
00000000
01000000
00001000
00010000
00000000
,
00000010
00000001
00001000
00000100
,
00000010
00000000
00000100
00000000
00001000
00010000
01000000
00000000
,
10000000
01000000
00010000
01000000
,
10000000
00000000
00010000
00000000
,
00001000
00000000
00000001
00000000
,
00000010
00000000
00000100
00001000
00000010
00000000
00000000
00000000
,
00000100
00001000
00010000
00100000
,
10000000
00000000
00010000
00100000
01000000
00000000
00000000
00000000
,
10000000
01000000
00010000
01000000
,
00100000
00000000
01000000
00010000
00001000
00000000
00000000
00000000
,
00000010
00000001
00001000
00000010
,
00000100
00000000
00000010
00001000
00000100
00000000
00000000
00000000
,
00010000
00000010
00001000
00100000
,
10000000
01000000
00001000
00000000
,
00000001
00000010
00010000
00000000
,
00100000
01000000
00001000
00000000
,
00000100
00000010
00010000
00000000
,
10000000
01000000
00010000
00001000
,
00000100
00000001
00000010
00001000
,
00022000
00000000
00000000
00033000
,
00000000
00000000
00000000
00000000
,
01000000
00000000
10000000
00000000
00010000
01000000
10000000
00000000
,
01000000
00000000
00010000
00000000
00000010
00001000
00000100
00000000
,
00000001
00000000
00000010
00000000
00001000
00000000
00000100
00010000
,
00000000
00001000
01000000
00000000
00100000
01000000
10000000
00000000
,
00010000
00000000
01000000
00000000
00100000
00010000
00001000
00000000
,
00000010
00000000
00001000
00000000
00010000
01000000
10000000
00000000
,
00010000
00000000
00001000
00000000
00000001
00000000
00000010
00000100
,
00000000
00000010
00000001
00000000
00000100
00000000
00001000
00000000
,
00010000
00000000
00001000
00000100
00000001
00000000
00001000
00000000
,
00010000
00000000
00001000
00010000
00100000
00000000
01000000
00000000
,
00100000
00010000
10000000
00100000
,
01000000
00100000
10000000
01000000
00010000
00000000
00001000
00000000
,
00000200
00000000
00000002
00000300
,
00002000
00000000
00000000
00003003
;

//---------------dance-double - ----------------
#NOTES:
     dance-double:
     :
     Easy:
     3:
     0.131,0.164,0.000,0.082,0.000:
00000000
00000000
00000000
00000000
,
00000000
00000000
00000000
00000000
,
00000000
00000000
00000000
00000000
,
00000000
00000000
00000000
00000000
,
00000010
00000100
00001000
00000000
,
00000001
00000000
00000100
00000000
,
00001000
00010000
00100000
00000000
,
10000000
00000000
00010000
00000000
,
01000000
00000000
01000000
00000000
,
01000000
00000000
01000000
00000000
,
10000000
00010000
01000000
00000000
,
00100000
00010000
00001000
00000010
,
00000001
00001000
00000010
00000000
,
00000100
00000010
00000001
00000010
,
00000100
00001000
00010000
00000000
,
00100000
10000000
00010000
00100000
,
01000000
10000000
00010000
00000000
,
00001000
00001000
00010000
00010000
,
00000200
00000000
00000000
00000300
,
00000002
00000000
00000000
00000003
,
00000020
00000000
00000000
00000030
,
00002000
00000000
00000000
00003000
,
00020000
00000000
00000000
00030000
,
00200000
00000000
00000000
00300000
,
20000000
00000000
00000000
30000000
,
00000000
00000000
00000000
00000000
,
00100000
01000000
00010000
00100000
,
01000000
00010000
00001000
00000100
,
00000010
00000100
00000001
00000010
,
00001000
00000000
00000001
00000000
,
00000010
00001000
00010000
00100000
,
01000000
10000000
00100000
00010000
,
01000000
00010000
00001000
00000010
,
00000001
00000000
00001000
00000000
,
00000010
00000100
00000001
00000000
,
00000010
00000100
00001000
00000000
,
00001000
00010000
01000000
00000000
,
00100000
10000000
01000000
00000000
,
00020000
00000000
00000000
00030000
,
00002000
00000000
00000000
00003000
;

//---------------dance-single - ----------------
#NOTES:
     dance-single:
     :
     Challenge:
     10:
     0.593,0.862,0.201,0.229,0.544:
0000
0000
0000
0000
,
1000
0100
0010
0001
0010
0100
1000
0010
1000
0010
0100
0001
0100
0010
1000
0010
,
1000
0010
0100
0001
0100
0001
1000
0010
1000
0010
0100
0001
0100
0001
1000
0100
,
1000
0100
0010
0001
0010
0001
1000
0010
1000
0010
0100
0001
0100
0001
0100
0010
,
1000
0010
0100
0001
0100
0010
1000
0100
0010
0001
0010
0100
1000
0010
0100
0001
,
0100
0010
1000
0100
0010
0001
0010
0000
0011
0000
0000
0000
0001
0000
0101
0000
,
0010
1000
0010
2020
0000
3030
1100
0000
,
1000
0100
0010
0100
0010
0000
0110
0000
,
0010
0001
0100
0001
1000
0000
1100
0000
,
0100
0010
0001
0010
0100
1000
0010
1000
0001
0000
0000
0000
0011
0000
0001
0000
,
0100
0001
0101
0000
0100
0000
0110
0000
,
0010
0000
1000
0001
0100
0010
0100
0000
0001
0100
0000
0000
0010
0000
0000
0000
,
0100
0000
1000
0000
1010
0000
0000
0000
0100
0000
0000
0001
0000
0000
0010
0000
,
0100
0000
1000
0010
0100
0010
1000
0000
0100
0000
0010
0001
0000
0000
0001
0100
,
0000
0000
0100
0010
0000
0000
0010
1000
0000
0000
0010
0100
0001
0100
0001
0000
,
0020
0000
0130
1000
0010
0100
0002
0000
,
0023
0000
0130
1000
0010
0100
0002
0000
,
0013
0100
1000
0100
0010
0001
1000
0001
0010
0000
0110
0000
0000
0000
1100
0000
,
0000
1000
0010
2002
0000
0000
0000
0000
,
3003
0000
0000
0000
0001
0000
0100
0000
0010
0000
1000
0010
0100
0001
1000
0010
,
1000
0100
0000
0000
0110
0000
0010
0000
0000
0000
0001
1000
0000
0010
0000
1000
,
0000
0000
0001
0000
0100
0000
0001
0010
0000
0000
0001
0100
0010
1000
0001
0100
,
0001
0010
0000
0000
0110
0000
1000
0000
0000
0000
0100
0001
0000
0100
0000
0010
,
0000
0000
1000
0000
0001
0000
0100
0010
1000
0000
0001
0100
0010
1000
0001
0100
,
0001
1000
0000
0010
0000
0100
0000
0000
0001
0000
0000
0100
0000
0000
0010
0000
,
1000
0000
0000
0010
0000
0000
0100
0000
0001
0000
0010
0100
1000
0010
1000
0010
,
1000
0100
0000
0000
0110
0000
0020
0000
0000
0000
0000
0000
0000
0000
0000
0000
,
0000
0000
0130
0000
1000
0000
0010
0000
0100
0000
0000
0001
0000
0000
0100
0000
,
0010
0000
0000
0100
0000
0000
0000
0000
0001
0000
0000
0100
0000
0000
0010
0000
,
1000
0000
0000
0010
0000
0000
0100
0000
0001
0000
1000
0100
0010
0001
0100
0010
,
1000
0100
0000
0000
1100
0000
0100
0000
0000
0000
1000
0010
0100
0001
0100
0010
,
1000
0010
0100
0001
0100
0010
1000
0100
0020
0000
0000
0000
0000
0000
0000
0000
,
0000
0001
0000
0032
0000
0000
0000
0000
,
0000
0100
0000
0203
0000
0000
0000
0000
,
0000
1000
0000
2300
0000
0000
0000
0200
,
3000
0000
0300
0200
0002
0000
0300
0000
,
0000
0010
0000
0023
0000
0000
0000
0000
,
0000
1030
0000
2000
0000
0000
0000
0000
,
0000
3010
0000
0020
0000
0000
0000
0000
,
0031
0100
0001
0100
0010
1000
0010
1000
0100
0000
1100
0000
0000
0000
0110
0000
,
0000
0010
0001
0200
0000
0000
0300
0000
,
0000
0000
0010
0000
1000
0000
0010
0000
0100
0000
0000
0001
0000
0000
0100
0000
,
0010
0000
0000
0100
0000
0000
0000
0000
0001
0000
0000
0100
0000
0000
0010
0000
,
1000
0000
0000
0010
0000
0000
0000
0000
0100
0000
0002
0000
0000
0000
0203
0000
,
0000
0310
1000
0020
0000
0130
0000
0000
,
0000
0000
0000
0000
0001
0100
0000
0000
0010
0000
0000
1000
0000
0000
0010
0000
,
0100
0000
0000
0010
0000
0000
0001
0000
0100
0000
0000
0010
0000
0000
1000
0000
,
0100
0000
0000
1000
0000
0000
0000
0000
0001
0000
0100
0000
0000
0000
0010
0000
,
0000
1000
0010
0100
0000
0001
0100
0010
,
1000
0100
0010
0100
0010
0001
0100
0010
,
1000
0010
1000
0010
0100
0001
0010
0000
,
0100
1000
0010
0000
0100
0001
0000
0001
,
0000
0010
0100
1000
0000
1100
0000
0100
,
1000
0000
0000
0000
0100
0000
0000
0000
0010
0000
0001
0100
0010
1000
0001
0100
,
0010
0100
0000
0000
0011
0000
0100
0000
0010
0000
0100
0000
0010
0000
0001
0000
,
1000
0000
0010
0000
0100
0000
0001
0000
0100
0000
0010
1000
0010
1000
0100
0010
,
0001
0010
0000
0000
0100
0000
1000
0000
0001
0000
1000
0000
2002
0000
0000
0000
,
0000
3003
0000
0000
0000
0000
0000
0000
;

//---------------dance-single - ----------------
#NOTES:
     dance-single:
     :
     Hard:
     7:
     0.469,0.444,0.128,0.219,0.160:
0000
0000
0000
0000
,
1000
0010
0001
0010
1000
0100
0001
0100
,
1000
0010
0100
0001
0100
0010
1000
0100
,
0010
0001
0100
0001
1000
0010
0100
0001
,
0100
0010
1000
0010
1000
0001
0010
0100
,
1000
0010
0100
0001
0011
0000
0001
0100
,
0010
1000
0010
2020
0000
3030
1100
0000
,
1000
0010
0100
0001
0010
0000
0011
0000
,
0001
0010
0100
1000
0100
0000
1100
0000
,
0010
0001
0010
0100
1000
0000
0100
1000
,
0100
0010
0110
0000
0010
0000
0011
0000
,
0100
0000
1000
0000
0100
0000
0100
0000
0010
0001
0000
0000
0010
0000
0000
0000
,
0100
0000
1000
0000
0010
0000
0000
0000
0100
0000
0000
0001
0000
0000
0010
0000
,
0100
0000
1000
0000
0100
0000
1000
0000
0100
0000
0010
0001
0000
0000
0001
0100
,
0000
0000
0100
0010
0000
0000
0010
1000
0000
0000
0010
0000
0100
0000
0001
0000
,
0020
0000
0031
0100
0010
1000
0002
0000
,
0203
0000
0310
1000
0100
0010
0002
0000
,
0013
0100
0010
0001
0010
0110
0000
1100
,
0000
1000
0010
2002
0000
0000
0000
0000
,
3003
0000
0001
0100
0010
1000
0010
0100
,
1000
0100
0000
0000
0100
0000
0010
0000
0000
0000
0001
1000
0000
0010
0000
1000
,
0000
0000
0001
0000
0100
0000
0001
0010
0000
0000
0001
0000
0010
0000
0100
0000
,
1000
0010
0000
0000
0100
0000
0001
0000
0000
0000
0100
0001
0000
0100
0000
0010
,
0000
0000
1000
0000
0001
0000
0100
0000
0010
0000
0000
1000
0000
0000
0010
0000
,
0100
0000
0000
0001
0000
0010
0000
0000
0100
0000
0000
1000
0000
0000
0010
0000
,
0100
0000
0000
0001
0000
0000
0100
0000
0010
0000
1000
0000
0010
0000
0100
0000
,
0001
0010
0000
0000
0001
0000
2000
0000
0000
0000
0000
0000
0000
0000
0000
0000
,
0000
0000
3100
0000
0010
0000
0001
0000
0100
0000
0000
0010
0000
0000
1000
0000
,
0010
0000
0000
0100
0000
0000
0000
0000
0001
0000
0000
0100
0000
0000
0010
0000
,
1000
0000
0000
0010
0000
0000
0100
0000
0001
0000
1000
0000
0001
0000
0010
0000
,
0100
0000
0010
0001
0000
1000
0010
0100
,
0001
0100
0010
1000
0200
0000
0000
0000
,
0000
0310
0000
0002
0000
0000
0000
0000
,
0000
0013
0000
0200
0000
0000
0000
0000
,
0000
1300
0000
0020
0000
0000
0000
0230
,
0000
0000
0000
0301
0002
0000
0000
0000
,
0000
0013
0000
0200
0000
0000
0000
0000
,
0000
1300
0000
0200
0000
0000
0000
0000
,
0000
0310
0000
0020
0000
0000
0000
0000
,
0031
0100
0010
1000
0010
1010
0000
0110
,
0000
0100
0001
0020
0000
0030
0000
0000
,
0000
0000
0100
0000
1000
0000
0010
0000
0100
0000
0000
0001
0000
0000
0100
0000
,
0010
0000
0000
1000
0000
0000
0000
0000
0010
0000
0000
1000
0000
0000
0100
0000
,
0010
0000
0000
0001
0000
0000
0000
0000
0010
0000
0200
0000
0000
0000
2300
0000
,
0000
3001
0100
0002
0000
0013
0000
0000
,
0000
0000
0000
0000
0001
0100
0000
0000
0010
0000
0000
1000
0000
0000
0010
0000
,
0100
0000
0000
0001
0000
0000
0100
0000
0010
0000
0000
1000
0000
0000
0100
0000
,
0010
0000
0000
0001
0000
0000
0000
0000
0010
0000
0100
0000
0000
0000
1000
0000
,
0000
0001
0100
0010
0000
1000
0100
0010
,
0100
0001
0100
0010
0100
1000
0100
0001
,
0100
0010
0001
0100
1000
0100
0001
0000
,
0010
0100
1000
0000
0010
0100
0000
0001
,
0000
0100
0001
1000
0000
1001
0000
0010
,
0100
0000
1000
0000
0010
0100
0001
0100
,
0010
0000
1000
0010
0100
0001
0100
0010
,
1000
0010
0100
0001
0100
0010
1000
0001
,
0010
0100
0000
0000
1000
0000
0010
0000
1000
0000
0001
0000
2002
0000
0000
0000
,
0000
3003
0000
0000
0000
0000
0000
0000
;

//---------------dance-single - ----------------
#NOTES:
     dance-single:
     :
     Medium:
     6:
     0.328,0.366,0.210,0.073,0.064:
0000
0000
0000
0000
,
1000
0100
0010
0000
0001
0010
0100
0000
,
1000
0010
0100
0000
0001
0100
0010
0000
,
1000
0100
0010
0000
0001
0010
0100
0000
,
1000
0010
0100
0000
0001
0100
0010
1000
,
0001
0100
0001
1000
0001
0000
0000
0011
,
0000
0000
0000
0011
0000
0000
0001
0000
,
0010
0100
0010
0000
0110
0000
0000
0110
,
0000
0000
2100
0000
,
3100
0010
0001
0100
0001
0000
0000
1010
,
0000
0000
0000
1001
0000
0000
0000
0000
,
0100
0010
0001
0010
,
0100
1000
0001
0010
,
0001
0000
1000
0000
0001
0100
0000
0001
,
0000
0010
0100
0020
0000
0000
0000
0000
,
0030
0000
0001
0001
0010
0100
0100
0000
,
1000
0000
0010
0100
0001
0100
0010
0000
,
1000
0000
0010
0000
0100
0001
0000
0100
,
0000
0010
1000
1010
0000
0000
0000
0000
,
0100
0001
0100
0010
,
1000
0010
0100
0001
,
0100
0010
1000
0100
,
0010
0001
0100
0010
,
1000
0000
0000
0000
0001
0000
0000
0000
0010
0000
0000
0010
0000
0000
0000
0000
,
0100
0000
0000
1000
0000
0000
0000
0000
0010
0000
0000
0100
0000
0000
0000
0000
,
0001
0000
0000
0100
0000
0000
0000
0000
0010
0000
0000
1000
0000
0000
0000
0000
,
0000
0000
0001
0100
,
0100
0000
0000
0000
0010
0000
0000
0000
1000
0000
0000
0010
0000
0000
0000
0000
,
0100
0000
0000
0001
0000
0000
0000
0000
0010
0000
0000
0100
0000
0000
0000
0000
,
1000
0000
0000
0010
0000
0000
0000
0000
1000
0000
0000
0100
0000
0000
0000
0000
,
0010
0001
0100
0010
,
0001
0010
0011
0000
,
0000
1100
0000
2200
0000
0000
0000
3300
,
0000
1100
0000
2200
0000
0000
0000
3300
,
0000
1100
0000
1001
0000
0000
0000
0000
,
0010
0100
1100
0000
,
0000
0011
0000
0011
0000
0000
0000
0000
,
0000
0011
0000
0011
0000
0000
0000
0000
,
0000
0011
0000
0011
0000
0000
1000
0000
,
0100
0010
0001
0010
0100
1000
0000
0100
,
0000
0010
0001
0100
0000
0000
0010
0000
,
1000
0000
0000
0000
0100
0000
0000
0000
0100
0000
0000
0100
0000
0000
0000
0000
,
0010
0000
0000
0000
0000
0000
0000
0000
0010
0000
0000
0001
0000
0000
0000
0000
,
0001
0000
0000
0000
1000
0100
0000
0010
,
0000
0001
0100
0010
0000
0000
0000
0000
,
1000
0000
0000
0000
0100
0000
0000
0000
0010
0000
0000
0001
0000
0000
0000
0000
,
0001
0000
0000
0000
0010
0000
0000
0000
0100
0000
0000
1000
0000
0000
0000
0000
,
1000
0000
0100
0000
0010
0001
0000
0100
,
0000
0010
1000
0010
0000
0000
0100
0000
,
0001
0010
0100
1000
,
0100
0010
0001
0100
,
0010
0000
1000
0000
0010
0100
0000
0001
,
0000
0100
0010
1000
0000
0000
0000
0000
,
0001
0010
0100
1000
,
0100
0010
0001
0100
,
0010
1000
0010
0100
,
0001
1000
0001
2002
,
0000
3003
0000
0000
;

//---------------dance-single - ----------------
#NOTES:
     dance-single:
     :
     Easy:
     4:
     0.235,0.236,0.027,0.018,0.000:
0000
0000
0000
0000
,
0001
0010
0100
1000
,
0010
1000
0001
0010
,
0100
1000
0010
0100
,
0001
0010
0100
1000
,
0100
0000
0010
0000
0001
0000
0000
0010
,
0000
0000
0000
0100
0000
0000
0000
0000
,
1000
0000
0010
0000
1010
0000
0000
1000
,
0000
0000
0001
0000
,
0010
0000
0100
0000
0110
0000
0000
1000
,
0000
0000
0000
1000
0000
0000
0000
0000
,
0100
0010
0001
0100
,
0010
1000
0010
0100
,
0001
0000
0010
0000
0100
0000
0000
1000
,
0000
0000
0100
0010
0000
0000
0000
0000
,
0000
0001
0010
0100
,
1000
0010
0100
0001
,
0010
0000
0100
0000
1000
0000
0000
0100
,
0000
0000
0010
0001
0000
0000
0000
0000
,
0010
0100
1000
0100
,
0010
0000
0001
0010
,
0100
1000
0010
0100
,
0001
0000
0010
0100
,
1000
0010
0100
0000
,
0001
0000
0010
0000
,
0100
0000
1000
0001
,
1000
0000
0010
0100
,
0001
0100
0010
0000
,
1000
0000
0100
0000
,
0010
0000
0001
1000
,
0010
0100
0001
1000
,
0010
0100
0001
0000
,
0000
0010
0000
0010
0000
0000
0000
0000
,
0000
0100
0000
0100
0000
0000
0000
0000
,
0000
0010
0000
0010
0000
0000
0000
0001
,
0000
0000
0001
0000
,
0000
1000
0000
0010
0000
0000
0000
0000
,
0000
0100
0000
0001
0000
0000
0000
0000
,
0000
1000
0000
0010
0000
0000
0000
0000
,
0100
0000
0001
0000
0010
0000
0000
0100
,
0000
0000
1000
1000
0000
0000
0000
0000
,
0000
0010
0100
0001
,
0100
0010
1000
0010
,
0100
0000
0001
0000
0100
0000
0000
0010
,
0000
0000
0010
1000
0000
0000
0000
0000
,
0100
0010
0001
0100
,
0010
1000
0010
0100
,
0001
0000
0100
0000
0010
0000
0000
1000
,
0000
0000
0010
0010
0000
0000
0000
0000
,
0100
0001
0100
0010
,
1000
0100
0010
0001
,
0100
0000
0010
0000
1000
0000
0000
0001
,
0000
0000
0100
0100
0000
0000
0000
0000
,
0010
0001
0010
0100
,
1000
0010
0010
1000
,
0010
0100
0001
0100
,
0010
1000
0001
2002
,
0000
3003
0000
0000
;
