#TITLE:Doesn't Really Matter;
#SUBTITLE:80's EDIT;
#ARTIST:Platinum Blonde;
#CREDIT:Telperion;
#MUSIC:Doesn't Really Matter.mp3;
#SELECTABLE:YES;
#BACKGROUND:bg.png;
#BANNER:Doesn't Really Matter.png;
#CDTITLE:;
#DISPLAYBPM:145.000:145.000;
#OFFSET:-6.728;
#SAMPLESTART:74.292;
#SAMPLELENGTH:21.449;
#BPMS:0=145.580,100=152.008,101=145.580,107=147.664,108=145.580;
#STOPS:;

//---------------dance-single - Telperion----------------
#NOTES:
     dance-single:
     Telperion:
     Medium:
     6:
     0.402,0.404,0.282,0.188,0.000:
1000
0001
1000
0001
,
0100
1000
0100
0001
,
0010
0100
0010
0100
,
0001
0000
0100
0000
1000
0001
1000
0001
,
1000
0100
0010
0001
,
0000
0100
0010
0001
,
0000
1000
0010
0100
,
0000
0000
1000
0000
0001
0100
0000
0001
,
1000
0000
0100
0000
1000
0000
0001
0100
,
1000
0000
0100
0000
1000
0000
0100
0001
,
0010
0000
0001
0000
0010
0000
0001
0010
,
1000
0000
0010
0000
1000
0000
0010
0001
,
0100
0000
0010
0000
0100
0000
0010
1000
,
0100
0000
1000
0000
0100
0000
1000
0001
,
0100
0000
0001
0000
0100
0000
0001
0010
,
0100
1000
0001
0000
,
1000
1001
0000
0101
,
0000
1100
0000
0011
,
2001
0000
0000
0000
0000
3010
0100
2000
,
0000
0000
3100
0001
,
0010
0110
1000
1001
,
0010
1010
0100
1100
,
0001
1000
0001
0000
0100
0000
0001
0010
,
0100
0000
1000
0000
0010
0001
0010
1000
,
0010
0100
0001
0010
,
0100
0000
1000
0000
0001
0100
0001
1000
,
0002
0000
2000
3000
,
0203
0000
2000
3000
,
0320
0000
0000
0000
2030
0000
0000
3100
,
0000
1000
0100
0010
0001
0010
0000
0000
,
0002
0000
0103
1000
,
0200
0000
0310
1000
,
0200
0000
0000
0000
0310
0100
0010
0100
,
0000
0000
0020
0000
0000
0200
0030
0000
,
0310
0010
0001
0001
,
1000
1000
0010
0100
,
0002
0000
0000
0000
0000
0103
0010
0002
,
0000
0000
0013
1000
,
0100
0010
0100
0010
,
0001
0100
0001
0100
,
0010
1000
0100
0010
,
0001
0000
0002
0000
0000
1003
0000
1001
,
0000
0000
0200
0000
0000
0310
0000
0110
,
0000
0000
2000
0000
0000
3100
0000
1100
,
0000
0000
0020
0000
0000
0031
0000
0011
,
0000
0000
0200
0000
0000
0310
0000
0100
,
0000
0000
0002
0000
0000
0013
0000
0100
,
0000
0000
2000
0000
0000
3010
0000
0001
,
0000
0000
0020
0000
0000
1030
0001
1000
,
0001
0000
1000
0000
0100
0000
1000
0100
,
1000
0000
0010
0000
0100
0000
0010
0100
,
0001
0000
0010
0000
0001
0000
0010
0001
,
1000
0000
0100
1000
0001
0000
0100
0001
,
1000
0000
0100
0000
1000
0000
0100
0010
,
0001
0000
0100
0000
0001
0000
0100
0010
,
1000
0000
0001
0000
1000
0000
0001
1000
,
0010
0000
0010
0100
1000
0000
1000
0100
,
0001
0001
0100
0100
,
1000
0100
0010
1000
,
0002
0000
0000
0000
0000
0103
0010
0002
,
0000
0000
0013
1000
,
0100
0010
0100
0010
,
0001
0010
0001
0100
,
0020
0100
0100
0130
,
0110
0000
0110
0000
0000
0110
0000
0110
,
0000
0000
1001
0000
0000
1001
0000
1001
,
0000
0000
1010
0000
0000
1010
0000
1010
,
0000
0000
0101
0000
0000
0101
0000
0101
,
0000
0000
1100
0000
0000
0101
0000
1100
,
0000
0000
0110
0000
0000
1001
0000
0110
,
0000
0000
0011
0000
0000
0101
0000
0110
,
0000
0000
1001
0000
0000
1010
0000
0011
,
0000
0000
1000
0000
0100
1000
0010
1000
,
0000
0000
0001
0000
0010
0001
0100
0001
,
0000
0000
1000
0000
0100
1000
0010
0100
,
0000
1000
0000
0100
0000
0001
0000
0010
,
0001
0000
0100
0000
0001
1000
0010
1000
,
0000
0000
0100
0000
1000
0001
0010
0001
,
0100
0000
0010
1000
0100
1000
0010
1000
,
0001
0010
0100
1000
0010
0000
1001
0000
;

//---------------dance-single - Telperion----------------
#NOTES:
     dance-single:
     Telperion:
     Hard:
     8:
     0.505,0.462,0.166,0.116,0.007:
1000
0000
0001
0000
1000
0001
1000
0100
,
0010
0000
0001
0000
0010
0001
0010
0100
,
1000
0000
0010
0000
1000
0010
1000
0100
,
0010
0000
0001
0000
0100
0001
0100
0010
,
0100
0000
1000
0000
0100
0001
1000
0100
,
0010
0000
0001
0000
0010
0100
0010
0001
,
0010
0000
1000
0000
0010
0001
1000
0010
,
0100
0000
1000
0000
0100
0010
1000
0001
,
0010
0100
0010
0100
0010
0100
0010
0000
,
0001
0100
0001
0010
0001
0100
0001
0000
,
1000
0100
1000
0010
1000
0100
1000
0000
,
0010
0100
1000
0100
0010
0100
0001
1000
,
0000
1000
0001
0100
0001
1000
0100
0000
,
0010
0001
0100
0000
0010
1000
0100
0000
,
1000
0001
0100
0001
0010
0100
1000
0000
,
1000
0100
0010
0001
0100
0010
1000
0100
,
0001
0100
1000
0010
,
0001
0100
1000
0010
,
0200
0000
0000
0000
0300
0001
1000
2002
,
0000
0000
0000
0000
3003
0000
1000
0001
,
0100
1000
0100
1000
0100
1000
0100
0000
,
0001
0010
0001
1000
0010
0100
0001
0010
,
0001
0000
1000
0000
0100
0010
0001
0100
,
1000
0000
0100
0000
0010
1000
0100
0010
,
0001
1000
0000
0001
0000
1000
0000
0001
,
0100
0010
1000
0000
0010
0100
0001
0000
,
1000
0001
1000
0100
1000
0001
1000
0000
,
0001
0100
0010
1000
0100
0010
0001
0000
,
0100
1000
0100
0001
0100
1000
0100
0010
,
0000
1000
0001
0010
0100
0002
0000
0000
,
0000
0103
1000
0100
0010
0000
0110
0000
,
0000
0010
0001
0100
0010
0000
0110
0000
,
0000
1000
0100
1000
0100
0001
0100
0001
,
0100
0000
1000
0000
0000
0002
0000
0000
0000
2000
0000
0000
3000
0000
0000
0000
,
1003
0100
0001
0010
,
1000
0100
0001
0010
,
0200
0000
0000
0000
0300
0001
1000
2002
,
0000
0000
3003
0000
,
1000
0100
1000
0001
0100
0010
1000
0100
,
0001
0100
0010
0001
0100
1000
0100
0010
,
1000
0001
0100
0001
1000
0100
1000
0001
,
1000
0010
0100
0000
0000
0100
0010
1000
,
0001
0010
0100
0000
0000
0100
0010
0001
,
1000
0010
0100
0000
0000
0100
0010
1000
,
0000
0001
0000
1000
0000
0001
0000
1000
,
0000
0000
1000
0000
0000
0010
0100
1000
,
0000
0000
0100
0000
0000
0001
0010
0100
,
0000
0000
0001
0000
0000
0100
1000
0001
,
0000
0000
0100
0000
1000
0100
0001
0100
,
1000
0100
1000
0100
1000
0100
0010
0000
,
1000
0001
0010
0001
1000
0001
0010
0000
,
0100
1000
0010
0100
0001
0100
0010
0000
,
1000
0100
0010
0001
0010
0100
0001
0000
,
0100
1000
0010
0000
0100
1000
0100
0000
,
0010
1000
0100
0000
0001
0100
0001
0000
,
0100
0010
0001
0000
0100
1000
0100
0000
,
0001
0010
0100
0000
0001
0100
0010
0001
,
0100
1000
0010
0001
,
0100
1000
0010
0001
,
0200
0000
0000
0000
0000
0301
0010
2000
,
0000
0000
3000
0000
,
0010
0001
0100
0001
0010
0001
0100
0010
,
1000
0100
0010
0100
1000
0100
0001
0100
,
1000
0001
1000
0001
1000
0001
1000
0001
,
1000
0000
1001
0000
0000
1100
0000
0101
,
0000
0000
0110
0000
0000
0011
0000
1100
,
0000
0000
0101
0000
0000
1100
0000
0101
,
0000
0000
0110
0000
0000
0101
0000
2010
,
0000
0000
3100
0000
0000
1100
0000
1020
,
0000
0000
1030
0000
0000
1010
0000
0021
,
0000
0000
0031
0000
0000
0011
0000
0102
,
0000
0000
0103
0000
0000
0102
0000
0103
,
0001
1000
0100
0000
1000
0100
1000
0010
,
0100
1000
0100
0000
1000
0100
0010
1000
,
0100
0001
0100
0000
0001
0100
0010
0001
,
0100
0010
0100
0000
0001
1000
1000
0001
,
0010
1000
0010
0000
0001
0100
0100
0010
,
1000
0010
0001
0000
0010
1000
1000
0010
,
0100
1000
0100
0000
0010
0100
0001
0010
,
0100
0001
0100
0010
0001
0100
0010
0000
;

//---------------dance-double - Telperion----------------
#NOTES:
     dance-double:
     Telperion:
     Hard:
     8:
     0.508,0.462,0.224,0.282,0.004:
10000000
00010000
10000000
00000000
,
01000000
00100000
01000000
00000000
,
10000000
00000000
00010000
00000000
10000000
00010000
00100000
00010000
,
10000000
00000000
00010000
00000000
01000000
00100000
00010000
00001000
,
00000100
00000000
00000001
00000000
00001000
00000100
00000010
00000100
,
00001000
00000000
00000001
00000000
00000100
00001000
00000100
00000010
,
00001000
00000000
00000001
00000000
00000010
00000001
00000100
00000001
,
00000010
00000000
00000100
00000000
00010000
00001000
00100000
00010000
,
10000000
00010000
10000000
01000000
10000000
01000000
10000000
00000000
,
00010000
01000000
00010000
01000000
00100000
01000000
00010000
00000000
,
00100000
01000000
10000000
01000000
00100000
01000000
10000000
00000000
,
00010000
00100000
01000000
00000000
10000000
00100000
00010000
00001000
,
00000000
00010000
00001000
00010000
00001000
00010000
00001000
00000000
,
00100000
00010000
00100000
00001000
00010000
00001000
00010000
00000000
,
00000010
00001000
00000100
00001000
00000010
00001000
00000100
00000000
,
00000010
00000001
00000100
00001000
00000000
00000100
00000010
00000000
,
00002000
00003200
00000320
00000032
,
00000203
00002300
00023000
02030000
,
23000000
00000000
00000000
00000000
00000000
30010000
01000000
20000000
,
00000000
00000000
00000000
00000000
31000000
00010000
00100000
00000000
,
01000000
10000000
01000000
00100000
01000000
00100000
00010000
00100000
,
00001000
00010000
00000100
00001000
00000001
00000100
00001000
00010000
,
00001000
00000000
00010000
00000000
00001000
00100000
00010000
10000000
,
01000000
00000000
00100000
00000000
01000000
00100000
00001000
00010000
,
00000010
00010000
00000000
00000001
00000000
00002000
00000000
00000000
,
00003001
00000000
00000100
00000000
00000010
00001000
00000100
00000010
,
00000001
00000010
00000001
00000010
00000001
00000010
00000001
00000000
,
00001000
00000100
00001000
00000010
00001000
00000100
00001000
00000000
,
00000001
00000100
00000010
00001000
00000100
00000010
00000100
00010000
,
00000000
00001000
00010000
01000000
10000000
00200000
00000000
00000000
,
01300000
10000000
01000000
10000000
02000000
00000000
03010000
00000000
,
00100000
01000000
00100000
00001000
00200000
00000000
01300000
00000000
,
01000000
10000000
01000000
00100000
00010000
01000000
10000000
01000000
,
00020000
00000000
00000000
00000000
10000000
00000000
00000000
00000000
00000000
10000000
00000000
00000000
00030000
00000000
00000000
00000000
,
10000000
01000000
00100000
01000000
00100000
00010000
00100000
00001000
,
00010000
00000100
00001000
00000001
00001000
00000100
00000010
00000001
,
00000200
00000000
00000000
00000000
00000300
00001000
00010000
02000000
,
00000000
00000000
13000000
00010000
,
01000000
10000000
01000000
00010000
01000000
00100000
10000000
01000000
,
00010000
01000000
10000000
01000000
00010000
01000000
00100000
00001000
,
00010000
00001000
00010000
00001000
00010000
00001000
00010000
00000000
,
00011000
00000000
00002000
00000000
00000000
01000000
00000000
01003000
,
00000000
00000000
00200000
00000000
00000000
10000000
00000000
10300000
,
00000000
00000000
20000000
00000000
00000000
01000000
00000000
31000000
,
00000000
00000000
00200000
00000000
00000000
00010000
00000000
00310000
,
00000000
00000000
00020000
00000000
00000000
01000000
00000000
00130000
,
00000000
00000000
20000000
00000000
00000000
00010000
00000000
31000000
,
00000000
00000000
00020000
00000000
00000000
00001000
00000000
01030000
,
00000000
00000000
00200000
00000000
00000000
00301000
00010000
00001000
,
00000100
00000010
00000100
00000010
00000100
00000010
00000100
00000000
,
00000001
00000010
00000100
00010000
00001000
00100000
01000000
00000000
,
10000000
00010000
10000000
00010000
10000000
00010000
10000000
01000000
,
00000000
00010000
00000000
00001000
00000000
00000100
00000000
00000001
,
00000010
00000001
00000100
00000001
00000010
00000001
00000100
00000000
,
00000010
00001000
00000100
00010000
00001000
00100000
00010000
00000000
,
01000000
00100000
01000000
10000000
01000000
00100000
01000000
00000000
,
00010000
10000000
01000000
00100000
00000000
00001000
00000000
00010000
,
00100000
10000000
00010000
01000000
10000000
01000000
00010000
01000000
,
00001000
00010000
00000010
00001000
00000100
00000010
00000001
00001000
,
00000020
00000000
00000000
00000000
00000000
00001030
00000100
00000002
,
00000000
00000000
00000103
00001000
,
00000020
00000230
00002300
00023000
,
02030000
00100000
03020000
00001000
,
02030000
23000000
30200000
02300000
,
13000000
00000000
11000000
00000000
00000000
01010000
00000000
00110000
,
00000000
00000000
10100000
00000000
00000000
01001000
00000000
00110000
,
00000000
00000000
00101000
00000000
00000000
00010010
00000000
00101000
,
00000000
00000000
00011000
00000000
00000000
01000100
00000000
00011000
,
00000000
00000000
00001010
00000000
00000000
00000011
00000000
00000101
,
00000000
00000000
00001001
00000000
00000000
00010100
00000000
00001010
,
00000000
00000000
00010010
00000000
00000000
00011000
00000000
00010010
,
00000000
00000000
00011000
00000000
00000000
01000100
00000000
00011000
,
00000000
00000000
00000000
00001000
01000000
00100000
10000000
01000000
,
00200000
00000000
00000000
01300000
00100000
00000000
00000000
00000000
,
00000000
00000000
10010000
00000000
00000000
10100000
00000000
00110000
,
00000000
00000000
00011000
00000000
00000000
00101000
00000000
00011000
,
00000000
00000000
00000000
00010000
00000100
00000010
00000001
00000100
,
00002000
00000000
00003100
00000001
00000010
00000000
00000100
00010000
,
00001000
00000000
00001000
01000000
00100000
10000000
01000000
00100000
,
00010000
00100000
01000000
10000000
00001000
00010000
00001000
00000000
;

//---------------dance-double - Telperion----------------
#NOTES:
     dance-double:
     Telperion:
     Medium:
     6:
     0.381,0.433,0.253,0.145,0.000:
10000000
01000000
10000000
00000000
,
00010000
01000000
00010000
00000000
,
00100000
01000000
00010000
00001000
,
00000100
00000000
00000010
00000000
00001000
00000100
00000010
00000001
,
00000100
00000000
00000010
00000000
00000100
00000000
00000010
00000100
,
00000001
00000000
00000010
00000000
00000001
00000000
00000010
00000100
,
00001000
00000000
00000010
00000000
00001000
00000000
00000010
00010000
,
00001000
00000000
00010000
00001000
00100000
00000000
00010000
10000000
,
00100000
00000000
10000000
00000000
00100000
00000000
10000000
01000000
,
00100000
00000000
00010000
00000000
00100000
00000000
00010000
01000000
,
10000000
00000000
01000000
10000000
01000000
00000000
00100000
01000000
,
00100000
00010000
00001000
00000100
,
00000010
00001000
00000100
00000000
00000010
00000000
00000100
00000010
,
00000001
00000000
00001000
00000000
00000001
00000000
00001000
00000100
,
00010000
00000000
00001000
00000000
00010000
00000000
00001000
01000000
,
00010000
10000000
00010000
00000000
,
20000000
01000000
00000000
31000000
,
00200000
00301000
00020000
00130000
,
02000000
00000000
00000000
00000000
00000000
03100000
00010000
00002000
,
00000000
00000000
00013000
01000000
,
00100000
00010000
10000000
01000000
,
00010000
00001000
00000100
00000001
,
00000010
00000001
00000010
00000000
00001000
00000000
00000010
00000000
,
00000100
00001000
00000100
00000000
00010000
00000000
00001000
00000000
,
00100000
00010000
00100000
00000000
10000000
00000000
00100000
00000000
,
01000000
10000000
01000000
00000000
00100000
00010000
01000000
00100000
,
10000000
00000000
00100000
00000000
01000000
00000000
00010000
00100000
,
01000000
00000000
00100000
00000000
01000000
00000000
00100000
00001000
,
00010000
00000000
00001000
00000000
00010000
00000000
00001000
01000000
,
00000000
01000000
00100000
00010000
00001000
00010000
00000000
00000000
,
00001000
00000000
00000100
00000000
00000010
00000000
00001000
00000100
,
00001000
00000000
00000100
00000000
00000010
00000000
00000001
00000100
,
00001000
00000000
00010000
00000000
00001000
00000000
00010000
01000000
,
10000000
00100000
01000000
00001000
,
00010000
00010000
01000000
01000000
,
10000000
00100000
00010000
00001000
,
00000200
00000000
00000000
00000000
00000000
00001300
00010000
02000000
,
00000000
00000000
00000000
00000000
03010000
00001000
00000100
00000000
,
00000010
00001000
00000010
00000100
,
00000001
00000010
00000100
00001000
,
00000001
00000000
00001000
00000000
00000001
00001000
00000001
00001000
,
00000001
00000000
00001001
00000000
00000000
00000010
00000000
00000100
,
00000000
00000000
00010010
00000000
00000000
00001000
00000000
00010000
,
00000000
00000000
00101000
00000000
00000000
00010000
00000000
01000000
,
00000000
10000000
00000000
00100000
00000000
01000000
00000000
00010000
,
00000000
00000000
10010000
00000000
00000000
02000000
00000000
03100000
,
00000000
00000000
01001000
00000000
00000000
00200000
00000000
01300000
,
00000000
00000000
00010000
00000000
00001000
00010000
00000000
00001000
,
00010000
00000000
01000000
00000000
10000000
00100000
00000000
10000000
,
02000000
00000000
00000000
00000000
,
03020000
00000000
00000000
00000000
,
00032000
00000000
00000000
00000000
00000000
00000000
00000000
00003100
,
00000000
00001000
00000000
00000100
00000000
00000001
00000000
00000020
,
00000000
00000000
00000000
00000000
,
00002030
00000000
00000000
00000000
,
00023000
00000000
00000000
00000000
00000000
00000000
00000000
00130000
,
00000000
00010000
00100000
10000000
00000000
00100000
00000000
00010000
,
00001000
00001000
10000000
01000000
,
00010000
00001000
00000100
00000010
,
00000002
00000000
00000000
00000000
00000003
00000010
00001000
00000200
,
00000000
00000000
00000300
00000000
,
00001000
00000001
00001000
00000001
00001000
00000001
00001000
00000000
,
00000001
00001000
00000001
00001000
00000001
00001000
00000001
00000000
,
00001000
00000001
00000100
00000001
00001000
00000100
00001000
00000001
,
00000100
00000110
00000000
00000000
,
00001000
00001100
00000000
00000000
,
00001000
00011000
00000000
00000000
,
00100000
01100000
00000000
00000000
,
10000000
00000000
10010000
00000000
00000000
10010000
00000000
00000000
,
01000000
00000000
01100000
00000000
00000000
01010000
00000000
00000000
,
00100000
00000000
00110000
00000000
00000000
01010000
00000000
00000000
,
00010000
00000000
00101000
00000000
00000000
00011000
00000000
00012000
,
00000000
00000000
00003100
00000000
00000000
00000110
00000000
00000120
,
00000000
00000000
00001030
00000000
00000000
00001100
00000000
00001200
,
00000000
00000000
00000310
00000000
00000000
00000110
00000000
00000011
,
00000000
00000000
00000101
00000000
00000000
00000110
00000000
00001010
,
00000000
00000000
00001100
00000000
00000000
00010100
00000000
00011000
,
00000000
00000000
00101000
00000000
00000000
00110000
00000000
10010000
,
00000000
00000000
11000000
00000000
10000000
01000000
00100000
01000000
,
00000000
00000000
01100000
00000000
00100000
00001000
00010000
00000000
;

//---------------dance-single - Telperion----------------
#NOTES:
     dance-single:
     Telperion:
     Easy:
     4:
     0.310,0.317,0.007,0.217,0.000:
1000
0000
0001
0000
,
0100
0000
0010
0000
,
1000
0000
0100
0000
,
0010
0000
0000
0000
0001
1000
0000
1000
,
0001
0100
0010
0100
,
0001
0010
0100
0010
,
0001
1000
0010
1000
,
0100
0010
0100
1000
,
0002
0000
0003
0001
,
0200
0000
0300
0100
,
2000
0000
3000
1000
,
0100
0010
1000
0000
,
2000
0000
3000
1000
,
0200
0000
0300
0100
,
0002
0000
0003
0001
,
0100
0010
0001
0010
,
0100
0010
0100
0010
,
0001
1000
0001
0100
,
2000
0000
3000
0100
,
0002
0000
0003
0100
,
0010
1000
0100
0010
,
0001
0100
1000
0100
,
0010
0000
1000
0000
0100
0000
0000
1000
,
0010
0000
0100
0000
0001
0000
0000
0010
,
0001
0000
1000
0000
0100
0000
0000
1000
,
0100
0010
0001
0100
,
0010
0000
0100
0010
0100
0000
0000
0000
,
0001
0000
0100
0001
0100
0000
0000
0000
,
0010
0000
1000
0010
1000
0000
0000
0000
,
0100
0000
1000
0100
1000
0100
0000
0000
,
1000
0100
0010
0000
,
0001
0100
1000
0000
,
0010
0100
1000
0000
,
0001
0100
0000
0000
,
1000
0100
1000
0100
,
0001
0100
0001
0010
,
0200
0000
0000
0000
0000
1300
0001
0200
,
0000
0000
0300
0000
,
1000
0100
1000
0100
,
0010
1000
0100
0010
,
0001
0000
0100
0001
0100
0000
0001
0100
,
0001
1000
0000
1000
,
0200
0000
2000
3300
,
1000
0001
0000
0001
,
0200
0000
0000
0310
0000
0100
0000
0010
,
0000
1000
0000
1000
,
0002
0000
0020
0033
,
0001
1000
0000
1000
,
0020
0000
0000
0000
0130
0010
0100
0000
,
0010
1000
0100
0010
,
0001
0010
0100
0001
,
0100
1000
0010
0100
,
1000
0100
0001
0100
,
0010
1000
0001
0100
,
0010
1000
0100
0010
,
0001
1000
0100
1000
,
0001
0000
0100
0001
1000
0000
0100
1000
,
0001
0000
0001
0100
,
0010
0100
1000
0100
,
0020
0000
0000
0000
0000
1030
0001
0020
,
0000
0000
0030
0000
,
0100
1000
0100
1000
,
0100
0001
0100
0001
,
0100
0010
0001
0100
,
0020
1000
0000
1030
,
0200
0000
0010
0300
,
0020
0001
0000
0031
,
0200
0000
0010
0300
,
2000
0001
0000
3001
,
0200
0000
1000
0300
,
0002
1000
0000
1003
,
0001
0100
1000
0100
,
0001
0010
0200
1000
,
0310
0001
0100
1000
,
0100
0010
2000
0001
,
3100
0010
0001
0010
,
0100
1000
0020
0100
,
0031
0010
1000
0100
,
0001
0100
0020
0001
,
0230
0001
1300
1001
;

//---------------dance-double - Telperion----------------
#NOTES:
     dance-double:
     Telperion:
     Easy:
     4:
     0.326,0.375,0.188,0.109,0.000:
10000000
00000000
01000000
00000000
,
00100000
00000000
00010000
00000000
,
10000000
00000000
01000000
00000000
,
00010000
00000000
00001000
00000000
,
00000100
00000000
00000010
00000000
,
00001000
00000000
00000010
00000000
,
00001000
00000000
00000100
00000000
,
00000010
00000001
00000100
00001000
,
00010000
00001000
00010000
00001000
,
01000000
00010000
01000000
00010000
,
10000000
01000000
10000000
01000000
,
00100000
00001000
00010000
00000010
,
00001000
00000001
00001000
00000001
,
00000100
00000010
00000100
00000010
,
00001000
00000100
00001000
00000100
,
00010000
00001000
00010000
00000000
,
00001000
00010000
01000000
10000000
,
00100000
00010000
00001000
00000100
,
00000002
00000000
00000000
00000000
00000003
00001000
00000001
00002000
,
00000000
00000000
00003000
00000000
,
00000001
00000010
00000100
00010000
,
00001000
00100000
01000000
10000000
,
00010000
10000000
00010000
10000000
,
01000000
00000000
00100000
00000000
00010000
10000000
00000000
10000000
,
00000000
00010000
00000000
00010000
00000000
10000000
00000000
00000000
,
01000000
00100000
00001000
00010000
,
00100000
01000000
00100000
01000000
,
00001000
01000000
00001000
01000000
,
00000100
00000000
00010000
00000000
00000100
00000000
00010000
00001000
,
00000000
00001000
00010000
00000100
00010000
00000000
00000000
00000000
,
00001000
00010000
00001000
00010000
,
00000100
00001000
00000100
00001000
,
00000001
00000100
00000001
00000100
,
00000001
00000020
00000000
00000030
,
00000010
00000001
00000100
00001000
,
00010000
00100000
10000000
01000000
,
00200000
00000000
00000000
00000000
00300000
00010000
10000000
00200000
,
00000000
00000000
00300000
00000000
,
10000000
01000000
10000000
01000000
,
00010000
01000000
00010000
01000000
,
00010000
00001000
00010000
00000000
,
00011000
00021000
00030000
00001000
,
00010000
00000000
00011000
00000000
,
00001100
00001200
00000300
00001000
,
00000001
00000100
00001000
00000100
,
00000010
00000210
00000300
00000010
,
00000100
00000000
00000110
00000000
,
00001001
00002001
00003000
00000001
,
00001000
00000100
00000010
00000001
,
00000100
00000010
00000100
00000010
,
00001000
00000010
00001000
00000010
,
00010000
00001000
00100000
00010000
,
10000000
01000000
00100000
00000000
,
00010000
01000000
10000000
00000000
,
10000000
01000000
00010000
00000000
,
00100000
00010000
10000000
01000000
,
00100000
00001000
00010000
00000000
,
00100000
10000000
01000000
00010000
,
00001000
00000010
00000001
00000100
,
00000020
00000000
00000000
00000000
00000030
00001000
00000001
00000020
,
00000000
00000000
00000030
00000000
,
00000100
00000000
00001000
00000100
00001000
00000000
00000100
00001000
,
00000100
00000000
00000010
00000100
00000010
00000000
00000001
00000010
,
00000001
00000010
00000001
00000010
00000001
00000000
00000011
00000000
,
00001001
00000000
00001001
00000000
00000000
00001000
00000000
00000001
,
00002000
00000000
00003000
00000000
,
00010100
00000000
00010100
00000000
00000000
00010000
00000000
00000100
,
00000000
00001000
00000000
00000100
00000000
00010000
00000000
00000000
,
00011000
00000000
00011000
00000000
00000000
00001000
00000000
00010000
,
00002000
00000000
00003000
00000000
,
01010000
00000000
01010000
00000000
00000000
00010000
00000000
10000000
,
00000000
00000000
11000000
00000000
00000000
10000000
00000000
00010000
,
01000000
00000000
01100000
00000000
00000000
00000000
00100000
01000000
,
00100000
10000000
01000000
00000000
,
01100000
00000000
01100000
00000000
00000000
00000000
00100000
00010000
,
00100000
01000000
10000000
00000000
,
00011000
00000000
00011000
00000000
00000000
00000000
00001000
00010000
,
00000200
00000000
00000310
00000000
,
00000110
00000000
00000100
00000001
00000010
00000000
00000100
00001000
,
00000020
00000000
00000130
00000110
;

//---------------dance-single - Telperion----------------
#NOTES:
     dance-single:
     Telperion:
     Beginner:
     1:
     0.101,0.115,0.087,0.000,0.000:
1000
0000
0000
0000
,
1000
0000
0000
0000
,
0001
0000
0000
0000
,
0001
0000
0000
0000
,
1000
0000
0000
0000
,
1000
0000
0000
0000
,
0001
0000
0000
0000
,
0001
0000
1000
0000
,
0100
0000
0000
0000
,
0000
0000
0000
0000
,
0100
0000
0000
0000
,
0000
0000
0000
0000
,
0010
0000
0000
0000
,
0000
0000
0000
0000
,
0010
0000
0000
0000
,
0001
0000
1000
0000
,
0001
0000
0000
0000
,
1000
0000
0001
0000
,
0100
0000
0000
0000
,
1000
0000
0000
0000
,
0100
0000
0000
0000
,
0010
0000
0000
0000
,
0001
0000
0000
0000
,
1000
0000
0000
0000
,
1000
0000
0000
0000
,
0001
0000
0000
0000
,
1001
0000
0000
0000
,
0000
0000
0000
0000
,
1001
0000
0000
0000
,
0000
0000
0000
0000
,
1001
0000
0000
0000
,
0000
0000
0000
0000
,
1001
0000
0000
0000
,
0000
0000
0000
0000
,
1000
0000
0100
0000
,
0010
0000
0001
0000
,
0010
0000
0000
0000
,
1000
0000
0000
0000
,
0010
0000
0000
0000
,
0100
0000
0000
0000
,
0001
0000
1000
0000
,
0001
0000
0000
0000
,
0001
0000
0001
0000
,
1000
0000
0000
0000
,
1000
0000
1000
0000
,
0001
0000
0000
0000
,
0001
0000
0001
0000
,
1000
0000
0000
0000
,
1000
0000
1000
0000
,
0001
0000
0000
0000
,
0100
0000
0000
0000
,
0010
0000
0000
0000
,
1000
0000
0000
0000
,
0001
0000
0000
0000
,
0010
0000
0000
0000
,
0100
0000
0000
0000
,
1000
0000
0000
0000
,
0010
0000
0100
0000
,
0001
0000
0010
0000
,
0100
0000
0000
0000
,
0001
0000
0000
0000
,
0100
0000
0010
0000
,
1000
0000
0100
0000
,
0010
0000
0000
0000
,
0110
0000
0000
0000
,
0000
0000
0000
0000
,
0110
0000
0000
0000
,
0000
0000
0000
0000
,
1001
0000
0000
0000
,
0000
0000
0000
0000
,
1001
0000
0000
0000
,
0000
0000
0000
0000
,
0110
0000
0000
0000
,
0110
0000
0000
0000
,
1001
0000
0000
0000
,
1001
0000
0000
0000
,
1000
0000
0000
0000
,
0001
0000
0001
0000
,
1000
0000
0000
0000
,
1000
0000
1000
0001
;
