#TITLE:Paradise Lost;
#SUBTITLE:;
#ARTIST:Chika Anzai;
#TITLETRANSLIT:;
#SUBTITLETRANSLIT:;
#ARTISTTRANSLIT:;
#CREDIT:;
#BANNER:Paradise Lost.png;
#BACKGROUND:Paradise Lost-bg.png;
#LYRICSPATH:;
#CDTITLE:;
#MUSIC:Paradise Lost.mp3;
#OFFSET:-0.045;
#SAMPLESTART:59.405;
#SAMPLELENGTH:12.000;
#SELECTABLE:YES;
#BPMS:0.000=160.000;
#STOPS:;
#BGCHANGES:;

//---------------dance-single - ----------------
#NOTES:
     dance-single:
     :
     Hard:
     9:
     0.710,0.695,0.452,0.381,0.213:
0000
0000
0000
0000
,
0000
0000
0000
0000
,
0000
0000
0000
0000
,
0000
0000
0000
0000
,
1000
0100
0010
0001
0100
0010
1000
0002
,
0003
0100
0010
2000
3100
0010
0001
1000
,
0010
1000
0001
0010
0001
0100
0010
1010
,
0000
0110
0110
0000
0101
0202
0000
0303
,
0100
0000
0010
0000
1000
0000
0100
0000
0010
0001
0020
0000
0030
0001
0010
0000
,
0100
0000
1000
0000
0001
0000
0000
0001
1000
0000
0020
0000
0030
0100
0001
0000
,
0100
0000
0010
0000
1000
0000
0000
1000
0100
0000
0020
0000
0030
0001
0010
0000
,
0100
0000
1000
0000
0010
0000
0100
0000
0001
0000
0000
0001
1000
0000
0010
0000
,
1000
0000
0100
0000
0001
0000
0100
0000
1000
0010
2000
0000
3000
0010
1000
0000
,
0010
0000
0100
0000
0001
0000
0000
0001
0010
0000
0200
0000
0300
1000
0100
0000
,
0010
0000
0001
0000
0100
0000
0000
0100
0010
0000
2000
0000
3000
0001
0100
0000
,
0010
1000
0010
0000
0100
0000
0001
0010
0001
0000
1000
0000
0000
0100
1000
0000
,
1010
0000
1000
0010
1000
0100
0000
0011
,
0000
0001
0100
0001
0000
1000
0010
1000
,
1001
0000
0001
0100
0010
1000
0100
0010
,
0000
0001
0100
0010
0000
1000
0100
0001
,
0101
0000
0100
1000
0010
0000
0100
0001
,
0000
0010
0001
1000
0001
0001
0100
0100
,
0010
0000
0000
0000
1010
0000
0000
0000
1000
0000
0100
0000
0010
0000
0001
1000
,
0001
0000
0100
0000
0010
0000
1000
0000
0001
0000
0000
0001
0010
0000
0100
0000
,
1100
0000
1000
0010
0100
0001
0000
1100
,
0000
0100
1000
0001
0000
0010
0001
0100
,
0110
0000
0010
1000
0100
0001
0100
1000
,
0000
0010
0100
0001
0000
0010
0100
1000
,
1001
0000
1000
0100
0010
0001
0100
0010
,
0000
1000
0001
0010
0001
0100
0010
1000
,
0001
0100
1000
0100
0001
0000
1001
0000
,
1000
0010
0100
0001
1000
1000
0001
0001
,
0200
0320
2030
3100
,
0001
0101
1100
1010
,
0020
0230
0302
1003
,
0001
0000
0100
0000
0010
0000
0000
0000
1000
0000
0000
1000
0001
0000
0100
0000
,
0110
0000
0010
1000
0100
1000
0001
0020
,
0000
0032
0000
0203
0000
0310
0000
1000
,
0001
0000
1000
0100
0010
0000
0001
0000
,
0101
0000
0000
0110
0000
0000
1010
0000
0000
0000
1000
0000
0001
0000
0010
0000
,
0011
0001
0100
0010
1000
0100
1000
0001
,
0010
0000
0011
0000
0001
0010
0100
1000
,
0020
0230
0302
1003
,
0100
0000
0000
1000
0000
0000
0010
0000
0100
0000
0000
0000
0101
0000
0000
0000
,
0100
0010
1000
0100
0002
0000
0103
0000
,
0001
0000
0100
1000
0000
0100
1000
0000
0010
0000
0100
0000
0001
0000
1000
0000
,
0100
0000
0000
0010
0000
0000
0001
0000
0100
0000
0000
0010
0000
0000
1000
0000
,
1100
0000
0000
0011
0000
0000
0101
0000
1010
0000
0000
1000
0002
0000
0003
0000
,
0100
0010
1000
0010
0100
0001
0010
0100
,
1000
0000
1001
0000
1000
0010
0001
0010
,
2000
3200
0320
0031
,
0100
0000
0000
0010
0000
0000
1000
0000
0002
0000
0000
0000
0103
0000
0000
0000
,
0101
0000
0100
0010
1010
0000
1000
0100
,
1100
0000
0011
0000
0101
0100
0010
0000
,
2000
3002
0023
0130
,
1100
0000
0000
0011
0000
0000
0102
0000
0000
0000
0100
0000
0103
0001
0100
0000
,
0010
1000
0100
1000
0001
1000
0000
0001
,
0100
0000
0110
0000
0010
1000
0100
1000
,
0002
0023
2030
3100
,
0001
0000
1000
0001
0000
1000
0001
0000
1000
0000
0010
0000
0100
0000
0001
0000
,
1000
0100
0010
0001
1000
0000
1010
0000
,
0010
0100
0001
1000
0100
0000
0110
0000
,
0100
0010
0001
0011
0000
0101
0000
0110
,
0000
0010
1000
0100
1000
1000
0001
0001
,
0010
0000
0100
0000
1000
0000
0010
0000
1000
0001
2000
0000
3000
0001
1000
0000
,
0010
0000
1000
0000
0001
0000
0000
0001
1000
0000
0200
0000
0300
0010
0001
0000
,
0010
0000
0100
0000
1000
0000
0000
1000
0010
0000
0200
0000
0300
0010
1000
0000
,
0010
0000
0100
0000
0010
0000
1000
0000
0100
0000
0000
0100
0010
0000
0001
0000
,
1000
0000
0010
0000
0100
0000
0010
0000
1000
0100
2000
0000
3000
0100
0001
0000
,
0100
0000
0010
0000
1000
0000
0000
1000
0010
0000
0002
0000
0003
0010
0100
0000
,
0100
0000
1000
0000
0010
0000
0000
0010
0100
0000
0002
0000
0003
1000
0010
0000
,
0100
0001
0100
0000
0010
0000
1000
0100
1000
0000
0001
0000
0000
0010
0001
0000
,
0101
0000
0100
0110
0000
0010
1010
0000
,
1000
1100
0000
0100
0110
0000
0011
2002
,
0000
0000
0000
3003
;

//---------------dance-single - ----------------
#NOTES:
     dance-single:
     :
     Beginner:
     2:
     0.118,0.164,0.000,0.000,0.000: // measure 1
0000
0000
0000
0000
,  // measure 2
0000
0000
0000
0000
,  // measure 3
0000
0000
0000
0000
,  // measure 4
0000
0000
0000
0000
,  // measure 5
0001
0000
0000
0000
,  // measure 6
0100
0000
0100
0000
,  // measure 7
0100
0000
0000
0000
,  // measure 8
0010
0000
0010
0000
,  // measure 9
0010
0000
0000
0000
,  // measure 10
1000
0000
0000
0000
,  // measure 11
0001
0000
0000
0000
,  // measure 12
0100
0000
0100
0000
,  // measure 13
0100
0000
0000
0000
,  // measure 14
0010
0000
0000
0000
,  // measure 15
1000
0000
0000
0000
,  // measure 16
0001
0000
0001
0000
,  // measure 17
0001
0000
0000
0000
,  // measure 18
1000
0000
0000
0000
,  // measure 19
0010
0000
0000
0000
,  // measure 20
0100
0000
0100
0000
,  // measure 21
0100
0000
0000
0000
,  // measure 22
0001
0000
0000
0000
,  // measure 23
1000
0000
0000
0000
,  // measure 24
0100
0000
0100
0000
,  // measure 25
0100
0000
0000
0000
,  // measure 26
0010
0000
0000
0000
,  // measure 27
0001
0000
0000
0000
,  // measure 28
1000
0000
1000
0000
,  // measure 29
1000
0000
0000
0000
,  // measure 30
0010
0000
0000
0000
,  // measure 31
0100
0000
0000
0000
,  // measure 32
0001
0000
0001
0000
,  // measure 33
0001
0000
0000
0000
,  // measure 34
1000
0000
1000
0000
,  // measure 35
1000
0000
0000
0000
,  // measure 36
0010
0000
0010
0000
,  // measure 37
0010
0000
0000
0000
,  // measure 38
0100
0000
0000
0000
,  // measure 39
0001
0000
0000
0000
,  // measure 40
1000
1000
0000
0000
,  // measure 41
0001
0000
0000
0000
,  // measure 42
0100
0000
0000
0000
,  // measure 43
0010
0000
0000
0000
,  // measure 44
1000
0000
1000
0000
,  // measure 45
1000
0000
0000
0000
,  // measure 46
0100
0000
0000
0000
,  // measure 47
0010
0000
0000
0000
,  // measure 48
0001
0000
0001
0000
,  // measure 49
0001
0000
0000
0000
,  // measure 50
0100
0000
0000
0000
,  // measure 51
0010
0000
0000
0000
,  // measure 52
1000
0000
0000
0000
,  // measure 53
0001
0000
0001
0000
,  // measure 54
1000
0000
1000
0000
,  // measure 55
0010
0000
0010
0000
,  // measure 56
0100
0000
0000
0000
,  // measure 57
0001
0000
0000
0000
,  // measure 58
1000
0000
0000
0000
,  // measure 59
0100
0000
0100
0000
,  // measure 60
0100
0000
0000
0000
,  // measure 61
1000
0000
0000
0000
,  // measure 62
0010
0000
0000
0000
,  // measure 63
0100
0000
0100
0000
,  // measure 64
0100
0000
0000
0000
,  // measure 65
0010
0000
0000
0000
,  // measure 66
1000
0000
0000
0000
,  // measure 67
0001
0000
0000
0000
,  // measure 68
0010
0000
0010
0000
,  // measure 69
0010
0000
0000
0000
,  // measure 70
0100
0000
0000
0000
,  // measure 71
1000
0000
0000
0000
,  // measure 72
0001
0000
0001
0000
,  // measure 73
0001
0000
0000
0000
,  // measure 74
1000
0000
0010
0010
,  // measure 75
0010
0000
0000
0000
;

//---------------dance-single - ----------------
#NOTES:
     dance-single:
     :
     Easy:
     4:
     0.291,0.360,0.168,0.018,0.000: // measure 1
0000
0000
0000
0000
,  // measure 2
0000
0000
0000
0000
,  // measure 3
0000
0000
0000
0000
,  // measure 4
0000
0000
0000
0000
,  // measure 5
1000
0001
0100
0001
,  // measure 6
0010
0010
0100
0100
,  // measure 7
1000
0010
1000
0001
,  // measure 8
1001
0000
0110
0000
,  // measure 9
1000
0010
0100
0000
,  // measure 10
0001
0010
0100
0000
,  // measure 11
1000
0001
0010
0000
,  // measure 12
0001
0001
1000
1000
,  // measure 13
0010
1000
0100
0000
,  // measure 14
0010
0001
0100
0000
,  // measure 15
0010
1000
0001
0000
,  // measure 16
0100
0100
0001
0001
,  // measure 17
0010
0000
0001
0000
,  // measure 18
0100
0001
0100
0000
,  // measure 19
0010
0000
1000
0000
,  // measure 20
0100
1000
0100
0000
,  // measure 21
1000
0000
0001
0000
,  // measure 22
0100
0001
0100
0000
,  // measure 23
0010
0000
1000
0000
,  // measure 24
0100
1000
0100
0000
,  // measure 25
0010
0000
0001
0000
,  // measure 26
0100
0010
0100
0000
,  // measure 27
0010
0000
1000
0000
,  // measure 28
0001
0100
0001
0000
,  // measure 29
1000
0000
0100
0000
,  // measure 30
0010
0001
0010
0000
,  // measure 31
0001
0000
0100
0000
,  // measure 32
0010
1000
0010
0000
,  // measure 33
0100
0100
0001
0001
,  // measure 34
1000
0000
1001
0000
,  // measure 35
1000
1000
0010
0010
,  // measure 36
0100
0000
0101
0000
,  // measure 37
0001
0000
0010
0000
,  // measure 38
0100
0000
1000
0000
,  // measure 39
0010
0000
0100
0000
,  // measure 40
0001
1000
0001
0000
,  // measure 41
1000
0100
1000
0001
,  // measure 42
0010
0000
0001
0000
,  // measure 43
0100
0100
0010
0010
,  // measure 44
1000
1000
0001
0000
,  // measure 45
1000
0100
0010
0001
,  // measure 46
0100
0000
0110
0000
,  // measure 47
0010
1000
0001
0100
,  // measure 48
0101
0101
0101
0000
,  // measure 49
0100
0010
1000
0100
,  // measure 50
0010
0000
0011
0000
,  // measure 51
0001
0100
0010
1000
,  // measure 52
0001
0001
1000
0000
,  // measure 53
1100
0000
0011
0000
,  // measure 54
0101
0101
0101
0000
,  // measure 55
0100
0010
1000
0001
,  // measure 56
1001
1001
1001
0000
,  // measure 57
1000
0010
0100
0000
,  // measure 58
0001
0010
0100
0000
,  // measure 59
1000
1000
0001
0001
,  // measure 60
0100
0001
0010
0000
,  // measure 61
0110
0100
1000
0000
,  // measure 62
0010
0100
0001
0000
,  // measure 63
0010
0100
1000
0001
,  // measure 64
2002
0000
0000
3003
,  // measure 65
1000
0010
0100
0000
,  // measure 66
0001
0010
0100
0000
,  // measure 67
1000
0001
0010
0000
,  // measure 68
0001
1000
0010
1000
,  // measure 69
0001
0100
0010
0000
,  // measure 70
1000
0100
0010
0000
,  // measure 71
0001
0010
0100
0000
,  // measure 72
1000
0010
0100
0001
,  // measure 73
1000
0000
0000
0010
0000
0000
0100
0000
,  // measure 74
0000
0001
0000
0000
1000
0000
0100
0010
;

//---------------dance-single - ----------------
#NOTES:
     dance-single:
     :
     Medium:
     6:
     0.476,0.491,0.301,0.310,0.000: // measure 1
0000
0000
0000
0000
,  // measure 2
0000
0000
0000
0000
,  // measure 3
0000
0000
0000
0000
,  // measure 4
0000
0000
0000
0000
,  // measure 5
1000
0000
0001
0000
0100
0000
0001
1000
,  // measure 6
0000
0100
0000
1000
0000
0010
0100
0000
,  // measure 7
0001
0000
0010
0000
0100
0000
1000
0100
,  // measure 8
0000
0010
0001
0000
0100
0020
0000
0030
,  // measure 9
1000
0000
0001
0000
1000
0020
0030
0000
,  // measure 10
1000
0000
0100
0000
1000
0002
0003
0000
,  // measure 11
1000
0000
0010
0000
0100
0002
0003
0000
,  // measure 12
1000
1000
0001
0001
,  // measure 13
0010
0000
0100
0000
1000
0020
0030
0000
,  // measure 14
1000
0000
0001
0000
0100
0002
0003
0000
,  // measure 15
1000
0000
0100
0000
0010
0002
0003
0000
,  // measure 16
1000
0001
0100
0010
,  // measure 17
1010
0000
1000
0000
0010
0100
0000
0001
,  // measure 18
0000
0100
0010
0000
1000
0000
0001
0000
,  // measure 19
1001
0000
1000
0000
0100
0000
1000
0100
,  // measure 20
0000
0010
0000
0001
0000
0100
0010
0000
,  // measure 21
1001
0000
1000
0000
0010
0000
0100
0001
,  // measure 22
0000
1000
0000
0100
0000
0010
0001
0000
,  // measure 23
1000
0000
1100
0000
1000
0001
1000
0000
,  // measure 24
0001
0100
0010
1000
,  // measure 25
1001
0000
1000
0000
0100
0010
0000
0001
,  // measure 26
0000
0010
0100
0000
1000
0000
0010
0000
,  // measure 27
0110
0000
0100
0000
0001
0100
0000
0010
,  // measure 28
0000
1000
0100
0000
1000
0000
0001
0000
,  // measure 29
1001
0000
1000
0000
0010
0000
0100
0001
,  // measure 30
0000
0100
0010
0000
1000
0000
0100
0000
,  // measure 31
0010
0001
0010
0000
0001
0000
0101
0000
,  // measure 32
0100
0010
0100
0000
0010
0000
1010
0000
,  // measure 33
2000
3020
0230
0301
,  // measure 34
1000
1100
1001
0011
,  // measure 35
0002
0203
0320
1030
,  // measure 36
0001
0000
0100
0000
0010
0000
1000
0100
,  // measure 37
0001
0000
0100
0000
1000
0000
0010
0100
,  // measure 38
0000
0001
0000
1000
0000
0100
0000
1000
,  // measure 39
0001
0000
0010
0001
0100
0000
0010
0000
,  // measure 40
0110
1001
0110
0000
,  // measure 41
1000
0100
1000
0000
0001
0100
0001
0000
,  // measure 42
1000
0000
1010
0000
1000
0001
0010
0000
,  // measure 43
0002
0023
0230
1300
,  // measure 44
0010
0100
0002
1003
,  // measure 45
0001
0100
0001
0000
1000
0000
0100
0000
,  // measure 46
1000
0000
0010
0100
0010
0000
0110
0000
,  // measure 47
0100
0000
0001
0100
0001
0000
1000
0100
,  // measure 48
1000
0000
0001
1000
0001
0000
1001
0000
,  // measure 49
1000
0010
0100
0000
0001
0010
0100
0000
,  // measure 50
1000
0000
1001
0000
0001
0010
1000
0000
,  // measure 51
0020
0032
0203
0310
,  // measure 52
1000
0000
0001
0100
0001
0000
1000
0000
,  // measure 53
1100
0001
0101
1000
,  // measure 54
1010
0011
0201
0310
,  // measure 55
2000
3200
0320
0031
,  // measure 56
1000
0010
0100
0101
,  // measure 57
0001
0010
0001
0000
1000
0000
1010
0000
,  // measure 58
0001
0100
0001
0000
1000
0000
1100
0000
,  // measure 59
2000
3200
0320
0031
,  // measure 60
1000
0000
0010
0100
0001
0000
0101
0000
,  // measure 61
0001
0000
0100
0000
0010
1000
0100
0000
,  // measure 62
0010
0000
0001
0000
0100
0001
0010
0000
,  // measure 63
0100
1000
0100
0010
0000
0001
0000
2002
,  // measure 64
0000
0000
0000
3003
,  // measure 65
1000
0000
0001
0000
1000
0020
0030
0000
,  // measure 66
1000
0000
0100
0000
1000
0002
0003
0000
,  // measure 67
1000
0000
0010
0000
0100
0002
0003
0000
,  // measure 68
1000
1000
0001
0001
,  // measure 69
0010
0000
0100
0000
1000
0020
0030
0000
,  // measure 70
1000
0000
0001
0000
0100
0002
0003
0000
,  // measure 71
1000
0000
0100
0000
0010
0002
0003
0000
,  // measure 72
1000
0001
0100
0010
,  // measure 73
1010
0000
0000
0101
0000
0000
0011
0000
,  // measure 74
0000
1100
0000
0000
1010
0000
1000
0001
;
