#TITLE:Love me / Kill me;
#SUBTITLE:;
#ARTIST:neko;
#TITLETRANSLIT:Love me Kill me;
#SUBTITLETRANSLIT:;
#ARTISTTRANSLIT:;
#GENRE:SCREAMO;
#CREDIT:AznPunk07/Frozen_Heat/GuardianFrozen;
#MENUCOLOR:#4f6a7c;
#METERTYPE:DDR;
#BANNER:Love me Kill me-bn.png;
#BACKGROUND:Love me Kill me-bg.png;
#LYRICSPATH:Love me Kill me.lrc;
#CDTITLE:!cdtitle.png;
#MUSIC:Love me Kill me.mp3;
#OFFSET:-0.324;
#SAMPLESTART:44.480;
#SAMPLELENGTH:12.800;
#SELECTABLE:YES;
#LISTSORT:;
#BPMS:0.000=152.000;
#STOPS:;
#BGCHANGES:;
#ATTACKS:;

//---------------dance-single - ----------------
#NOTES:
     dance-single:
     :
     Hard:
     7:
     0.544,0.502,0.523,0.030,0.000: // measure 1
1000
0100
0010
0000
0100
0000
1000
0000
,  // measure 2
0001
0010
0100
0000
0010
0000
0001
0000
,  // measure 3
1000
0010
0100
0001
1000
0000
0001
0010
,  // measure 4
0000
0001
0000
1000
0000
0000
0010
1000
,  // measure 5
0100
0010
0001
1000
0002
0000
0010
0000
,  // measure 6
1003
0010
1000
0000
0010
0000
0100
0000
,  // measure 7
0001
1000
0001
1000
0000
0010
0000
0100
,  // measure 8
0001
0000
0010
0100
1000
0000
0100
0010
,  // measure 9
0001
1000
0010
0100
1000
0100
0001
0100
,  // measure 10
0010
1000
0001
0000
0010
0000
0100
1000
,  // measure 11
0100
1100
0011
1001
,  // measure 12
0001
0100
0010
1000
0000
0010
0000
0100
,  // measure 13
0001
0000
1000
0001
2000
0000
0010
0000
,  // measure 14
3100
0000
0010
0001
0100
0000
0010
1000
,  // measure 15
0001
1000
0010
0100
0000
0010
0000
1000
,  // measure 16
0001
0010
0100
0010
0001
1000
0001
0100
,  // measure 17
0010
1000
0100
0000
0010
0000
0110
0000
,  // measure 18
0001
0000
1000
0001
0000
0101
0000
0010
,  // measure 19
1000
0000
0001
0010
0200
0000
0010
0000
,  // measure 20
1300
0000
0001
0100
0000
0001
0010
0100
,  // measure 21
1000
0010
1000
0000
0010
0100
0000
0010
,  // measure 22
0000
1000
0001
1000
0000
0001
0000
1000
,  // measure 23
0100
0000
0010
0000
,  // measure 24
0100
1000
0001
0010
0100
1000
0001
0010
,  // measure 25
0100
1000
0100
0010
0001
1000
0100
0010
,  // measure 26
0001
1000
0001
0000
0000
0000
0000
0000
,  // measure 27
0000
0000
0000
0000
,  // measure 28
1000
0100
0100
0010
0001
1000
0001
0001
,  // measure 29
0100
0010
0100
0000
0110
0000
0010
1000
,  // measure 30
0010
1010
1001
0011
,  // measure 31
0100
1000
0001
0010
0100
1000
0001
0010
,  // measure 32
0100
1100
0001
0101
,  // measure 33
1010
0100
0110
0010
,  // measure 34
1010
1001
1010
1001
,  // measure 35
0010
0011
0001
0101
,  // measure 36
1001
0000
0101
0000
0010
1000
0010
0000
,  // measure 37
0100
0001
0100
0000
0101
0000
1000
0100
,  // measure 38
1000
0000
1100
0000
0011
0000
0001
1000
,  // measure 39
0001
0000
1001
0000
1100
0000
0010
0001
,  // measure 40
0010
0011
1100
1001
,  // measure 41
0100
0100
0001
0000
0011
0000
0100
0000
,  // measure 42
1100
1001
0101
0010
,  // measure 43
0110
1001
0110
1001
,  // measure 44
0001
0001
1000
1000
0001
1000
1001
0000
,  // measure 45
0001
0100
1000
0000
0110
0000
0001
0100
,  // measure 46
1000
0100
0001
0000
1001
0000
0010
0000
,  // measure 47
1000
0100
0001
0000
0110
0000
1000
0100
,  // measure 48
0001
0100
1000
0000
0001
1000
0001
0100
,  // measure 49
0001
0010
1000
0000
0110
0000
1000
0010
,  // measure 50
0001
0010
1000
0000
1001
0000
0100
0000
,  // measure 51
1000
0010
0001
0000
0110
0000
0001
0010
,  // measure 52
1000
0010
0001
0001
1000
1000
0010
0010
,  // measure 53
0100
0001
0101
0000
0010
0000
1000
0100
,  // measure 54
1100
0000
0010
0000
1100
0010
0001
0010
,  // measure 55
1100
0001
1000
0000
0101
0000
0001
0100
,  // measure 56
0001
0000
1100
0000
1000
0100
1000
0000
,  // measure 57
0101
0000
0001
0100
0001
0000
1000
0000
,  // measure 58
0100
0010
0001
1000
0100
0010
0100
1000
,  // measure 59
0001
0010
0100
0000
0010
0100
1000
0000
,  // measure 60
1100
0000
0011
0000
1000
0010
0001
0010
;

//---------------dance-single - ----------------
#NOTES:
     dance-single:
     :
     Challenge:
     9:
     0.627,0.679,0.207,0.000,0.099:
0001
0100
0001
0000
0000
0010
0001
0010
,
0000
0100
1000
0000
0000
0000
0000
0000
,
0010
1000
0010
0000
0000
1000
0100
1000
,
0000
0001
0010
0100
1000
0001
1000
0100
,
0010
0001
0010
0000
0000
0100
1000
0100
,
0000
0010
0001
0000
0000
0000
0000
0000
,
1000
0010
1000
0000
0000
0001
0100
0001
,
0000
1000
0001
0010
0100
1000
0100
0010
,
0001
0100
1000
0000
0000
0100
0001
0010
,
0000
0100
1000
0000
0000
0100
1000
0001
,
1000
0010
0001
0000
0000
0010
1000
0100
,
0000
0010
0001
1000
0100
0001
1000
0010
,
0001
1000
0010
0000
0000
0100
0001
0100
,
0000
0010
1000
0000
0000
0000
0000
0000
,
0010
0100
0001
0000
0000
0010
1000
0010
,
0000
0001
0010
1000
0010
0001
0100
0000
,
1000
0100
0010
1000
0100
0010
0100
0000
,
0010
0001
0100
0010
0001
0010
0100
0000
,
0010
1000
0010
0001
0010
1000
0000
1000
,
0001
0000
0001
0100
0000
0100
0010
0000
,
0010
1000
0001
0010
1000
0010
0000
0000
,
0100
1000
0010
0100
1000
0100
0000
0100
,
0001
0000
0000
0010
0001
0000
1000
0000
,
0001
0010
0100
1000
0001
0100
0010
1000
,
0001
0010
1000
0010
0001
0010
0100
1000
,
0100
0100
0100
0000
0000
0000
0000
0000
,
0000
0000
0000
0000
,
1000
0000
0001
0100
0001
0100
0001
0000
1000
0100
1000
0000
0001
0100
0001
0000
,
0010
0010
0001
0100
0010
1000
0100
0100
,
1000
1000
0010
0010
0100
0100
0001
0001
,
1000
0100
1000
0010
0100
0001
0010
0100
,
1000
0100
1100
0010
0001
0100
0101
0010
,
0010
0010
1000
0000
0010
0000
0100
0000
0001
0000
0010
0010
0000
0100
0100
0000
,
1000
1000
0000
0000
0001
0000
0100
0000
0010
0000
0100
0100
0000
0000
0010
0000
,
1000
0100
1000
0100
0010
0001
1000
0001
,
0010
0000
0001
0000
0100
0000
0001
0000
0010
0100
1000
0000
0001
0010
0100
0000
,
0010
0010
0001
0001
1000
0001
0100
0100
,
0010
0010
1000
1000
0001
0100
0010
1000
,
0001
0001
0010
0010
0001
1000
0010
0010
,
1000
1000
0001
0001
0100
0100
0010
1000
,
0001
0001
0010
0000
0100
0000
0010
0000
0001
0000
1000
1000
0000
0010
0010
0000
,
0100
0100
0001
0000
1000
0000
0100
0000
0010
0001
0010
0100
1000
0000
0001
0000
,
0100
0001
0101
0010
1000
0100
1100
0010
,
0001
1000
1001
0100
0010
0010
0100
0100
,
1000
0010
0001
0010
0110
0000
1000
0010
,
0001
0010
1000
0100
1001
0010
0100
1000
,
0001
0010
1000
0010
0110
0000
0001
0010
,
1000
0010
0001
0001
1000
0001
1000
0010
,
1000
0100
0001
0100
0110
0000
0001
0100
,
1000
0100
0001
0010
1001
0100
0010
0001
,
0001
0100
1000
0100
0110
0000
1000
0100
,
0001
0000
0100
0000
1000
0010
1000
0000
0001
0010
0001
0000
1000
0001
1000
0000
,
1001
1001
0010
0100
0001
0010
0001
0100
,
0010
1000
0100
0010
0001
1000
0010
0100
,
1010
1010
0100
0001
1000
0100
0011
0011
,
0100
1000
0001
0100
1010
1010
0100
0001
,
1000
0100
0011
0011
0100
1000
0001
0100
,
1000
0100
0010
1000
0100
0010
0001
1000
,
0001
0001
0010
0010
0100
0100
1000
1000
,
0001
0100
1000
0100
0001
0010
1000
0100
;

//---------------dance-single - ----------------
#NOTES:
     dance-single:
     :
     Medium:
     6:
     0.397,0.472,0.178,0.148,0.000:
0001
0000
0001
0100
0001
0000
0000
0000
,
1000
0100
0010
0100
,
1000
0000
1000
0010
1000
0000
0000
0000
,
0001
0100
0010
1000
,
0002
0000
1000
1000
,
0000
0000
0003
0000
,
1000
0000
0100
0000
0010
0100
0010
0000
,
0001
0000
1000
0000
0010
0100
0010
0000
,
1000
0100
1000
0000
0001
0000
0100
0000
,
0010
0010
1000
0000
,
0002
0010
1003
0100
,
0010
0100
1000
0000
0001
0000
0100
0010
,
2000
0000
0001
0001
,
0000
0000
3000
0000
,
0001
0000
0001
0010
0001
0000
0100
0000
,
0010
1000
0010
0000
0100
0000
0001
0000
,
1000
0100
0010
0000
0100
0000
0000
0000
,
1000
0100
0010
0000
0100
0000
1000
0000
,
0001
0100
0010
0000
0100
0000
0000
0000
,
0001
0100
0010
0000
0100
0000
0001
0000
,
1000
0100
0010
0000
0100
1000
0010
0000
,
0100
0001
0010
0000
0001
0010
0100
0000
,
2000
0000
0002
0000
,
0000
0000
0000
0000
,
0000
0000
0000
0000
,
3003
0000
0000
0000
,
0000
0000
0000
0000
,
0001
0002
0000
1003
2000
0000
3001
0002
,
1000
0003
1000
0000
1100
0000
0001
0000
,
0001
0101
1000
0001
,
1000
1000
1100
0001
,
1000
1100
0001
0101
,
1000
0100
0020
0000
0130
0000
0000
0000
,
0002
0010
0100
1003
,
1000
0100
0020
0000
0100
0000
0031
0000
,
0011
0101
0001
1000
,
0001
0001
0011
1000
,
1000
1010
0001
1000
,
0001
0001
0011
1000
,
0001
0011
1000
1010
,
0001
0010
0200
0000
0310
0000
0000
0000
,
2000
0100
0010
3001
,
0001
0010
0200
0000
0310
0100
2000
0000
,
3001
0000
0011
0000
1000
0010
1000
0010
,
0100
0100
0110
0001
,
1000
0000
0001
0000
0010
0001
0010
0000
,
0001
0100
0110
0001
,
1000
0000
0010
0000
0100
0010
1000
0000
,
0001
1000
1001
0100
,
0010
0000
1000
0000
0001
0010
0100
1000
,
0001
0100
0110
1000
,
0001
0000
0110
0000
0001
1000
0001
1000
,
0001
0010
0100
0000
0010
0000
0001
0010
,
0100
0000
0010
0000
0001
0010
0100
1000
,
0010
1000
0010
0000
0100
0000
0010
1000
,
0010
0000
0100
0000
0010
1000
0010
0000
,
0100
0000
0010
1000
0010
0000
0100
0000
,
0001
0000
1000
0000
0001
0010
0100
1000
,
0001
0001
1000
1000
,
0100
0000
0010
0000
0100
1000
0100
0010
;

//---------------dance-single - ----------------
#NOTES:
     dance-single:
     :
     Beginner:
     2:
     0.094,0.147,0.000,0.039,0.000:
0000
0000
0000
0000
,
0000
0000
0000
0000
,
0001
0000
0000
0000
,
1000
0000
0000
0000
,
0200
0000
0300
0000
,
0000
0000
0000
0000
,
0010
0000
0000
0000
,
0001
0000
0000
0000
,
1000
0000
0000
0000
,
0100
0000
0000
0000
,
0010
0000
0000
0000
,
0001
0000
0000
0000
,
0020
0000
0030
0000
,
0000
0000
0000
0000
,
1000
0000
0000
0000
,
0001
0000
0000
0000
,
0100
0000
0000
0000
,
0010
0000
0000
0000
,
1000
0000
0002
0000
,
0003
0000
0000
0000
,
0010
0000
0000
0000
,
0100
0000
0000
0000
,
2000
0000
3000
0000
,
0000
0000
0000
0000
,
0000
0000
0000
0000
,
0000
0000
0000
0000
,
0000
0000
0000
0000
,
0000
0000
0000
0000
,
0001
0001
0000
0000
,
0000
0000
0000
0000
,
1000
1000
0000
0000
,
0000
0000
0000
0000
,
0000
0100
0100
0100
,
0100
0000
0000
0000
,
0000
0010
0010
0010
,
0010
0000
0000
0000
,
0001
0001
0000
0000
,
0000
0000
0000
0000
,
1000
1000
0000
0000
,
0000
0000
0000
0000
,
0000
0010
0010
0010
,
0010
0000
0000
0000
,
0100
0000
0100
0000
,
0100
0000
0100
0000
,
0100
0100
0000
0000
,
0000
0000
0000
0000
,
0010
0010
0000
0000
,
0000
0000
0000
0000
,
1000
1000
0000
0000
,
0000
0000
0000
0000
,
0001
0001
0000
0000
,
0000
0000
0000
0000
,
1000
0000
0000
0000
,
0001
0000
0000
0000
,
0100
0000
0000
0000
,
0010
0000
0000
0000
,
1000
0000
1000
0000
,
0001
0000
0001
0000
,
1000
0000
0001
0000
,
1000
0000
0001
0000
;

//---------------dance-single - ----------------
#NOTES:
     dance-single:
     :
     Easy:
     3:
     0.238,0.295,0.069,0.079,0.000:
0001
0010
0100
0000
,
0010
0000
0000
0000
,
0100
1000
0010
0000
,
0100
0000
0000
0000
,
0001
1000
0100
0010
,
0100
0000
0000
0000
,
1000
0010
1000
0000
,
0001
0100
0001
0010
,
0001
0010
0100
0010
,
0001
0000
0000
0000
,
1000
0100
0010
0100
,
1000
0001
1000
0000
,
0010
0100
0001
0100
,
0010
0000
0000
0000
,
1000
0010
0100
0000
,
0010
1000
0100
0010
,
0002
0000
0103
0000
,
2000
0000
3100
0000
,
0020
0000
0200
0000
,
0000
0000
0330
0000
,
2000
0000
3010
0000
,
0002
0000
0013
0000
,
0220
0000
0000
0000
,
0000
0000
0000
0000
,
0330
0000
0000
0000
,
0010
0010
0000
0000
,
0000
0000
0000
0000
,
0000
0000
0000
0000
,
1000
0100
0001
0000
,
0001
0100
1000
0000
,
1000
0100
0001
0000
,
0001
0100
1000
0100
,
0001
0000
0001
0000
,
0010
0000
0010
0000
,
1000
0000
1000
0000
,
0100
0000
0100
0000
,
0001
0100
1000
0000
,
1000
0010
0001
0010
,
1000
0100
0001
0000
,
0001
0100
1000
0010
,
0001
0001
0100
0000
,
0100
0100
0010
0000
,
0010
0000
1010
0000
,
0100
0001
0101
0000
,
0001
1000
0001
0000
,
0010
0000
0100
0000
,
1000
0001
1000
0000
,
0010
0000
0100
0000
,
0001
0001
0010
0001
,
0100
0000
0010
0000
,
1000
1000
0010
0100
,
0001
1000
0100
0010
,
0100
1000
1100
0000
,
0010
0001
0011
0001
,
1000
0001
1001
0000
,
0100
0010
0110
0000
,
1000
0100
0010
0001
,
1000
0001
0100
0010
,
1000
0000
0100
0000
,
0010
0001
1000
0001
;
