#TITLE:DRONE;
#SUBTITLE:;
#ARTIST:MoraffWare;
#TITLETRANSLIT:;
#SUBTITLETRANSLIT:;
#ARTISTTRANSLIT:;
#CREDIT:348;
#BANNER:DRONE Banner.png;
#BACKGROUND:DRONE Background.png;
#LYRICSPATH:;
#CDTITLE:;
#MUSIC:DRONE.ogg;
#OFFSET:-0.099;
#SAMPLESTART:4.523;
#SAMPLELENGTH:15.000;
#SELECTABLE:YES;
#BPMS:0.000=108.000;
#STOPS:;
#BGCHANGES:;

//---------------dance-single - ----------------
#NOTES:
     dance-single:
     :
     Beginner:
     1:
     0.080,0.108,0.000,0.000,0.000:
0000
0000
0000
0000
,
0000
0000
0000
0000
,
0000
0000
0000
0000
,
0000
0000
0000
0000
,
1000
0000
0000
0000
,
0001
0000
0000
0000
,
1000
0000
0000
0000
,
1000
0000
0000
0000
,
0001
0000
0000
0000
,
0001
0000
0000
0000
,
1000
0000
0000
0000
,
0100
0000
0000
0000
,
0010
0000
0000
0000
,
0001
0000
0000
0000
,
1000
0000
0000
0000
,
0010
0000
0000
0000
,
0100
0000
0000
0000
,
0001
0000
0000
0000
,
1000
0000
0000
0000
,
1000
0000
0000
0000
,
0100
0000
0000
0000
,
0100
0000
0000
0000
,
0010
0000
0000
0000
,
0010
0000
0000
0000
,
0001
0000
0000
0000
,
0001
0000
0000
0000
,
1000
0000
0000
1000
,
0100
0000
0000
0100
,
0010
0000
0000
0010
,
0001
0000
0000
0001
,
1000
0000
0000
0001
,
1000
0000
0000
0001
,
0100
0000
0000
0010
,
0100
0000
0000
0010
,
1000
0000
0000
0100
,
0010
0000
0000
0001
,
1000
0000
0000
0010
,
0100
0000
0000
0001
,
1000
0000
0000
1000
,
0001
0000
0000
0001
,
0100
0000
0000
0100
,
0010
0000
0000
0010
,
1000
0000
0100
0000
,
1000
0000
0000
0000
,
0001
0000
0010
0000
,
0001
0000
0000
0000
,
0100
0000
0000
0000
,
0010
0000
0000
0000
,
0100
0000
0000
0000
,
0010
0000
0000
0000
,
0100
0000
0000
0000
,
0010
0000
0000
0000
,
1000
0000
0000
0000
;

//---------------dance-single - ----------------
#NOTES:
     dance-single:
     :
     Easy:
     3:
     0.176,0.196,0.100,0.141,0.000:
0000
0000
0000
0000
,
0000
0000
0000
0000
,
0000
0000
0000
0000
,
0000
0000
0000
0000
,
1000
0000
0000
0000
,
0001
0000
0000
0000
,
1000
0000
0100
0000
,
0010
0000
0001
0000
,
1000
0000
0010
0000
,
0100
0000
0001
0000
,
1000
0100
2000
0000
,
3001
0010
0100
0010
,
0001
0010
0002
0000
,
0203
0000
0320
0000
,
1030
0010
2000
0000
,
3001
0100
0010
0100
,
0001
0100
0002
0000
,
0023
0000
0230
0000
,
1300
0000
0001
1000
,
0010
0000
0100
0010
,
0100
0000
0010
0100
,
0001
0000
1000
0001
,
1000
0000
0100
1000
,
0001
0000
0010
0001
,
1000
0000
0010
1000
,
0001
0000
0100
0001
,
1000
0000
1100
0000
,
0001
0000
0011
0000
,
0100
0000
0101
0000
,
0010
0000
1010
0000
,
1000
0000
1001
0000
,
0010
0000
0110
0000
,
0100
0000
0110
0000
,
0001
0000
1001
0000
,
1000
0100
0020
0030
,
0001
0010
0200
0300
,
1000
0010
0200
0300
,
0001
0100
0020
0030
,
0100
0001
2000
3000
,
0010
1000
0002
0003
,
0010
0001
2000
3000
,
0100
1000
0002
0003
,
1000
0000
1100
0000
,
0010
0000
0011
0000
,
0001
0000
0101
0000
,
0010
0000
1010
0000
,
1000
0000
0001
0000
,
0100
0000
0010
0000
,
0100
0000
0001
0000
,
1000
0000
0001
0000
,
0100
0000
0010
0000
,
0100
0000
0001
0000
,
2000
0000
3000
0000
;

//---------------dance-single - ----------------
#NOTES:
     dance-single:
     :
     Medium:
     5:
     0.309,0.327,0.224,0.141,0.000:
0000
0000
0000
0000
,
0000
0000
0000
0000
,
0000
0000
0000
0000
,
0000
0000
0000
0000
,
1000
0100
0100
1000
,
0001
0010
0010
0001
,
1000
0000
0100
0000
1000
0100
1000
0000
,
0001
0000
0010
0000
0001
0010
0001
0000
,
1000
0000
0010
0000
1000
0010
1000
0000
,
0001
0000
0100
0000
0001
0100
0001
0000
,
2000
0010
0010
3010
,
0020
0100
0100
0130
,
0200
0001
0001
0301
,
0002
1000
1003
1001
,
0002
0010
0010
0013
,
0020
0100
0100
0130
,
0200
1000
1000
1300
,
2000
0001
3001
1001
,
1000
0100
0010
1100
,
0001
0010
0100
0011
,
1000
0010
0100
1010
,
0001
0100
0010
0101
,
1000
0001
1100
1001
,
0001
1000
0101
0110
,
0100
0001
1010
0110
,
0010
1000
0011
1001
,
2000
0000
3001
0000
1000
0100
1000
0000
,
0002
0000
1003
0000
0001
0010
0001
0000
,
0200
0000
0310
0000
1000
0010
1000
0000
,
0020
0000
0130
0000
0001
0100
0001
0000
,
1000
0000
0001
0100
0001
0000
1100
0000
,
0001
0000
1000
0010
1000
0000
0011
0000
,
0100
0000
0001
0010
0001
0000
0101
0000
,
0010
0000
1000
0100
1000
0000
1010
0000
,
0001
0000
1000
0100
0000
0100
1000
0000
,
1000
0000
0001
0010
0000
0010
0001
0000
,
0100
0000
0100
0001
0000
0001
0100
0000
,
0010
0000
0010
1000
0000
1000
0010
0000
,
2000
0000
3100
1000
0100
0000
1100
0000
,
0002
0000
0013
0001
0010
0000
0011
0000
,
0200
0000
0301
0100
0001
0000
0101
0000
,
0020
0000
1030
0010
1000
0000
1010
0000
,
1000
0000
0100
0000
0001
0000
0100
1000
,
0100
0000
0010
0000
0001
0000
1000
0001
,
1000
0000
0010
0000
0001
0000
0010
1000
,
0010
0100
0001
1001
,
1000
0001
0100
0110
,
0010
1000
0001
1001
,
1000
0100
0010
0110
,
0100
0010
0001
1001
,
1000
0001
0100
0010
,
0100
0001
1000
0001
,
0200
0000
0300
0000
;

//---------------dance-single - ----------------
#NOTES:
     dance-single:
     :
     Hard:
     7:
     0.410,0.480,0.366,0.283,0.191: // measure 1
0000
0000
0000
0000
,  // measure 2
0000
0000
0000
0000
,  // measure 3
0000
0000
0000
0000
,  // measure 4
0000
0000
0000
0000
,  // measure 5
1000
0100
1000
0000
0001
0010
0001
0000
,  // measure 6
1000
0010
1000
0000
0001
0100
0001
0000
,  // measure 7
1000
0000
0000
0100
0000
0000
0010
0000
0000
0100
0000
0000
1000
0000
1000
0000
,  // measure 8
0001
0000
0000
0010
0000
0000
0100
0000
0000
0010
0000
0000
0001
0000
0001
0000
,  // measure 9
1000
0000
0000
0010
0000
0000
0100
0000
0000
0010
0000
0000
1000
0000
1000
0000
,  // measure 10
0001
0000
0000
0100
0000
0000
0010
0000
0000
0100
0000
0000
0001
0000
0001
0000
,  // measure 11
2000
0000
3100
1000
0200
0000
1300
0000
,  // measure 12
0002
0000
0013
0001
0020
0000
0031
0000
,  // measure 13
0001
0000
0010
0100
1000
0000
1001
0000
,  // measure 14
1000
0000
0000
0001
0000
0000
0110
0000
0000
1000
0000
0000
0001
0000
0000
0000
,  // measure 15
1000
0000
0010
0100
0010
0000
1100
0000
,  // measure 16
0001
0000
0100
0010
0100
0000
0011
0000
,  // measure 17
2000
0000
3001
1000
0002
0000
1003
0000
,  // measure 18
0010
0000
0000
0100
0000
0000
1001
0000
0000
0010
0000
0000
0100
0000
0000
0000
,  // measure 19
0002
0000
0000
0010
0000
0000
0100
0000
0000
1000
0000
0000
0103
0000
0000
0000
,  // measure 20
0200
0000
0000
0001
0000
0000
1000
0000
0000
0010
0000
0000
0301
0000
0000
0000
,  // measure 21
2000
0000
0000
0100
0000
0000
0010
0000
0000
0001
0000
0000
3010
0000
0000
0000
,  // measure 22
0020
0000
0000
0100
0000
0000
0001
0000
0000
0100
0000
0000
1030
0000
0000
0000
,  // measure 23
2000
0000
0000
0001
0000
0000
0010
0000
0000
3100
0000
0000
1100
0000
0000
0000
,  // measure 24
0002
0000
0000
1000
0000
0000
0100
0000
0000
0013
0000
0000
0011
0000
0000
0000
,  // measure 25
0200
0000
0000
0001
0000
0000
0010
0000
0000
0301
0000
0000
0101
0000
0000
0000
,  // measure 26
0020
0000
0000
1000
0000
0000
0100
0000
0000
1030
0000
0000
1010
0000
0000
0000
,  // measure 27
1001
0000
1000
0001
0100
0001
1000
0000
,  // measure 28
0110
0000
0010
1000
0001
1000
0010
0000
,  // measure 29
0110
0000
0100
0001
1000
0001
0100
0000
,  // measure 30
1001
0000
0001
1000
0100
1000
0001
0000
,  // measure 31
1001
0000
1000
0200
0000
0301
0100
1000
,  // measure 32
0002
0000
1003
0020
0000
0031
0010
1000
,  // measure 33
0002
0000
2003
0001
0000
3002
1000
0000
,  // measure 34
2003
0000
0000
3001
0000
0000
0110
0000
0000
0002
0000
0000
1003
0000
0000
0000
,  // measure 35
0001
0010
0100
2000
0000
3001
0101
0000
,  // measure 36
1000
0010
0100
0002
0000
1003
1010
0000
,  // measure 37
0001
1000
0001
0200
0000
0310
0110
0000
,  // measure 38
0020
0000
0000
0130
0000
0000
1001
0000
0000
0200
0000
0000
0310
0000
0000
0000
,  // measure 39
1000
0100
1000
0010
1000
0001
1010
0000
,  // measure 40
0001
0010
0001
0100
0001
1000
0101
0000
,  // measure 41
0100
0001
1000
0010
1000
0001
0110
0000
,  // measure 42
0001
0010
0100
1000
0010
0100
1001
0000
,  // measure 43
2000
0001
0010
3100
0000
0100
1100
0000
,  // measure 44
0002
1000
0100
0013
0000
0010
0011
0000
,  // measure 45
0200
0010
0010
0310
0000
1000
1001
0000
,  // measure 46
0110
0000
0000
1001
0000
0000
0110
0000
0000
1001
0000
0000
0220
0000
0000
0330
,  // measure 47
0110
0000
0000
1000
0000
0000
0001
0000
0000
1000
0000
0000
0110
0000
0000
0000
,  // measure 48
0101
0000
0000
1000
0000
0000
0010
0000
0000
1000
0000
0000
0101
0000
0000
0000
,  // measure 49
1010
0000
0000
0001
0000
0000
0100
0000
0000
0001
0000
0000
1010
0000
0000
0000
,  // measure 50
0011
0000
0000
1000
0000
0000
0100
0000
0000
1000
0000
0000
0011
0000
0000
0000
,  // measure 51
1100
0000
0000
0001
0000
0000
0010
0000
0000
0001
0000
0000
1100
0000
0000
0000
,  // measure 52
1001
0000
0000
0100
0000
0000
0010
0000
0000
0100
0000
0000
1001
0000
0000
0000
,  // measure 53
0220
0000
0330
0000
;

//---------------dance-single - ----------------
#NOTES:
     dance-single:
     :
     Challenge:
     9:
     0.627,0.589,0.050,0.283,0.698: // measure 1
0000
0000
0000
0000
,  // measure 2
0000
0000
0000
0000
,  // measure 3
0000
0000
0000
0000
,  // measure 4
0000
0000
0000
0000
,  // measure 5
1000
0000
0001
2000
0000
0000
0000
0000
0010
0000
0100
0000
0010
0000
0001
0000
,  // measure 6
3010
0000
0100
0020
0000
0000
0000
0000
1000
0000
0100
0000
0001
0000
0100
0000
,  // measure 7
1030
0100
0000
0100
1000
0000
0001
0010
0000
0010
0001
0000
1000
0000
0001
0000
,  // measure 8
1000
0010
0000
0010
1000
0000
0001
0100
0000
0100
0001
0000
1000
0000
0010
0000
,  // measure 9
0100
0001
0000
0001
0010
0000
0100
1000
0000
1000
0010
0000
0100
0000
0001
0000
,  // measure 10
1000
0010
0000
0010
0100
0000
0100
0001
0000
0001
1000
0000
0010
0000
0100
0000
,  // measure 11
0001
0000
1000
0100
1000
0000
0002
0000
0000
0000
1000
0000
0100
0000
1003
0000
,  // measure 12
1000
0000
0001
0010
0001
0000
0200
0000
0000
0000
0320
0000
0000
0000
1030
0000
,  // measure 13
1000
0000
0100
0010
0001
0000
2000
0000
0000
0000
0001
0000
0001
0000
3001
0000
,  // measure 14
0001
1000
0000
1000
0001
0000
0100
0010
0000
0010
0100
0000
0001
0000
1000
0000
,  // measure 15
0100
0000
1000
0010
1000
0000
0200
0000
0000
0000
0010
0000
0001
0000
0310
0000
,  // measure 16
0010
0000
0001
0100
0001
0000
2000
0000
0000
0000
3002
0000
0000
0000
0013
0000
,  // measure 17
0010
0000
0001
1000
0100
0000
0020
0000
0000
0000
0100
0000
0001
0000
0130
0000
,  // measure 18
0100
1000
0000
1000
0001
0000
1000
0010
0000
0010
0100
0000
0001
0000
1000
0000
,  // measure 19
0001
0010
0000
0010
0100
0000
0100
1000
0000
1000
0001
0000
1000
0000
0010
0000
,  // measure 20
1000
0100
0000
0100
0010
0000
0010
0001
0000
0001
1000
0000
0001
0000
0100
0000
,  // measure 21
0001
0100
0000
0100
0010
0000
0010
1000
0000
1000
0010
0000
1000
0000
0100
0000
,  // measure 22
1000
0010
0000
0010
0100
0000
0100
0001
0000
0001
0100
0000
0001
0000
0010
0000
,  // measure 23
0001
1000
0000
1000
0010
0000
0010
0100
0000
0100
0001
0000
2000
0000
3001
0000
,  // measure 24
1000
0001
0000
0001
0100
0000
0100
0010
0000
0010
1000
0000
0002
0000
1003
0000
,  // measure 25
0010
0100
0000
0100
0001
0000
0001
1000
0000
1000
0010
0000
0200
0000
0310
0000
,  // measure 26
0100
0010
0000
0010
1000
0000
1000
0001
0000
0001
0100
0000
0020
0000
0130
0000
,  // measure 27
0001
0010
0001
0010
0002
0000
0103
0001
0100
0001
0100
0000
1001
0000
0000
0000
,  // measure 28
1000
0100
1000
0100
2000
0000
3010
1000
0010
1000
0010
0000
1001
0000
0000
0000
,  // measure 29
1000
0010
1000
0010
2000
0000
3100
1000
0100
1000
0100
0000
0110
0000
0000
0000
,  // measure 30
0010
0001
0010
0001
0020
0000
0031
0100
0001
0100
0001
0000
0110
0000
0000
0000
,  // measure 31
0001
0010
0100
0010
0001
0000
1000
0100
0010
0100
1000
0000
0002
0000
1000
0000
,  // measure 32
1003
0100
0010
0100
1000
0000
0001
0010
0100
0010
0001
0000
0200
0000
0010
0000
,  // measure 33
0310
1000
0001
1000
0010
0000
0100
0001
1000
0001
0100
0000
0001
0000
1000
0000
,  // measure 34
0001
1000
0000
1000
0001
0000
0100
0010
0000
0010
0100
0000
0010
0000
0100
0000
,  // measure 35
0001
1000
0100
1000
0001
0000
1000
0001
0010
0001
1000
0000
0020
0000
0100
0000
,  // measure 36
0130
0001
0010
0001
0100
0000
0010
1000
0100
1000
0010
0000
2000
0000
0001
0000
,  // measure 37
3001
0010
1000
0010
0001
0000
1000
0100
0001
0100
1000
0000
0010
0000
0100
0000
,  // measure 38
0010
0100
0000
0100
0010
0000
1000
0001
0000
0001
1000
0000
0001
0000
1000
0000
,  // measure 39
0001
0010
0100
1000
0100
0000
1000
0100
0010
0001
0010
0000
0001
1000
0001
0000
,  // measure 40
1000
0010
0100
0001
1000
0000
0001
0100
0010
1000
0001
0000
0100
0010
0100
0000
,  // measure 41
0001
1000
0001
1000
0001
0000
0100
0010
0100
0010
0100
0000
0001
1000
0010
0000
,  // measure 42
0100
0001
0000
0001
1000
0000
1000
0010
0000
0010
0100
0000
0001
0000
1000
0000
,  // measure 43
0001
0010
0001
0000
1000
0000
0001
0100
0001
0000
1000
0000
0001
1000
0001
0000
,  // measure 44
1000
0100
1000
0000
0001
0000
1000
0010
1000
0000
0001
0000
1000
0001
1000
0000
,  // measure 45
0010
1000
0010
0000
0010
0000
0100
0001
0100
0000
0100
0000
0010
0100
0010
0000
,  // measure 46
1000
0100
0000
0010
0001
0000
1000
0010
0000
0100
0001
0000
2002
0000
0000
3003
,  // measure 47
0001
0010
0000
0010
1000
0000
1000
0010
0000
0010
0001
0000
0002
0000
1000
0000
,  // measure 48
1003
0100
0000
0100
0001
0000
0001
0100
0000
0100
1000
0000
2000
0000
0010
0000
,  // measure 49
3010
1000
0000
1000
0001
0000
0001
1000
0000
1000
0010
0000
0020
0000
0100
0000
,  // measure 50
0130
0001
0000
0001
1000
0000
1000
0001
0000
0001
0100
0000
0020
0000
0100
0000
,  // measure 51
0230
0001
0000
0301
0100
0000
0020
1000
0000
1030
0010
0000
1000
0000
0001
0000
,  // measure 52
2000
0100
0000
3100
1000
0000
0002
0010
0003
0010
0001
0000
0100
0000
0010
0000
,  // measure 53
2002
0000
3003
0000
;
