#TITLE:DARE;
#SUBTITLE:;
#ARTIST:Gorillaz;
#TITLETRANSLIT:;
#SUBTITLETRANSLIT:;
#ARTISTTRANSLIT:;
#GENRE:;
#CREDIT:N. Muriel;
#MENUCOLOR:;
#METERTYPE:DDR X;
#BANNER:[Week 9] - DARE.png;
#BACKGROUND:[Week 9] - DARE-bg.png;
#LYRICSPATH:;
#CDTITLE:;
#MUSIC:[Week 9] - DARE.mp3;
#OFFSET:1.500;
#SAMPLESTART:50.900;
#SAMPLELENGTH:15.000;
#SELECTABLE:YES;
#LISTSORT:;
#DISPLAYBPM:120.000;
#BPMS:0.000=120.250;
#STOPS:;
#BGCHANGES:3.000=[Week 9] - DARE.avi=1.000=0=0=1,
99999=-nosongbg-=1.000=0=0=0 // don't automatically add -songbackground-
;
#ATTACKS:;

//---------------dance-single - ----------------
#NOTES:
     dance-single:
     :
     Medium:
     6:
     0.305,0.368,0.102,0.110,0.000:
0000
0000
0000
0000
,
0001
0000
0100
0000
0010
0000
0100
0001
,
0000
1000
0000
0000
0001
0000
1000
0000
,
0100
0000
0010
0000
0100
0000
1000
1000
,
0000
0001
0000
0000
1000
0000
0001
0000
,
2002
0000
0000
3000
,
0200
0000
0000
0300
,
2000
0000
0000
3000
,
0100
0000
0100
0000
0010
0010
0013
0000
,
0000
0000
0100
0000
1000
0000
0001
0100
,
0000
0001
0000
0100
0000
0001
0000
0000
,
0000
0000
0100
0000
0001
0000
1000
0100
,
0000
1000
0000
0100
0000
0001
0000
0010
,
0000
0001
0100
1000
,
1000
1000
0010
0001
,
1001
0000
0000
0100
0000
0000
0000
0000
,
1000
0000
0100
0000
0100
0010
0001
0000
,
0000
0000
0010
0000
0001
0000
1000
0010
,
0000
1000
0010
1000
,
0000
0000
0010
0000
1000
0000
0001
0010
,
0000
0000
0000
0010
0000
1000
0000
0001
,
0000
0000
0000
0100
0000
0000
0001
0001
,
0000
0000
0000
1000
0000
0020
0000
0000
,
0000
0130
0000
0000
0000
0000
0000
0000
,
0001
0000
0100
0000
0100
0010
1000
0000
,
1000
0100
0001
0100
1000
0100
0001
0000
,
1000
0000
0001
0000
1000
0100
1000
0000
,
0001
0000
1000
0000
0001
0100
0001
0000
,
0010
0000
0001
0000
1000
0100
1000
0000
,
0010
0000
1000
0000
0001
0100
0001
0000
,
2002
0000
0000
0003
,
0200
0000
0000
0300
,
0002
0000
0000
0003
,
0100
0000
0100
0000
0010
0010
3010
0000
,
1000
0100
0010
0000
1000
0100
0010
0000
,
0001
0001
1000
1000
,
0001
0100
0010
0000
0001
0100
0010
0000
,
1000
0000
1000
0001
0000
0001
0000
0010
,
0000
0100
0000
1000
0000
0001
0000
0000
,
0000
0000
0000
1000
0000
0010
0000
1000
,
0000
0000
0000
0001
0000
0000
0000
0000
,
1000
0100
1000
0010
1000
0100
0001
0000
,
1001
0011
0001
0001
,
1001
1010
1000
1000
,
1100
1001
0001
0001
,
1001
0101
1000
1000
,
0200
0001
0010
0301
,
0200
1000
0010
1300
,
0020
1000
0100
1030
,
0020
0001
0100
0031
,
1000
0001
0100
0000
0001
1000
0100
0000
,
1000
0010
1000
0010
,
0001
1000
0100
0000
1000
0001
0100
0000
,
0001
0010
0001
0010
,
1000
0010
0100
0000
0100
0010
1000
0000
,
0001
0010
0100
0000
0100
0010
0001
0000
,
1000
0001
0100
0010
0100
0010
1000
0000
,
0001
1000
0100
0010
0100
0010
0011
0000
;

//---------------dance-single - ----------------
#NOTES:
     dance-single:
     :
     Hard:
     8:
     0.456,0.466,0.365,0.187,0.042:
0000
0000
0000
0001
,
2010
0000
3100
0000
0012
0000
0103
1000
,
0000
0001
0000
0000
2000
0000
3001
0000
,
0012
0000
0103
0000
2010
0000
3100
0001
,
0000
1000
0000
0000
0002
0000
2003
0000
,
3001
0001
0010
0000
1001
1000
0010
0000
,
1000
0100
0010
0100
0001
0100
0001
0000
,
0001
1000
0001
0000
1000
0100
1000
0000
,
0100
0001
0100
0000
0001
1000
0001
0000
,
1100
0000
0002
0000
0013
0000
0100
1000
,
0000
0001
0000
1000
0000
0001
0000
0000
,
0101
0000
2000
0000
3010
0000
0001
0100
,
0000
0010
0000
0100
0000
0010
0000
2000
,
0000
0000
3001
0100
0000
0110
0000
0000
,
0001
1000
0100
1000
0000
0101
0000
2000
,
0000
0000
0000
3010
0100
0100
0001
0000
,
0010
0000
0001
0000
0100
0000
0001
0000
1000
0010
1000
0000
1010
0000
0000
0000
,
1100
0000
0011
0000
0101
0000
1010
1100
,
0000
0000
0000
0001
0000
0000
0000
0000
1001
0000
0000
0000
0011
0000
0000
0000
,
0000
0000
1100
0000
1001
0000
0001
0100
,
0000
0000
0000
1100
0000
0101
0000
0020
,
0000
0000
0130
0001
0000
0010
0000
1000
,
0000
0000
1000
0001
0000
0002
0000
0000
,
0000
1003
0000
0000
0110
0100
0010
0000
,
1100
0000
1000
0000
0100
0000
0010
0000
0100
0010
0100
0000
0010
0000
0000
0000
,
1000
0100
0001
0010
1000
0100
0001
0000
,
0101
0001
0100
0010
0001
0001
0000
0101
,
0000
0000
0100
0010
0001
0001
0000
0011
,
0000
0000
0100
0010
0001
0000
0100
0010
,
0001
0000
0000
0000
1000
0000
0001
0000
0100
0001
0100
0000
0001
0000
0000
0000
,
2000
0000
3100
0200
0000
0310
0001
0010
,
0100
0010
0001
0010
0100
0010
0001
0010
,
0100
0010
0001
0010
0100
0010
0001
0010
,
1000
1000
1000
1000
1000
1000
1001
0000
,
0012
0000
0103
0000
2010
0000
3100
0001
,
0000
0010
0000
0001
0000
0100
0000
0000
,
0102
0000
0013
0000
2100
0000
3010
0001
,
0000
0001
1000
0100
0000
0010
0000
1000
,
0000
0010
0000
1000
0000
0010
0000
0000
,
1000
0001
0001
0010
0000
0100
0000
0020
,
0000
0000
0000
1000
0100
0000
0130
0000
,
0001
0000
0000
1000
0100
0000
0001
0000
1000
0100
1000
0000
0001
0000
0000
0000
,
1100
0000
1001
0000
0011
0000
0100
0100
,
0000
0000
0000
1001
0000
0000
0000
0000
1010
0000
0000
0000
0011
0000
0000
0000
,
1100
0000
0101
0000
1100
0000
0010
0010
,
0000
0100
1000
0100
0000
0001
0000
0100
,
0000
0001
0000
0100
0000
0001
0000
0001
,
1000
0100
1000
0100
0000
0010
0000
0100
,
0010
0100
0010
0100
1000
0100
1000
0100
,
0001
0100
0001
0100
0010
0100
0010
0000
,
1000
0010
0100
1000
1000
0001
0100
0001
,
0100
0000
0010
0000
0100
0000
0010
0000
0100
0010
0100
0000
1001
0000
0000
0000
,
0001
0010
0100
0001
0001
1000
0100
1000
,
0100
0000
0010
0000
0100
0000
0010
0000
0100
0010
0100
0000
1001
0000
0000
0000
,
2000
0000
3100
0100
0000
0010
0000
0000
,
0002
1000
0100
1003
,
1000
0010
0100
0001
0010
0100
1000
0001
,
1000
0000
0001
0000
0100
0000
0001
0000
0100
0001
0100
0000
0101
0000
0000
0000
;

//---------------dance-single - ----------------
#NOTES:
     dance-single:
     :
     Easy:
     4:
     0.198,0.221,0.034,0.161,0.000: // measure 1
0000
0000
0000
0000
,  // measure 2
0000
0000
0000
0000
,  // measure 3
0000
0000
0000
0000
,  // measure 4
0000
0000
0000
0000
,  // measure 5
0000
0000
0000
0000
,  // measure 6
2000
3000
0002
0003
,  // measure 7
2000
3000
0002
0003
,  // measure 8
2000
3000
0020
0030
,  // measure 9
0002
0003
0200
0300
,  // measure 10
1000
0000
1000
0000
,  // measure 11
0010
1000
0001
0000
,  // measure 12
0001
0000
0001
0000
,  // measure 13
0010
0001
1000
0000
,  // measure 14
0100
0000
0010
0000
,  // measure 15
0001
1000
0001
1000
,  // measure 16
0010
0000
0020
0000
,  // measure 17
0130
0000
0100
0000
,  // measure 18
1010
0000
0100
0000
,  // measure 19
0101
0000
0000
0000
,  // measure 20
0011
0000
0100
0000
,  // measure 21
1100
0000
0000
0000
,  // measure 22
2000
3000
0020
0030
,  // measure 23
0200
0300
0002
0003
,  // measure 24
0020
0030
0200
0300
,  // measure 25
2000
3000
0002
0003
,  // measure 26
1000
0010
0001
0100
,  // measure 27
1000
0000
1000
0000
,  // measure 28
0001
0000
0001
0000
,  // measure 29
0010
0000
0010
0000
,  // measure 30
0100
0000
0100
0000
,  // measure 31
0010
0000
0010
0001
,  // measure 32
0010
0001
0010
0001
,  // measure 33
0010
0001
0010
0001
,  // measure 34
0100
0100
0100
0100
,  // measure 35
0010
0000
1000
0000
,  // measure 36
0010
1000
0100
0010
,  // measure 37
0001
0000
0100
0000
,  // measure 38
0001
0100
0010
1000
,  // measure 39
0100
0000
0010
0000
,  // measure 40
0100
0010
0001
0100
,  // measure 41
1000
0000
0100
0000
,  // measure 42
1000
0100
0001
0010
,  // measure 43
0100
0000
0010
0000
,  // measure 44
0100
0010
0100
1000
,  // measure 45
0010
0000
0100
0000
,  // measure 46
0010
0100
0010
1000
,  // measure 47
0002
0000
0010
0000
,  // measure 48
0100
0000
1003
0000
,  // measure 49
2000
0000
0010
0000
,  // measure 50
0100
0000
0001
3001
,  // measure 51
1000
0100
1000
1000
,  // measure 52
0001
0100
0001
0001
,  // measure 53
1000
0010
1000
1000
,  // measure 54
0001
0010
0001
0001
,  // measure 55
0100
0000
1000
0000
,  // measure 56
0010
0000
0001
0000
,  // measure 57
0100
0000
0100
0000
,  // measure 58
0100
1000
0010
0001
;
