#TITLE:BANGARANG (feat. Sirah);
#SUBTITLE:;
#ARTIST:SKRILLEX;
#TITLETRANSLIT:;
#SUBTITLETRANSLIT:;
#ARTISTTRANSLIT:;
#GENRE:;
#CREDIT:;
#BANNER:BANGARANG (feat Sirah)-bn.png;
#BACKGROUND:BANGARANG (feat Sirah)-bg.png;
#LYRICSPATH:;
#CDTITLE:;
#MUSIC:BANGARANG (feat Sirah).mp3;
#OFFSET:-6.540;
#SAMPLESTART:16.360;
#SAMPLELENGTH:12.000;
#SELECTABLE:YES;
#BPMS:0.000=110.000
;
#STOPS:
;
#BGCHANGES:;
#KEYSOUNDS:;
#ATTACKS:;

//---------------dance-single - xRGTMx----------------
#NOTES:
     dance-single:
     :
     Challenge:
     10:
     0.789,0.661,0.678,0.477,0.625,458.000,71.000,50.000,0.000,0.000,0.000,0.789,0.661,0.678,0.477,0.625,458.000,71.000,50.000,0.000,0.000,0.000:
0000
0000
0000
0000
,
0001
0000
0010
0001
0020
0000
0100
0000
0130
0000
1000
0100
1000
0001
1000
0100
,
0010
0000
0001
0100
0010
0000
1000
0000
1020
0000
0100
0000
0230
0000
0001
0000
,
0301
0000
1000
0000
0001
0000
0100
0000
0010
0000
0100
0010
0100
0001
0100
0001
,
2000
0000
0000
0000
3001
0000
0000
0000
0110
0000
0001
1000
0000
0000
0001
0000
,
0120
0000
0000
0000
0100
0000
0130
0000
0200
0000
0310
0100
0001
0000
1000
0000
,
0001
0100
0100
0010
0100
0001
1000
0000
1001
0000
1000
0100
0000
0000
0011
0000
,
2001
0000
0000
0000
0001
0000
3001
0000
0002
0000
1003
0001
0010
0000
0100
0000
,
1000
0010
0010
0100
0010
1000
0001
0000
0011
0000
0110
0000
2100
0000
3001
0000
,
0210
0000
0000
0000
0010
0000
0010
0000
0320
0000
0130
0010
2000
0000
0001
0000
,
3001
0010
0010
0100
0010
0001
1000
0000
1010
0000
0100
0001
0000
0000
0011
0000
,
1002
0000
0000
0000
1000
0000
1000
0000
2003
0000
3100
0001
0100
0000
1100
0000
,
1000
0100
0100
0001
0100
1000
0010
0000
0110
0000
0101
0000
0021
0000
0130
0000
,
1200
0000
0000
0000
0001
0000
0001
0000
0302
0000
0103
1000
0020
0000
0031
0000
,
0010
1000
0100
0001
1000
0010
0001
0000
1001
0000
1000
0100
0000
0000
0110
0000
,
0021
0000
0000
0000
1000
0000
1000
0000
2030
0000
3010
0001
0200
0000
1300
0000
,
0100
0001
0010
1000
0001
0100
1000
0000
1001
0000
1010
0000
0201
0000
0310
0000
,
0120
0000
0000
0000
1000
0000
0001
0000
2030
0000
3100
0001
1000
0000
0010
0000
,
0001
0010
0010
1000
1000
0010
0001
0000
0101
0000
0010
1000
0000
0000
0011
0000
,
0210
0000
0000
0000
0001
0000
1000
0000
0302
0000
0103
1000
0020
0000
0130
0000
,
0010
0001
0001
0010
0010
1000
0001
0010
0100
0000
1100
0000
1020
0000
0130
0000
,
1002
0000
0000
0000
1000
0000
0100
0000
0103
0000
0010
0100
1000
0100
0010
0100
,
0001
0000
0010
0100
1000
0000
0020
0000
0100
0000
0130
0000
0101
0000
1010
0000
,
2001
0000
0000
0000
0001
0000
0100
0000
3100
0000
0010
0100
0001
0100
0010
0100
,
1000
0000
0010
0100
0001
0000
0010
0000
0110
0000
1000
0001
0000
0000
0011
0000
,
1000
0000
0100
0010
1000
0000
0001
0100
1000
0000
0001
0100
0010
0001
0010
1000
,
0001
0000
0100
0010
0001
0000
1000
0100
0001
0000
1000
0100
0010
1000
0010
0001
,
1000
0000
0100
0001
1000
0000
0001
0100
1000
0000
0001
0100
1000
0100
0001
0000
,
0101
0000
1010
0000
1100
0000
0011
0000
0110
0000
0001
1000
0000
0000
0001
0000
,
1001
0000
1001
0000
0210
0000
1000
0000
0310
0010
0100
0000
0100
0100
0001
0010
,
0100
0000
0110
0000
2001
0000
0010
0000
3001
0001
1000
1000
0020
0000
0000
0030
,
0110
0000
1001
0000
1200
0000
0001
0000
0301
0001
0100
0000
0100
0100
1000
0010
,
0200
0000
0310
0100
0002
0000
1003
0000
1000
0100
0010
0100
1000
0001
0100
0000
,
1010
0000
0101
0000
0021
0000
0100
0000
0130
1000
1000
0000
1000
0001
0001
0100
,
0010
0000
0101
0000
0021
0000
0100
0000
0130
0100
0010
0010
0002
0000
0000
0003
,
0011
0000
1100
0000
1020
0000
0001
0000
0031
0010
0010
0000
0010
1000
1000
0100
,
0010
0000
0001
0010
0011
0000
0110
0000
1000
0100
0001
1000
0010
0100
1000
0001
,
0100
0000
0000
0000
0110
0000
0000
0000
2010
0000
0000
0000
0100
0000
0000
0000
3100
0000
0010
0000
0100
0000
1000
0001
1000
0000
0100
0000
0010
0000
0001
0000
,
0100
0000
1010
0000
0102
0000
0010
0000
0013
0010
0001
0001
0200
0000
0000
0300
,
0010
0000
0000
0000
0110
0000
0000
0000
0100
0000
0002
0000
0100
0000
0000
0000
0103
0000
1000
0000
0100
0000
0010
0100
0010
0000
0001
0000
0010
0000
2000
0000
,
0100
0000
3100
1000
1010
0000
0101
0000
0001
1000
0010
0001
0010
1000
0001
0010
,
0100
0000
0000
0000
1100
0000
0000
0000
0021
0000
0000
0000
1000
0000
0000
0000
1030
0000
0010
0000
0001
0000
0100
0010
0100
0000
0001
0000
0010
0000
1000
0000
,
0001
0000
0100
0000
2100
0000
0010
0000
3010
0010
0100
0100
0020
0000
0000
0030
,
0110
0000
0000
0000
0101
0000
0000
0000
0100
0000
0020
0000
0100
0000
0000
0000
0130
0000
0010
0000
1000
0000
0100
0010
0100
0000
1000
0000
0001
0000
0100
0000
,
0010
0000
0000
0000
0100
0000
0100
0000
0001
0000
0010
0000
0100
0000
1000
0100
1000
0000
0000
0000
0010
0000
0100
0000
0000
0000
0000
0000
0000
0000
0000
0000
;

//---------------dance-single - xRGTMx----------------
#NOTES:
     dance-single:
     :
     Hard:
     9:
     0.660,0.576,0.382,0.697,0.367,371.000,40.000,73.000,0.000,0.000,0.000,0.660,0.576,0.382,0.697,0.367,371.000,40.000,73.000,0.000,0.000,0.000:
0000
0000
0000
0000
,
0201
0000
0302
0000
0100
0000
0203
0000
0010
0000
0310
0100
0010
0000
1000
0000
,
0100
0020
0100
0230
0010
0310
0001
1000
,
0200
0000
0000
0000
2300
0000
0000
0000
3001
0000
1000
0001
1000
0000
0001
0000
,
0200
0000
0000
0000
0320
0000
0000
0000
1030
0000
0001
1000
0000
0000
0001
0000
,
0101
0000
0000
0000
0120
0000
0100
0000
1030
0000
0001
1000
0001
0000
1000
0000
,
0100
0010
0000
0010
0100
0000
1000
0000
0010
0000
0010
0100
0000
0000
0001
0000
,
1001
0000
0000
0000
1020
0000
0100
0000
0130
0000
0001
0100
0001
0000
0100
0000
,
0001
1000
0000
1000
0001
0000
0100
0000
0010
0000
1000
0000
0100
0000
0001
0000
,
0101
0000
0000
0000
1200
0000
2300
0000
3010
0000
0100
0010
0100
0000
0001
0000
,
0010
0100
0000
1000
0100
0000
0010
0000
0001
0000
1000
0001
0000
0100
0000
0000
,
0110
0000
0000
0000
0021
0000
0032
0000
0013
0000
1000
0010
1000
0000
0001
0000
,
0010
0100
0000
0001
0100
0000
1000
0000
0001
0000
0100
0000
1000
0000
0001
0000
,
0010
0000
0000
0000
2010
0000
3100
0000
0012
0000
0103
0001
0010
0000
0100
0000
,
1000
0100
0000
0001
0100
0000
1000
0000
0010
0000
0100
0001
0000
0000
1000
0000
,
1001
0000
0000
0000
0012
0000
0103
0000
2010
0000
3100
0010
0100
0000
1000
0000
,
0001
0100
0000
1000
0001
0000
0010
0000
1000
0000
0100
0000
0010
0000
0001
0000
,
1001
0000
0000
0000
0011
0000
1100
0000
0011
0000
0010
0100
1000
0000
0001
0000
,
0100
0010
0100
0010
0100
0000
0001
0000
0010
0000
0100
1000
0000
0000
0001
0000
,
1001
0000
0000
0000
1010
0000
0101
0000
1010
0000
0010
0100
0001
0000
0010
0000
,
0100
0010
0100
0010
0100
1000
0100
1000
0100
0000
0010
0000
0001
0000
0100
0000
,
0020
0000
0000
0000
1000
0000
0000
0000
2030
0000
0000
0001
0000
0000
0001
0000
,
3002
0000
0000
0000
0010
0000
0000
0000
0023
0000
0000
0100
0000
0000
0100
0000
,
0230
0000
0000
0000
1000
0000
0000
0000
2300
0000
0000
0010
0000
0000
0010
0000
,
3020
0000
0000
0000
0100
0000
0000
0000
0130
0000
0100
0001
0000
0000
1000
0000
,
0002
0000
0000
0000
0203
0000
0000
0000
2300
0000
0000
3200
0000
0000
0001
0000
,
0302
0000
0000
0000
0023
0000
0000
0000
2030
0000
0000
3020
0000
0000
0001
0000
,
0032
0000
0000
0000
0203
0000
0000
0000
0320
0000
0000
0032
0000
0000
0010
0000
,
0013
0000
1100
0000
0010
0000
0101
0000
0010
0000
0100
0010
0000
0000
1000
0000
,
1002
0000
1000
0000
2003
0000
3200
0000
0310
0001
0010
0000
0100
1000
0100
0000
,
2001
0000
0001
0000
3002
0000
0203
0000
0310
1000
0010
1000
0001
0000
0000
0000
,
1002
0000
1000
0000
2003
0000
3020
0000
0130
0001
0100
0000
0010
1000
0010
0000
,
1001
0000
1000
0001
2000
0000
0001
0000
3001
0000
0100
0000
0010
0000
1000
0000
,
1002
0000
1000
0000
2003
0000
3200
0000
0301
0100
0001
0000
0100
1000
0100
0000
,
2001
0000
0001
0000
3002
0000
0100
0000
1003
0100
1000
0100
0001
0000
0000
0000
,
2001
0000
0001
0000
3002
0000
0203
0000
1300
0100
1000
0000
0100
0001
0100
0000
,
0002
0000
0013
0100
2000
0000
3010
0000
0001
0000
1000
0000
0100
0000
0001
0000
,
0012
0000
0100
0000
0203
0000
0010
0000
0310
1000
0010
1000
0001
1000
0001
0000
,
0012
0000
0100
0000
0203
0000
0010
0000
0310
1000
0100
1000
0010
0000
0000
0000
,
2010
0000
0100
0000
3100
0010
0200
0000
0310
0001
0010
0001
0100
0001
0100
0000
,
2010
0000
3100
1000
0200
0000
0010
0000
0310
0000
0001
0000
0100
0000
0001
0000
,
0102
0000
0010
0000
0023
0000
0100
0000
0130
1000
0100
1000
0001
1000
0001
0000
,
0102
0000
0010
0000
0023
0000
0100
0000
0130
1000
0010
1000
0100
0000
0000
0000
,
2100
0000
0010
0000
3020
0000
0100
0000
0130
0001
0100
0001
1000
0001
1000
0000
,
2100
0000
3010
1000
0010
0100
0010
0000
0110
0000
1000
0001
0000
0000
0000
0000
;

//---------------dance-single - xRGTMx----------------
#NOTES:
     dance-single:
     :
     Medium:
     7:
     0.420,0.341,0.220,0.363,0.033,247.000,23.000,38.000,0.000,0.000,0.000,0.420,0.341,0.220,0.363,0.033,247.000,23.000,38.000,0.000,0.000,0.000:
0000
0000
0000
0000
,
1000
0000
0010
0000
0200
0001
0302
0010
,
0013
0000
0100
0000
1000
0001
1000
0000
,
0001
0000
0010
0000
0200
1000
2300
0010
,
3010
0000
0000
0000
0100
0000
0000
0000
0001
0000
0000
1000
0000
0000
0000
0000
,
0002
0000
0103
0010
1000
0010
0100
0000
,
0001
1000
0001
0000
1001
0000
0110
0000
,
2000
0000
3100
0010
0001
0010
0100
0000
,
1000
0001
1000
0000
1001
0000
0110
0000
,
0010
0000
1000
0001
0100
0001
1000
0000
,
0010
0100
0010
0000
0110
0000
1001
0000
,
0100
0000
1000
0001
0010
0001
1000
0000
,
0100
0010
0100
0000
0110
0000
1001
0000
,
0002
0000
0013
0100
0001
0100
1000
0000
,
0010
1000
0100
0000
0110
0000
1001
0000
,
0002
0000
0103
0010
0001
0010
1000
0000
,
0100
1000
0010
0000
0110
0000
1001
0000
,
2000
0000
3010
0100
1000
0100
0001
0000
,
0010
0001
0100
0000
0110
0000
1001
0000
,
2000
0000
3100
0010
1000
0010
0001
0000
,
0100
0001
0010
0000
0110
0000
1001
0000
,
2000
0000
0000
0000
0001
0000
0000
0000
3001
0000
0000
0001
0000
0000
0001
0000
,
0200
0000
0000
0000
0010
0000
0000
0000
0310
0000
0000
0010
0000
0000
0010
0000
,
2000
0000
0000
0000
0001
0000
0000
0000
3001
0000
0000
0001
0000
0000
0001
0000
,
0020
0000
0000
0000
0100
0000
0000
0000
0130
0000
0000
0100
0000
0000
0100
0000
,
2000
3002
0203
0320
,
2030
3002
0023
0230
,
2300
3002
2003
3002
,
1003
0000
0100
0000
0010
0000
0001
0000
1000
0000
0000
0001
0000
0000
0000
0000
,
0100
0010
0100
0010
2000
0000
3002
0000
,
1003
0100
0001
0100
1000
0000
1001
0000
,
0100
0010
0100
0010
0002
0000
2003
0000
,
3001
0100
1000
0100
0001
0000
1001
0000
,
0010
0100
0010
0100
2000
0000
3002
0000
,
1003
0010
0001
0010
1000
0000
1001
0000
,
0010
0100
0010
0100
0002
0000
2003
0000
,
3001
0010
1000
0010
0001
0000
1001
0000
,
1000
0100
0001
0100
1000
0200
0001
0300
,
0001
0100
1000
0100
0010
0000
1001
0000
,
0001
0100
1000
0100
0001
0200
1000
0300
,
1000
0100
0001
0100
0010
0000
1001
0000
,
1000
0010
0001
0010
1000
0020
0001
0030
,
0001
0010
1000
0010
0100
0000
1001
0000
,
0001
0010
1000
0010
0001
0020
1000
0030
,
1000
0000
0010
0000
0001
0000
0010
0000
0100
0000
0000
0010
0000
0000
0000
0000
;

//---------------dance-single - xRGTMx----------------
#NOTES:
     dance-single:
     :
     Easy:
     5:
     0.319,0.277,0.000,0.420,0.014,190.000,0.000,44.000,0.000,0.000,0.000,0.319,0.277,0.000,0.420,0.014,190.000,0.000,44.000,0.000,0.000,0.000:
0000
0000
0000
0000
,
0010
0100
0002
2003
,
3100
0010
0002
2003
,
3010
0100
2000
3002
,
0013
0000
0000
0000
0100
0000
0000
0000
0001
0000
0000
0001
0000
0000
0000
0000
,
2000
0000
3010
0000
0010
0100
0010
0000
,
1000
0010
0100
0001
,
0002
0000
0013
0000
0010
0100
0010
0000
,
0001
0010
0100
1000
,
2000
0000
3100
0000
0100
0010
0100
0000
,
1000
0100
0010
0001
,
0002
0000
0103
0000
0100
0010
0100
0000
,
0001
0100
0010
1000
,
0002
0000
1003
0000
0100
0010
0100
0000
,
1000
0010
0100
0001
,
2000
0000
3001
0000
0100
0010
0100
0000
,
0001
0010
0100
1000
,
0002
0000
1003
0000
0010
0100
0010
0000
,
1000
0100
0010
0001
,
2000
0000
3001
0000
0010
0100
0010
0000
,
0001
0100
0010
1000
,
0200
0010
0320
0000
,
0032
0100
0203
0000
,
0320
1000
2030
0000
,
3200
0010
0320
0000
,
0031
0001
1000
1000
,
0010
0010
0100
0100
,
0001
0001
0010
0010
,
0100
0000
0010
0000
0100
0000
0010
0000
0100
0000
0000
0100
0000
0000
0000
0000
,
1000
0000
1000
0001
2000
0000
3002
0000
,
0103
0010
0100
0200
,
0301
0000
0001
1000
0001
0000
2000
0000
,
3100
0010
0100
0200
,
1300
0000
1000
0001
1000
0000
0002
0000
,
0013
0100
0010
0020
,
0031
0000
0001
1000
0001
0000
2000
0000
,
3010
0100
0010
0020
,
1030
0000
1000
0010
2000
0000
3200
0000
,
0310
0001
1000
2000
,
3001
0000
0001
0010
0002
0000
0023
0000
,
0130
1000
0001
0002
,
1003
0000
1000
0100
2000
0000
3020
0000
,
0130
0001
1000
2000
,
3001
0000
0001
0100
0002
0000
0203
0000
,
0320
0000
0000
0000
0230
0000
0000
0000
0301
0000
0000
0001
0000
0000
0000
0000
;

//---------------dance-single - xRGTMx----------------
#NOTES:
     dance-single:
     :
     Beginner:
     2:
     0.161,0.128,0.000,0.048,0.000,113.000,0.000,5.000,0.000,0.000,0.000,0.161,0.128,0.000,0.048,0.000,113.000,0.000,5.000,0.000,0.000,0.000: // measure 0
0000
0000
0000
0000
,  // measure 1
1000
1000
1000
0000
,  // measure 2
0010
0010
0010
0000
,  // measure 3
0100
0100
0100
0000
,  // measure 4
0001
0001
0001
0000
,  // measure 5
1000
0000
0001
0000
,  // measure 6
0100
0100
0010
0000
,  // measure 7
1000
0000
0001
0000
,  // measure 8
0100
0100
0010
0000
,  // measure 9
1000
0000
0001
0000
,  // measure 10
0010
0010
0100
0000
,  // measure 11
1000
0000
0001
0000
,  // measure 12
0010
0010
0100
0000
,  // measure 13
0010
0000
0100
0000
,  // measure 14
1000
1000
0001
0000
,  // measure 15
0010
0000
0100
0000
,  // measure 16
1000
1000
0001
0000
,  // measure 17
0100
0000
0010
0000
,  // measure 18
1000
1000
0001
0000
,  // measure 19
0100
0000
0010
0000
,  // measure 20
1000
1000
0001
0000
,  // measure 21
2000
3000
0000
0000
,  // measure 22
0002
0003
0000
0000
,  // measure 23
0200
0300
0000
0000
,  // measure 24
0020
0030
0000
0000
,  // measure 25
1000
0000
0001
0000
,  // measure 26
0100
0000
0010
0000
,  // measure 27
1000
0000
0001
0000
,  // measure 28
0100
0010
0100
0000
,  // measure 29
0001
0001
0001
0000
,  // measure 30
0010
0010
0100
0000
,  // measure 31
1000
1000
1000
0000
,  // measure 32
0010
0010
0100
0000
,  // measure 33
0001
0001
0001
0000
,  // measure 34
0100
0100
0010
0000
,  // measure 35
1000
1000
1000
0000
,  // measure 36
0100
0100
0010
0000
,  // measure 37
0001
1000
0001
0000
,  // measure 38
0100
0100
0100
0000
,  // measure 39
0001
1000
0001
0000
,  // measure 40
0100
0100
0100
0000
,  // measure 41
0001
1000
0001
0000
,  // measure 42
0010
0010
0010
0000
,  // measure 43
0001
1000
0001
0000
,  // measure 44
0010
0000
0000
0000
0010
0000
0000
0000
0020
0000
0000
0030
0000
0000
0000
0000
;
