#TITLE:gloom;
#SUBTITLE:;
#ARTIST:w/Akino;
#TITLETRANSLIT:;
#SUBTITLETRANSLIT:;
#ARTISTTRANSLIT:;
#GENRE:;
#CREDIT:;
#MENUCOLOR:;
#METERTYPE:DDR;
#BANNER:gloom.png;
#BACKGROUND:gloom-bg.png;
#LYRICSPATH:;
#CDTITLE:;
#MUSIC:gloom.mp3;
#OFFSET:-1.712;
#SAMPLESTART:66.130;
#SAMPLELENGTH:12.000;
#SELECTABLE:YES;
#LISTSORT:;
#BPMS:0.000=69.000,16.000=138.000,96.000=69.000,104.000=138.000;
#STOPS:120.000=1.304
;
#BGCHANGES:;
#ATTACKS:;

//---------------dance-single - ----------------
#NOTES:
     dance-single:
     :
     Hard:
     9:
     0.559,0.619,0.237,0.042,0.330: // measure 1
0000
0000
0000
0000
,  // measure 2
0000
0000
0000
0000
,  // measure 3
0001
0010
0100
0010
0001
0000
0100
0000
0010
0100
1000
0100
0001
0000
0010
0000
,  // measure 4
0100
0010
0001
0100
0010
0000
0100
0000
0001
1000
0100
0010
0100
0000
0010
0000
,  // measure 5
0110
0011
0101
0110
,  // measure 6
1010
1100
1001
0011
,  // measure 7
0110
0011
0101
0110
,  // measure 8
1010
1001
1100
1010
,  // measure 9
1000
0001
0000
1000
0001
0000
1000
0001
0000
1000
0001
0000
1000
0000
0001
0000
,  // measure 10
0010
0001
0000
0010
0001
0000
0010
0001
0000
0010
0001
0000
0010
0000
0100
0000
,  // measure 11
0010
0100
0000
0010
0100
0000
0010
0100
0000
0010
0100
0000
1000
0000
0001
0000
,  // measure 12
0100
0001
0000
0100
0001
0000
0100
0001
0000
0100
0001
0000
0100
0000
0010
0000
,  // measure 13
1000
0010
0000
1000
0010
0000
0100
0001
0000
0100
0001
0000
1000
0000
0001
0000
,  // measure 14
0010
0001
0000
0010
0001
0000
1000
0100
0000
1000
0100
0000
0010
0000
0100
0000
,  // measure 15
1000
0100
0000
1000
0100
0000
0010
0001
0000
0010
0001
0000
1000
0000
0001
0000
,  // measure 16
0100
0010
0000
0100
0010
0000
1000
0001
0000
1000
0001
0000
0100
0000
0001
0000
,  // measure 17
0010
0100
0010
1000
0010
0001
0100
0010
,  // measure 18
0100
0001
1000
0100
0010
0100
0010
1000
,  // measure 19
0010
0001
0100
0010
0001
0010
0100
0001
,  // measure 20
1000
0100
0010
0001
0010
0100
0010
0001
,  // measure 21
0100
1000
0100
0010
0001
0010
1000
0001
,  // measure 22
0010
0100
0010
0001
0100
0010
1000
0100
,  // measure 23
0010
0001
0010
0100
0010
1000
0010
0001
,  // measure 24
0100
0010
0001
0010
1000
0001
0010
0001
,  // measure 25
0101
0100
0010
0100
0001
1000
0100
0010
,  // measure 26
0001
0000
0010
0000
0100
0000
0010
0000
0001
0000
0100
0000
0010
0000
1000
0100
,  // measure 27
0010
0100
0010
0000
0001
0100
0010
0000
,  // measure 28
0100
0001
1000
0000
0100
0010
0001
0010
,  // measure 29
0100
0010
0001
0000
0100
0010
1000
0000
,  // measure 30
0001
1000
0010
0100
0001
0010
0100
0000
,  // measure 31
1100
0000
0000
0000
1000
0000
0010
0100
0000
0010
0100
0000
0001
0000
0010
0001
,  // measure 32
0000
0010
0001
0000
0010
0000
0100
0010
0000
0100
0010
0000
0100
0000
1000
0100
,  // measure 33
0000
1000
0100
0000
1000
0000
0001
1000
0000
0001
1000
0000
0001
0000
0100
0001
,  // measure 34
0000
0100
0001
0000
0100
0000
0010
0100
0000
0010
0100
0000
0010
0000
1000
0000
,  // measure 35
0100
0000
0010
0000
0001
0000
1000
0010
0000
1000
0100
0000
1000
0000
0001
0010
,  // measure 36
0000
0100
0010
0000
0001
0000
0100
0001
0000
0100
0010
0000
0100
0000
0010
1000
,  // measure 37
0000
0100
1000
0000
0001
0000
0010
0100
0000
0010
0001
0000
0100
0000
0010
1000
,  // measure 38
0000
0010
0100
0000
0001
0000
0100
0001
0000
0010
0001
0000
0010
0000
0001
0000
,  // measure 39
0100
0010
1010
1000
0001
0000
0101
0001
,  // measure 40
1000
0000
0001
0010
0100
0000
0110
0010
,  // measure 41
0001
0000
0010
0100
1000
0000
0010
1000
,  // measure 42
0100
0000
0010
0100
0001
0100
1000
0010
,  // measure 43
0100
0000
0110
0100
0001
0000
0110
0010
,  // measure 44
1000
0000
1001
0001
0100
0000
1001
1000
,  // measure 45
0010
0000
1100
0100
0010
0100
0001
0100
,  // measure 46
1000
0010
0100
0010
0001
0010
1000
0100
,  // measure 47
0010
0000
0110
0100
1000
0010
0100
0010
,  // measure 48
0100
0010
0100
0000
0010
0000
1000
0000
0100
0000
1000
0000
0001
0010
0001
0000
,  // measure 49
1000
0100
1000
0000
0100
0020
0000
0000
0130
0000
1000
0000
0010
0000
0001
0000
,  // measure 50
0010
0000
1000
0000
0001
0000
0100
0000
0020
0000
0000
0000
1030
0001
1000
0001
,  // measure 51
2000
0000
3010
0100
0010
0001
0010
1000
,  // measure 52
0100
0010
0100
0001
0100
1000
0010
0100
,  // measure 53
0001
0000
1000
0100
1000
0000
0010
0000
0001
0000
0010
0000
1000
0000
0100
0000
,  // measure 54
0010
0001
0010
0000
0100
0000
0010
0000
0001
0000
0100
0000
0001
0000
0010
0100
,  // measure 55
0010
0001
2002
0000
0000
0000
0000
0000
,  // measure 56
0000
0000
0000
0000
,  // measure 57
0000
3003
0000
0000
;

//---------------dance-single - ----------------
#NOTES:
     dance-single:
     :
     Medium:
     6:
     0.395,0.524,0.051,0.017,0.144:
0000
0000
0000
0000
,
0000
0000
0000
0000
,
1000
0010
1000
0000
0010
0000
0100
0000
0001
0010
0001
0000
0010
0000
0100
0000
,
1000
0100
1000
0000
0010
0000
0100
0000
0001
0100
0001
0000
0010
0000
0100
0000
,
0110
0010
0001
1000
,
1010
0010
0100
0001
,
0011
0010
0100
1000
,
1010
0010
0100
0001
,
1000
0000
0000
0001
0000
0000
1000
0000
0000
0001
0000
0000
1000
0000
0001
0000
,
0100
0000
0000
0010
0000
0000
0100
0000
0000
0010
0000
0000
0100
0000
0001
0000
,
0010
0000
0000
0001
0000
0000
0010
0000
0000
0001
0000
0000
0010
0000
0100
0000
,
1000
0000
0000
0100
0000
0000
1000
0000
0000
0100
0000
0000
1000
0000
0010
0000
,
0100
0000
0000
0001
0000
0000
0010
0000
0000
0100
0000
0000
0010
0000
0001
0000
,
0100
0000
0000
0010
0000
0000
1000
0000
0000
0001
0000
0000
1000
0000
0100
0000
,
0010
0000
0000
0100
0000
0000
0010
0000
0000
0001
0000
0000
0100
0000
0001
0000
,
0010
0000
0000
0100
0000
0000
1000
0000
0000
0010
0000
0000
0100
0000
0010
0000
,
1000
0100
1000
0000
0001
0010
0001
0000
,
0010
0100
0010
0000
0100
1000
0010
1000
,
0001
0100
0001
0000
0010
0100
0010
0000
,
0100
1000
0100
0000
1000
0010
0100
0010
,
1000
0001
1000
0000
0001
0010
0001
0000
,
0010
0100
0010
0000
0001
0100
0010
0100
,
0010
1000
0010
0000
1000
0001
1000
0000
,
1000
0100
1000
0000
0100
0010
0001
0010
,
0100
0010
0100
1000
0010
1000
0001
0100
,
0010
0100
0001
0010
0100
1000
0010
0100
,
0010
1000
0010
0000
1000
0001
1000
0000
,
0001
0010
0001
0000
0010
0100
0010
0000
,
0100
1000
0100
0000
1000
0010
1000
0000
,
0010
0100
0010
0000
0100
0001
0100
0000
,
1001
0000
0000
0000
1000
0000
0000
0010
0000
0000
0100
0000
0001
0000
0000
0010
,
0000
0000
0100
0000
0010
0000
0000
0001
0000
0000
0100
0000
0010
0000
0000
0100
,
0000
0000
0001
0000
1000
0000
0000
0100
0000
0000
0010
0000
0100
0000
0000
0010
,
0000
0000
0001
0000
0100
0000
0000
0010
0000
0000
0100
0000
0001
0000
0000
0000
,
0010
0000
0100
0000
1000
0000
0000
0010
0000
0000
1000
0000
0001
0000
0000
0100
,
0000
0000
0010
0000
0100
0000
0000
0001
0000
0000
0010
0000
0100
0000
0000
0010
,
0000
0000
0001
0000
0100
0000
0000
0010
0000
0000
0100
0000
0001
0000
0000
1000
,
0000
0000
0100
0000
0010
0000
0000
0100
0000
0000
0010
0000
0001
0000
0000
0000
,
0100
0010
1000
0010
1000
0000
0001
0100
,
0001
0000
1000
0100
1000
0000
0001
0010
,
0001
0000
1000
0100
1000
0000
0010
0100
,
0010
0000
0100
0000
0001
0010
0100
0010
,
0001
0000
0100
0010
0100
0000
0001
1000
,
0001
0000
1000
0010
1000
0000
0001
0100
,
0001
0000
0100
0010
0100
0000
0010
0100
,
0010
0000
1000
0000
0010
0100
0010
1000
,
0001
0000
0100
0000
0001
0010
0100
0010
,
0001
0000
0100
0010
1000
0000
0001
0000
,
1000
0000
0010
0000
0100
0001
0010
0100
,
0010
0000
0100
0000
1000
0000
0010
0100
,
0001
0000
1000
0010
0100
0000
0010
0100
,
0010
0000
0100
0001
0010
0000
0001
1000
,
0001
0000
1000
0000
0010
0000
0100
0010
,
1000
0000
0001
0010
0100
1000
0001
0000
,
1000
2002
0000
0000
,
0000
0000
0000
0000
,
0000
3003
0000
0000
;

//---------------dance-single - ----------------
#NOTES:
     dance-single:
     :
     Easy:
     4:
     0.258,0.309,0.102,0.025,0.000:
0000
0000
0000
0000
,
0000
0000
0000
0000
,
0010
0100
0010
0000
1000
0100
1000
0000
,
0001
0010
0001
0000
1000
0001
1000
0000
,
0001
0010
0100
0010
,
0001
0100
0010
0100
,
0001
0010
0100
1000
,
0100
0010
0100
1000
,
0010
0000
0000
0100
0000
0000
0010
0000
,
1000
0000
0000
0100
0000
0000
1000
0000
,
0001
0000
0000
0010
0000
0000
0001
0000
,
0100
0000
0000
0010
0000
0000
0100
0000
,
0001
0000
0000
0010
0000
0000
0100
0000
,
0010
0000
0000
0001
0000
0000
0100
0000
,
0010
0000
0000
0100
0000
0000
0001
0000
,
1000
0000
0000
0100
0000
0000
1000
0000
,
0010
0100
0001
0010
,
0100
0010
0001
0100
,
0001
0100
0010
1000
,
0100
0010
0100
0010
,
0001
0100
0010
1000
,
0100
0010
0100
0010
,
0001
0100
0010
0100
,
0001
1000
0100
1000
,
0001
1000
0010
0000
0100
0001
0010
0000
,
0100
0010
0100
0000
0010
0001
1000
0000
,
0001
1000
0010
0100
,
0001
0010
0100
0010
,
0001
0100
0010
0100
,
0001
1000
0100
0010
,
0110
0100
0001
1000
,
0100
0010
0100
0010
,
0001
0100
0010
0100
,
0001
1000
0100
0010
,
0000
0100
0010
0001
,
0100
0010
0100
0001
,
0010
0100
1000
0010
,
0100
0001
0010
0100
,
0000
1010
0000
0101
,
0000
0001
0010
0110
,
0000
1001
0000
1010
,
0000
0100
0001
0010
,
0100
1100
0000
0011
,
0000
0101
0000
1010
,
0000
0110
0000
0001
,
0010
0100
0010
0001
,
0100
0010
0100
0001
,
0010
0100
0010
0001
,
0100
0010
0100
0001
,
1000
0100
0010
0100
,
2000
3010
0100
0001
,
0010
0100
0010
0001
,
0100
0010
0100
0001
,
1000
0100
1000
0010
,
1000
2002
0000
0000
,
0000
0000
0000
0000
,
0000
3003
0000
0000
;
