#TITLE:Wa E Wa E O;
#SUBTITLE:(Kita Bisa);
#ARTIST:Yovie & His Friends;
#TITLETRANSLIT:;
#SUBTITLETRANSLIT:;
#ARTISTTRANSLIT:;
#CREDIT:348;
#BANNER:Wa E Wa E O (Kita Bisa) Banner.png;
#BACKGROUND:Wa E Wa E O (Kita Bisa) Background.png;
#LYRICSPATH:Wa E Wa E O (Kita Bisa).lrc;
#CDTITLE:;
#MUSIC:Wa E Wa E O (Kita Bisa).ogg;
#OFFSET:-0.060;
#SAMPLESTART:40.670;
#SAMPLELENGTH:15.000;
#SELECTABLE:YES;
#DISPLAYBPM:116.000;
#BPMS:0.000=116.241,16.000=115.642,32.000=115.410,48.000=116.605,64.000=116.078,80.000=115.657,96.000=115.748,112.000=117.443,120.000=115.733,136.000=116.134,160.000=115.601,176.000=116.155,200.000=116.554;
#STOPS:;
#BGCHANGES:-0.500=Wa E Wa E O (Kita Bisa).avi=1.000=1=1=0,
225.000=Wa E Wa E O (Kita Bisa) Background.png=1.000=1=0=1,
99999=-nosongbg-=1.000=0=0=0 // don't automatically add -songbackground-
;

//---------------dance-single - ----------------
#NOTES:
     dance-single:
     :
     Beginner:
     1:
     0.071,0.094,0.000,0.000,0.000: // measure 1
0000
0000
0000
0000
,  // measure 2
0000
0000
0000
0000
,  // measure 3
0000
0000
0000
0000
,  // measure 4
0000
0000
0000
0000
,  // measure 5
1000
0000
0000
0000
,  // measure 6
1000
0000
0000
0000
,  // measure 7
0001
0000
0000
0000
,  // measure 8
0001
0000
0000
0000
,  // measure 9
1000
0000
0000
0000
,  // measure 10
0100
0000
0000
0000
,  // measure 11
1000
0000
0000
0000
,  // measure 12
0100
0000
0000
0000
,  // measure 13
0010
0000
0000
0000
,  // measure 14
0001
0000
0000
0000
,  // measure 15
0010
0000
0000
0000
,  // measure 16
0001
0000
0000
0000
,  // measure 17
1000
0000
0000
0000
,  // measure 18
0010
0000
0000
0000
,  // measure 19
0100
0000
0000
0000
,  // measure 20
0001
0000
0000
0000
,  // measure 21
1000
0000
0000
0000
,  // measure 22
0001
0000
0000
0000
,  // measure 23
0001
0000
0000
0000
,  // measure 24
1000
0000
0000
0000
,  // measure 25
0010
0000
0000
0000
,  // measure 26
0100
0000
0000
0000
,  // measure 27
0100
0000
0000
0000
,  // measure 28
0010
0000
0000
0000
,  // measure 29
0100
0000
0000
0000
,  // measure 30
0010
0000
0000
0000
,  // measure 31
1000
0000
0000
0000
,  // measure 32
1000
0000
1000
0000
,  // measure 33
0001
0000
0000
0000
,  // measure 34
0001
0000
0001
0000
,  // measure 35
0100
0000
0000
0000
,  // measure 36
0010
0000
0100
0000
,  // measure 37
0010
0000
0000
0000
,  // measure 38
1000
0000
0000
0000
,  // measure 39
0001
0000
0000
0000
,  // measure 40
0100
0000
0000
0000
,  // measure 41
0001
0000
0010
0000
,  // measure 42
0001
0000
0000
0000
,  // measure 43
1000
0000
0100
0000
,  // measure 44
1000
0000
0000
0000
,  // measure 45
0001
0000
0000
0000
,  // measure 46
1000
0000
0001
0000
,  // measure 47
1000
0000
0000
0000
,  // measure 48
0100
0000
0000
0000
,  // measure 49
0010
0000
0000
0000
,  // measure 50
0001
0000
0000
0000
,  // measure 51
0100
0000
0000
0000
,  // measure 52
0100
0000
0000
0000
,  // measure 53
0010
0000
0000
0000
,  // measure 54
0010
0000
0000
0010
;

//---------------dance-single - ----------------
#NOTES:
     dance-single:
     :
     Easy:
     4:
     0.247,0.261,0.183,0.183,0.000: // measure 1
0000
0000
0000
0000
,  // measure 2
0000
0000
0000
0000
,  // measure 3
0000
0000
0000
0000
,  // measure 4
0000
0000
0000
0000
,  // measure 5
1000
0000
0001
1000
,  // measure 6
0001
0000
0100
0001
,  // measure 7
0100
0000
0010
1000
,  // measure 8
0010
0000
0100
0010
,  // measure 9
0100
0000
0001
0000
,  // measure 10
1000
0010
0100
0001
,  // measure 11
1000
0000
0010
0000
,  // measure 12
1000
0100
0010
0001
,  // measure 13
1000
0000
0001
0000
,  // measure 14
1000
0001
0100
0010
,  // measure 15
0100
0000
0010
0000
,  // measure 16
0100
0010
1000
0001
,  // measure 17
1100
0000
0011
0000
,  // measure 18
1000
0001
2000
3000
,  // measure 19
0101
0000
1010
0000
,  // measure 20
0010
0100
0020
0030
,  // measure 21
1000
0010
0100
0001
,  // measure 22
2000
0000
0001
3001
,  // measure 23
0001
0010
0100
1000
,  // measure 24
0002
0000
1000
1003
,  // measure 25
0001
1000
0001
1000
,  // measure 26
0020
0000
0100
0130
,  // measure 27
0100
0010
0100
0010
,  // measure 28
1000
0001
0100
0010
,  // measure 29
1100
0000
0011
0000
,  // measure 30
2002
0000
0000
3003
,  // measure 31
0110
0000
0101
0000
,  // measure 32
0001
0010
0001
0100
,  // measure 33
1010
0000
0110
0000
,  // measure 34
1000
0010
0100
0010
,  // measure 35
1010
0000
0101
0000
,  // measure 36
1000
0100
0010
0001
,  // measure 37
1000
0010
0001
0010
,  // measure 38
1000
0100
0001
0100
,  // measure 39
2000
3001
0002
1003
,  // measure 40
0220
0000
0000
0330
,  // measure 41
0001
0010
0001
1000
,  // measure 42
0100
1000
0101
0000
,  // measure 43
1000
0010
1000
0001
,  // measure 44
0100
0001
1010
0000
,  // measure 45
0001
1000
0001
0110
,  // measure 46
0100
0010
0100
1001
,  // measure 47
1000
0001
0200
0310
,  // measure 48
0100
0010
2000
3001
,  // measure 49
1000
0010
0100
0001
,  // measure 50
2002
0000
0000
3003
,  // measure 51
2000
0000
3002
0000
,  // measure 52
0203
0000
0320
0000
,  // measure 53
1030
0001
0100
0010
,  // measure 54
1000
0001
0110
0220
,  // measure 55
0000
0330
0000
0000
;

//---------------dance-single - ----------------
#NOTES:
     dance-single:
     :
     Medium:
     6:
     0.384,0.379,0.340,0.271,0.000: // measure 1
0000
0000
0000
0000
,  // measure 2
0000
0000
0000
0000
,  // measure 3
0000
0000
0000
0000
,  // measure 4
0000
0000
0000
0000
,  // measure 5
1000
0000
0001
0000
1000
0100
1000
0000
,  // measure 6
0001
0000
1000
0000
0001
0010
0001
0000
,  // measure 7
0100
0000
0001
0000
1000
0010
1000
0000
,  // measure 8
0010
0000
1000
0000
0001
0100
0001
0000
,  // measure 9
1000
1100
0001
0011
,  // measure 10
1001
0000
1000
0010
1000
0000
1001
0000
,  // measure 11
0001
0101
1000
1010
,  // measure 12
0110
0000
0100
0001
0100
0000
0110
0000
,  // measure 13
0001
0000
0010
0001
0010
0000
0001
0000
,  // measure 14
1000
1100
0011
1001
,  // measure 15
1000
0000
0100
1000
0100
0000
1000
0000
,  // measure 16
0001
0101
1010
0110
,  // measure 17
2000
0100
0010
3001
,  // measure 18
0002
0100
0010
1003
,  // measure 19
0200
0010
0010
0310
,  // measure 20
0002
0000
1000
0000
1003
0000
1000
0001
,  // measure 21
1000
0000
0001
0100
0001
0000
1000
0100
,  // measure 22
2000
0000
3010
0000
0200
0000
0301
1000
,  // measure 23
0001
0000
1000
0010
1000
0000
0001
0010
,  // measure 24
0002
0000
0103
0000
0020
0000
0130
0010
,  // measure 25
0100
0000
0001
0010
0001
0000
1000
0100
,  // measure 26
2000
3001
0002
1003
,  // measure 27
0020
1000
1030
0101
,  // measure 28
0200
0001
0301
1010
,  // measure 29
0011
1100
1001
0110
,  // measure 30
2002
0000
0000
0000
3003
0000
1000
0010
,  // measure 31
1000
0000
0010
0100
0010
0000
0100
0001
,  // measure 32
0200
0000
0302
0000
1003
0000
0001
0010
,  // measure 33
0001
0000
0010
0100
0010
0000
0100
1000
,  // measure 34
0100
0000
1100
0000
0101
0000
1000
0001
,  // measure 35
1000
0000
0010
0100
0010
0000
1000
0001
,  // measure 36
2000
3002
1003
0110
,  // measure 37
1100
0000
0001
1000
0001
0000
0011
0000
,  // measure 38
0101
0000
0100
0010
0100
0000
1010
0000
,  // measure 39
0020
0000
0130
0010
0200
0000
0302
0000
,  // measure 40
2003
0000
3001
0000
1000
0001
1000
0000
,  // measure 41
0011
0000
1000
0100
1000
0100
1000
0000
,  // measure 42
1100
0000
0001
0010
0001
0010
0001
0000
,  // measure 43
1010
0000
0100
0001
0100
0001
0100
0000
,  // measure 44
0101
0000
0010
1000
0010
1000
0010
0000
,  // measure 45
0110
0000
1000
0100
1000
0000
0100
0010
,  // measure 46
0100
0000
0010
0001
0010
0000
1001
0000
,  // measure 47
1000
0101
0010
1100
,  // measure 48
0001
1010
0100
0011
,  // measure 49
2000
3020
0230
0301
,  // measure 50
0220
0000
0000
0330
,  // measure 51
0200
0001
0010
0301
,  // measure 52
0020
1000
0100
1030
,  // measure 53
0010
0000
0100
0000
0010
0100
0010
0000
,  // measure 54
1000
0000
0001
0000
1000
0002
2000
0000
,  // measure 55
0000
3003
0000
0000
;

//---------------dance-single - ----------------
#NOTES:
     dance-single:
     :
     Hard:
     8:
     0.511,0.497,0.664,0.288,0.297: // measure 1
0000
0000
0000
0000
,  // measure 2
0000
0000
0000
0000
,  // measure 3
0000
0000
0000
0000
,  // measure 4
0000
0000
0000
0000
,  // measure 5
1000
0000
0000
0101
0000
0000
1000
0000
0001
0000
0010
0000
0100
0000
1000
0000
,  // measure 6
0001
0000
0000
1010
0000
0000
0001
0000
1000
0000
0001
0000
1001
0000
0000
0000
,  // measure 7
0010
0000
0000
1100
0000
0000
0010
0000
0100
0000
0001
0000
1000
0000
0010
0000
,  // measure 8
0100
0000
0000
0011
0000
0000
0100
0000
0010
0000
0100
0000
0110
0000
0000
0000
,  // measure 9
1000
0000
0000
1100
0000
0000
0100
0000
0010
0000
0000
0011
0000
0000
0001
0000
,  // measure 10
1000
0000
0000
1001
0000
0000
0001
0000
0100
0000
0010
0000
0110
0000
0000
0000
,  // measure 11
0100
0000
0000
0101
0000
0000
0001
0000
1000
0000
0000
1010
0000
0000
0010
0000
,  // measure 12
0100
0000
0000
0110
0000
0000
0010
0000
1000
0000
0001
0000
1001
0000
0000
0000
,  // measure 13
2000
0000
0000
0001
0000
0000
3010
0000
0020
0000
0000
1000
0000
0000
0130
0000
,  // measure 14
0200
0000
0000
0010
0000
0000
0301
0000
1000
0000
0001
0000
1010
0000
0000
0000
,  // measure 15
0002
0000
0000
0100
0000
0000
1003
0000
2000
0000
0000
0001
0000
0000
3010
0000
,  // measure 16
0020
0000
0000
0100
0000
0000
0130
0000
0100
0000
0010
0000
0101
0000
0000
0000
,  // measure 17
0001
0000
0000
1100
0000
0000
0001
0000
1000
0000
0000
0011
0000
0000
1000
0000
,  // measure 18
0010
0000
0000
1001
0000
0000
0100
0000
0002
0000
0000
0000
1003
0000
0001
0000
,  // measure 19
0010
0000
0000
0101
0000
0000
0010
0000
0100
0000
0000
1010
0000
0000
0100
0000
,  // measure 20
0001
0000
0000
0110
0000
0000
1000
0000
0001
0000
1000
0000
0010
0000
0100
0000
,  // measure 21
0002
0000
0000
0010
0000
0000
0013
0000
0200
0000
0000
1000
0000
0000
1300
0000
,  // measure 22
2000
0000
0000
0001
0000
0000
0001
0000
3001
0000
0000
0000
0110
0000
0000
0000
,  // measure 23
1000
0000
0000
0101
0000
0000
1100
0000
0001
0000
0000
1010
0000
0000
0011
0000
,  // measure 24
1000
0000
0000
1001
0000
0000
0001
0000
0110
0000
0000
0000
1001
0000
0000
0000
,  // measure 25
0002
0000
0000
1000
0000
0000
0103
0000
2000
0000
0000
0001
0000
0000
3010
0000
,  // measure 26
0010
0000
0000
0110
0000
0000
0100
0000
0001
0000
0000
0000
1000
0000
0010
0000
,  // measure 27
1000
0000
0000
0100
0000
0000
0010
0000
0001
0000
0000
0100
0000
0000
0010
0000
,  // measure 28
2000
0000
0000
0100
0000
0000
3001
0000
0002
0000
0000
0010
0000
0000
1003
0000
,  // measure 29
0001
0000
0000
1001
0000
0000
1000
0000
0100
0000
0000
0110
0000
0000
0010
0000
,  // measure 30
1002
1003
2001
3001
,  // measure 31
1100
0000
0000
1000
0000
0000
0100
0000
0011
0000
0000
0010
0000
0000
0001
0000
,  // measure 32
1001
0000
0000
0001
0000
0000
1000
0000
0010
0000
0100
0000
0001
0000
1000
0000
,  // measure 33
0101
0000
0000
0001
0000
0000
0100
0000
1010
0000
0000
0010
0000
0000
1000
0000
,  // measure 34
0110
0000
0000
0010
0000
0000
0100
0000
0001
0000
1000
0000
0010
0000
0000
0000
,  // measure 35
1001
0000
0000
1000
0000
0000
0001
0000
0110
0000
0000
0100
0000
0000
0010
0000
,  // measure 36
1000
0000
0000
0100
0000
0000
0010
0000
0001
0000
0100
0000
1000
0000
0100
0000
,  // measure 37
0002
0000
0000
0100
0000
0000
0103
0000
0200
0000
0000
0010
0000
0000
0310
0000
,  // measure 38
0020
0000
0000
1000
0000
0000
1030
0000
2000
0000
0000
0001
0000
0000
3001
0000
,  // measure 39
1000
0000
0000
0010
0000
0000
1001
0000
0001
0000
0000
0100
0000
0000
1001
0000
,  // measure 40
1001
0000
1000
0100
0001
0100
1000
0001
,  // measure 41
1000
0000
0000
1100
0000
0000
1010
0000
0001
0000
0000
0011
0000
0000
0101
0000
,  // measure 42
1000
0000
0000
0110
0000
0000
1001
0000
0001
0000
0100
0000
0010
0000
1000
0000
,  // measure 43
0002
0000
0000
0103
0000
0000
0101
0000
2000
0000
0000
3010
0000
0000
1010
0000
,  // measure 44
0002
0000
0000
1000
0000
0000
1000
0000
1003
0000
0001
0000
1001
0000
0000
0000
,  // measure 45
1000
0000
0000
0011
0000
0000
1100
0000
0001
0000
0000
1010
0000
0000
0101
0000
,  // measure 46
2000
0000
0000
0001
0000
0000
3001
0000
1000
0000
0100
0000
0010
0000
0001
0000
,  // measure 47
1000
0000
0000
0001
0000
0000
1001
0000
0001
0000
0000
1000
0000
0000
1001
0000
,  // measure 48
0100
0000
0000
0010
0000
0000
0110
0000
0010
0000
0000
0100
0000
0000
0110
0000
,  // measure 49
2000
0000
0000
3100
0000
0000
1100
0000
0002
0000
0000
0013
0000
0000
0011
0000
,  // measure 50
2000
0000
0000
3001
0000
0000
1001
0000
1000
0000
0001
0000
0100
0000
0010
0000
,  // measure 51
2100
0000
3001
0000
0200
0001
0301
0000
,  // measure 52
0012
0000
1003
0000
0020
1000
1030
0000
,  // measure 53
1010
0000
0011
0000
0100
0010
0110
0000
,  // measure 54
0101
0000
1100
0000
1001
1001
2002
0000
,  // measure 55
0000
3003
0000
0000
;

//---------------dance-single - ----------------
#NOTES:
     dance-single:
     :
     Challenge:
     9:
     0.630,0.545,0.533,0.244,0.616: // measure 1
0000
0000
0000
0000
,  // measure 2
0000
0000
0000
0000
,  // measure 3
0000
0000
0000
0000
,  // measure 4
0000
0000
0000
0000
,  // measure 5
1000
0100
0000
1000
0100
0010
0001
0000
1000
0001
1000
0000
0001
0000
0100
0000
,  // measure 6
0001
0010
0000
0001
0010
0100
1000
0000
0001
1000
0001
0000
1001
0000
0000
0000
,  // measure 7
1000
0010
0000
1000
0010
0100
0001
0000
0100
0010
0100
0000
0010
0000
1000
0000
,  // measure 8
0001
0100
0000
0001
0100
0010
1000
0000
0010
0100
0010
0000
0110
0000
0000
0000
,  // measure 9
1000
0000
0000
0010
0000
0000
1100
0000
0001
0000
0000
0100
0000
0000
0011
0000
,  // measure 10
1000
0100
0000
0100
0000
0100
1000
0000
0001
0010
0000
0010
0000
0010
0001
0000
,  // measure 11
0100
0000
0000
0001
0000
0000
1100
0000
0010
0000
0000
1000
0000
0000
0011
0000
,  // measure 12
0100
0001
0000
1000
0000
0001
0100
0000
0010
1000
0000
0001
0000
1000
0010
0000
,  // measure 13
2000
0000
0000
3100
0000
0000
0011
0000
0002
0000
0000
0013
0000
0000
1100
0000
,  // measure 14
0002
0100
0000
0100
0000
0103
0001
0000
2000
0010
0000
0010
0000
3010
1000
0000
,  // measure 15
0020
0000
0000
1030
0000
0000
0101
0000
0200
0000
0000
0301
0000
0000
1010
0000
,  // measure 16
0020
1000
0000
0100
0000
1030
0010
0000
0200
0001
0000
0010
0000
0301
0100
0000
,  // measure 17
0001
0000
0000
1000
0100
0000
1000
0000
0001
0000
0000
1100
0000
0000
0101
0000
,  // measure 18
1000
0000
0000
0001
0010
0000
0001
0000
1000
0000
0000
0011
0000
0000
1010
0000
,  // measure 19
0001
0000
0000
1000
0020
0000
0100
0000
1030
0000
0000
0001
0200
0000
0010
0000
,  // measure 20
0301
0000
0000
0100
0010
0000
1000
0000
0001
0000
1000
0010
1000
0000
0001
0000
,  // measure 21
1000
0100
0000
0010
0100
0000
1000
0000
0001
0000
0000
0011
0000
0000
0101
0000
,  // measure 22
1000
0010
0000
0100
0010
0000
1000
0000
0001
0000
0010
0000
0100
0000
1000
0000
,  // measure 23
0001
0010
0000
0100
0010
0000
0001
0000
1000
0000
0000
1100
0000
0000
1010
0000
,  // measure 24
0001
0100
0000
0010
0100
0000
0001
0000
1000
0000
0001
0010
0001
0000
1000
0000
,  // measure 25
0001
0010
0000
0100
1000
0000
0001
0000
0100
0000
0000
0011
0000
0000
1100
0000
,  // measure 26
1000
0010
0000
0100
0001
0000
1000
0000
0010
0000
0000
1010
0000
0000
0101
0000
,  // measure 27
1000
0000
0000
0002
0010
0000
0013
0000
0001
0000
0000
2000
0100
0000
3100
0000
,  // measure 28
1000
0000
0000
0020
1000
0000
1030
0000
0001
0000
0000
0200
0001
0000
0301
0000
,  // measure 29
1000
0001
0000
1000
0001
0000
0100
0000
0010
0100
0000
0010
0100
0000
0001
0000
,  // measure 30
1000
0100
0001
0100
1000
0010
0001
0010
,  // measure 31
1000
0100
0000
0100
1000
0000
0001
0000
0200
0000
0000
0320
0000
0000
1030
0000
,  // measure 32
0001
0010
0000
0010
0001
0000
1000
0010
1000
0000
0001
0000
0100
0000
0010
0000
,  // measure 33
1000
0010
0000
0010
1000
0000
0010
0000
2000
0000
0000
3002
0000
0000
0103
0000
,  // measure 34
0001
0100
0000
0100
0001
0000
0100
0001
0100
0000
0001
0000
1000
0000
0010
0000
,  // measure 35
1001
0000
0000
0101
0000
0000
1010
0000
1001
0000
0000
1100
0000
0000
0011
0000
,  // measure 36
1001
0000
0000
0110
0000
0000
1001
0000
1000
0000
0100
0000
0010
0000
0001
0000
,  // measure 37
2000
0000
0000
3100
0000
0000
1100
0000
1000
0100
0000
0001
0100
0000
1000
0000
,  // measure 38
0002
0000
0000
0013
0000
0000
0011
0000
0001
0010
0000
1000
0010
0000
0001
1000
,  // measure 39
0002
0000
0000
0013
0100
0000
1000
0000
2000
0000
0000
3010
0100
0000
0001
0000
,  // measure 40
1000
0000
0100
0010
0100
0000
1000
0000
0001
0000
0010
0100
0010
0000
0001
0000
,  // measure 41
1000
0100
0000
1000
0010
1000
0010
0000
0200
0000
0000
0301
0000
0000
0101
0000
,  // measure 42
0001
0010
0000
0001
0100
0001
0100
0000
0001
0000
1000
0000
1001
0000
0001
0000
,  // measure 43
1000
0001
0000
1000
0001
0010
0001
0000
2000
0000
0000
3010
0000
0000
1010
0000
,  // measure 44
0010
0100
0000
0010
0100
0001
0100
0000
0010
0000
0100
0000
0110
0000
0010
0000
,  // measure 45
0100
0001
0000
0100
0001
1000
0010
0000
1000
0000
0000
0110
0000
0000
0001
0000
,  // measure 46
1000
0001
0000
1000
0100
0010
0001
0000
0100
0000
0000
1001
0000
0000
0010
0000
,  // measure 47
1000
0100
0000
1000
0001
0000
1000
0000
0001
0010
0000
0001
1000
0000
0001
0000
,  // measure 48
1000
0010
0000
0100
0010
0000
0100
0000
0001
0100
0000
0010
0100
0000
0010
0000
,  // measure 49
0100
0000
0000
0101
0000
0000
1001
0000
0001
0000
0000
1010
0000
0000
0110
0000
,  // measure 50
0010
0000
0000
1100
0000
0000
0011
0000
1000
0000
0001
1000
0001
0000
1000
0000
,  // measure 51
1001
0000
0110
0000
2010
0010
3010
0000
,  // measure 52
0110
0000
1001
0000
0102
0100
0103
0000
,  // measure 53
1100
0000
0011
0000
1010
0101
0110
0000
,  // measure 54
0101
0000
1010
0000
1100
0011
2002
0000
,  // measure 55
0000
3003
0000
0000
;
