#TITLE:The Ascent;
#SUBTITLE:;
#ARTIST:The Classic Crime;
#TITLETRANSLIT:;
#SUBTITLETRANSLIT:;
#ARTISTTRANSLIT:;
#GENRE:;
#CREDIT:Telperion;
#BANNER:;
#BACKGROUND:;
#LYRICSPATH:;
#CDTITLE:;
#MUSIC:ascent.ogg;
#OFFSET:-0.185760;
#SAMPLESTART:26.860001;
#SAMPLELENGTH:19.516001;
#SELECTABLE:YES;
#DISPLAYBPM:120.000000:155.000000;
#BPMS:0.000000=144.000000,63.000000=140.000000,64.000000=147.250000,79.000000=153.000000,80.000000=147.250000,95.000000=153.000000,96.000000=147.250000,111.000000=153.000000,112.000000=147.250000,127.000000=153.000000,128.000000=147.250000,143.000000=153.000000,144.000000=147.250000,157.000000=155.000000,160.000000=148.500000,175.000000=155.000000,176.000000=148.500000,191.000000=155.000000,192.000000=148.500000,207.000000=155.000000,208.000000=148.500000,214.000000=158.000000,215.000000=153.000000,224.000000=148.500000,239.000000=155.000000,240.000000=148.500000,256.000000=120.000000;
#STOPS:;
#DELAYS:;
#TIMESIGNATURES:0.000000=4=4
;
#BGCHANGES:;
#KEYSOUNDS:;
#ATTACKS:;

//---------------dance-single - Telperion----------------
#NOTES:
     dance-single:
     Telperion:
     Hard:
     9:
     0.497,0.663,0.484,0.229,0.097,314.000,55.000,26.000,0.000,0.000,0.000,0.000,0.497,0.663,0.484,0.229,0.097,314.000,55.000,26.000,0.000,0.000,0.000,0.000:
1000
0000
0000
0000
,
0000
0000
0000
0000
,
1000
0000
0000
0000
,
0000
0000
0000
0000
,
0001
0000
0000
0000
,
0000
0000
0000
0000
,
0001
0000
0000
0000
,
0000
0000
0000
0000
,
0200
0000
0000
0000
,
0320
0000
0000
0000
,
2030
0000
0000
0000
,
3002
0000
0000
0000
,
0023
0000
0000
0000
,
0000
0000
0000
0000
,
0000
0000
0000
0000
,
0030
0000
0000
0000
0000
0000
0000
0000
0000
0000
0001
1000
0001
0000
0100
0010
,
0100
0000
0100
0000
0110
0000
0001
1000
,
0001
0010
0010
0000
0110
0000
0100
0000
,
1000
0000
0001
0000
0101
0000
0100
0001
,
1000
0100
0100
0000
0120
0000
0030
0000
,
0100
0000
0100
0000
0110
0000
0001
1000
,
0010
0100
0100
0000
0101
0000
0001
0000
,
1000
0000
0001
0000
0011
0000
1000
0001
,
1000
0100
0100
0000
0210
0000
0300
0000
,
1001
0000
0001
0000
0110
0000
0010
1000
,
0010
0100
0100
0000
0102
0000
0003
0000
,
1001
0000
1000
0000
1100
0000
0001
0010
,
0100
0010
0010
0000
0210
0000
0300
0000
,
0011
0000
0001
0000
1001
0000
1000
0001
,
0010
0001
0001
0000
1001
0000
1000
0010
,
0100
0000
0100
0000
0110
0000
0010
0100
,
0001
1000
0000
0001
0011
0010
0100
0000
,
2000
0000
0000
0000
0000
0000
0000
0000
0000
0000
0000
0000
0000
0000
0000
0000
0010
0000
0000
0000
0000
0000
0000
0000
0000
0000
0000
0000
0000
0000
0000
3000
2001
0000
0000
0000
0000
0000
0000
0000
0000
0000
0000
0000
0000
0000
0000
0000
0100
0000
0000
0000
0000
0000
0000
3000
1000
0000
0000
0000
0000
0000
0000
0000
,
0000
0001
1000
0100
0011
0000
1001
1000
,
0002
0000
0000
0000
0000
0000
0000
0000
0100
0000
0000
0000
0000
0000
0000
0003
0002
0000
0000
0000
0000
0000
0000
0000
0000
0000
0000
0000
0000
0000
0000
0003
1002
0000
0000
0000
0000
0000
0000
0000
0000
0000
0000
0000
0000
0000
0000
0000
0010
0000
0000
0000
0000
0000
0000
0003
0001
0000
0000
0000
0000
0000
0000
0000
,
0000
0000
1000
0000
0001
0000
0010
0000
0100
0000
1000
0100
0010
0001
1000
0001
,
0200
0000
0000
0000
0000
0000
0000
0000
0000
0000
0000
0000
0000
0000
0000
0000
0010
0000
0000
0000
0000
0000
0000
0000
0000
0000
0000
0000
0000
0000
0000
0300
0210
0000
0000
0000
0000
0000
0000
0000
0000
0000
0000
0000
0000
0000
0000
0000
0001
0000
0000
0000
0000
0000
0000
0300
0100
0000
0000
0000
0000
0000
0000
0000
,
0000
0010
1000
0010
0101
0000
1100
0000
,
0021
0000
0000
0000
0000
0000
0000
0000
0001
0000
0000
0000
0000
0000
0000
0030
0020
0000
0000
0000
0000
0000
0000
0000
0000
0000
0000
0000
0000
0000
0000
0030
0110
0000
0000
0000
0000
0000
0000
0000
0000
0000
0000
0000
0000
0000
0000
0000
0001
0000
0000
0000
0000
0000
0000
0000
0010
0000
0000
0000
0000
0000
0000
0000
,
0100
1000
0100
1000
0001
1000
0001
0000
,
0002
0000
0000
0000
0000
0000
0000
0000
0000
0000
0000
0000
0000
0000
0000
0000
0100
0000
0000
0000
0000
0000
0000
0000
0000
0000
0000
0000
0000
0000
0000
0003
1002
0000
0000
0000
0000
0000
0000
0000
0000
0000
0000
0000
0000
0000
0000
0000
0010
0000
0000
0000
0000
0000
0000
0003
0001
0000
0000
0000
0000
0000
0000
0000
,
0000
1000
0001
1000
0010
0100
0001
0000
,
2000
0000
0000
0000
0000
0000
0000
0000
0010
0000
0000
0000
0000
0000
0000
3000
2000
0000
0000
0000
0000
0000
0000
0000
0000
0000
0000
0000
0000
0000
0000
3000
2001
0000
0000
0000
0000
0000
0000
0000
0000
0000
0000
0000
0000
0000
0000
0000
0100
0000
0000
0000
0000
0000
0000
3000
1000
0000
0000
0000
0000
0000
0000
0000
,
0000
0000
0011
0000
0000
0000
0000
0000
1001
0000
1000
0001
0100
0000
0001
0010
,
0200
0000
0000
0000
0000
0000
0000
0000
0000
0000
0000
0000
0000
0000
0000
0000
0010
0000
0000
0000
0000
0000
0000
0000
0000
0000
0000
0000
0000
0000
0000
0300
0210
0000
0000
0000
0000
0000
0000
0000
0000
0000
0000
0000
0000
0000
0000
0000
1000
0000
0000
0000
0000
0000
0000
0300
0100
0000
0000
0000
0000
0000
0000
0000
,
0000
0000
0010
0000
0100
0000
1000
0000
1000
0000
0001
0100
0000
0000
0001
1000
,
0001
0010
0000
0001
1000
0000
0010
0100
,
0010
0001
0000
0010
0100
0010
1000
0001
,
0010
0100
0010
0100
1100
1000
0001
0101
,
0000
0100
0010
1000
1010
0001
0011
0000
,
0010
0100
0010
0100
1100
1000
0001
0101
,
0000
0000
1000
0000
0100
0000
1000
0000
0001
0000
0010
0001
0010
0100
1000
0001
,
0100
0000
0010
0000
1001
0000
0010
0100
,
0000
0000
0110
0000
0100
0000
0000
0000
1001
0000
1000
0010
0000
0000
1000
0001
,
0010
0010
0000
0000
1001
0000
0001
1000
,
0010
0000
0000
0000
0010
0000
0100
0010
1000
0001
0010
0001
1000
0001
0010
0100
,
1000
0100
0001
0100
1100
1000
0001
0100
,
0010
0110
0100
0001
0011
1000
1010
0000
,
0001
0100
1000
0100
0110
0001
1000
0001
,
0010
0000
0110
0000
0100
0000
1000
0000
1100
0000
0001
1000
0010
1000
0001
0010
,
0100
0000
0010
0000
0110
1000
0000
1100
,
0010
0000
0100
0000
0110
0001
0110
0000
,
1001
0001
1000
0001
0100
0010
0100
0010
,
0001
0010
0001
0010
1000
0010
0001
0010
,
0200
0000
0000
0000
,
0000
0000
0000
0000
,
0000
0000
0000
0000
,
0000
0000
0000
0000
,
0000
0000
0300
0000
;

//---------------dance-single - Telperion----------------
#NOTES:
     dance-single:
     Telperion:
     Medium:
     6:
     0.402,0.482,0.211,0.194,0.000,274.000,24.000,22.000,0.000,0.000,0.000,0.000,0.402,0.482,0.211,0.194,0.000,274.000,24.000,22.000,0.000,0.000,0.000,0.000:
1000
0000
0000
0000
,
0000
0000
0000
0000
,
1000
0000
0000
0000
,
0000
0000
0000
0000
,
0001
0000
0000
0000
,
0000
0000
0000
0000
,
0001
0000
0000
0000
,
0000
0000
0000
0000
,
0200
0000
0000
0000
,
0320
0000
0000
0000
,
2030
0000
0000
0000
,
3200
0000
0000
0000
,
0320
0000
0000
0000
,
0000
0000
0000
0000
,
0030
0000
0000
0000
,
0000
0000
0000
0000
0000
0100
0000
0100
,
1000
0000
0001
0000
0101
0000
0000
0010
,
0000
0010
0200
0000
0301
0000
0000
0000
,
0010
0000
0110
0000
1000
0000
0000
0100
,
0000
0100
1000
0000
1001
0000
0100
0000
,
0010
0000
0001
0000
0011
0000
0000
0100
,
0000
0100
0002
0000
0013
0000
0000
0000
,
1000
0000
1010
0000
0010
0000
0000
0100
,
0000
0010
1000
0000
1001
0000
0010
0000
,
0110
0000
0100
0000
0101
0000
0000
1000
,
0000
0001
0100
0000
0110
0000
0000
0000
,
1000
0000
0001
0000
1001
0000
0000
1000
,
0000
0100
0010
0000
0110
0000
0100
0000
,
1100
0000
0001
0000
0110
0000
0000
1000
,
0000
1000
0100
0000
0110
0000
0100
0000
,
2000
0000
0010
3000
1001
0000
0100
1000
,
0010
0100
0000
0010
1000
0001
1000
0000
,
0200
0000
0010
0000
1300
0000
0001
0100
,
0020
0100
0000
1030
0001
0010
0001
0000
,
1000
0100
0010
0000
0020
0000
0031
0100
,
0020
1000
0000
0130
0001
0010
0100
1000
,
0010
0000
0010
0000
0010
0000
0100
0010
,
0000
0110
0000
0000
0011
0000
1100
0000
,
0001
0010
0001
0000
0010
0100
0010
0000
,
1000
0010
1000
0010
0100
1000
0010
0000
,
0200
0000
0010
0000
0301
0000
1000
0100
,
0020
0100
0000
0031
1000
0001
0010
0000
,
0100
1000
0010
0000
0020
0000
0130
0001
,
0200
0010
0000
0301
1000
0001
0100
0010
,
1000
0000
1000
0000
1001
0000
0001
0010
,
0000
0001
1000
0000
0010
1000
0000
1000
,
0100
0010
0100
0000
0010
0100
0010
0000
,
1000
0010
0100
1000
0010
0100
0010
0000
,
1000
0010
1000
1000
0001
1000
0001
0001
,
0000
0010
0001
0001
1000
0100
1000
0000
,
0010
1000
0001
0001
0010
0001
1000
1000
,
0000
0100
1000
0100
0010
0001
0100
1000
,
0100
0010
2000
0000
3100
0010
0002
0000
,
0013
0100
2000
0000
3010
0100
0001
0100
,
0010
0010
0000
1000
0010
1000
0000
0001
,
0010
0100
0010
0001
0100
0010
0100
0001
,
0010
0100
0010
0000
0011
0000
1000
1000
,
0000
0001
0100
0001
1000
0001
0011
0000
,
0100
0010
0100
0000
1010
0000
0001
0001
,
0000
0010
0001
1000
0010
0100
1000
0100
,
0002
0000
0010
0000
1000
0000
0103
0001
,
2000
0000
3010
0000
1001
0000
0110
0010
,
0001
1000
0001
0010
0100
0010
0001
0100
,
0010
1000
0010
0100
1000
0100
0001
0000
,
0020
0000
0000
0000
,
0000
0000
0000
0000
,
0000
0000
0000
0000
,
0000
0000
0000
0000
,
0000
0000
0030
0000
;

//---------------dance-single - Telperion----------------
#NOTES:
     dance-single:
     Telperion:
     Easy:
     3:
     0.249,0.271,0.185,0.132,0.000,162.000,21.000,15.000,0.000,0.000,0.000,0.000,0.249,0.271,0.185,0.132,0.000,162.000,21.000,15.000,0.000,0.000,0.000,0.000:
1000
0000
0000
0000
,
0000
0000
0000
0000
,
1000
0000
0000
0000
,
0000
0000
0000
0000
,
0001
0000
0000
0000
,
0000
0000
0000
0000
,
0001
0000
0000
0000
,
0000
0000
0000
0000
,
0020
0000
0000
0000
,
0230
0000
0000
0000
,
2300
0000
0000
0000
,
3002
0000
0000
0000
,
0203
0000
0000
0000
,
0000
0000
0000
0000
,
0300
0000
0000
0000
,
0000
0000
0000
0000
,
0110
0000
0010
0000
,
1001
0001
0010
0000
,
0110
0000
0010
0000
,
1001
1000
0010
0000
,
0101
0000
0001
0000
,
0011
0010
0100
0000
,
1100
0000
1000
0000
,
1010
0001
0010
0000
,
0110
0000
0100
0000
,
1001
0001
0100
0000
,
0110
0000
0100
0000
,
1001
1000
0100
0000
,
0011
0000
1000
0000
,
1010
0010
0100
0000
,
1100
1000
0001
0100
,
0010
0100
0002
0003
,
0010
0100
0110
0000
,
1000
0001
0010
0100
,
1000
0100
1100
0000
,
0001
0010
0100
1000
,
0010
0100
0110
0000
,
1000
0010
0100
0001
,
0010
0001
0011
0000
,
1000
0001
1000
0001
,
0010
0100
0110
0000
,
0001
0010
0100
1000
,
0001
1000
1100
0000
,
0001
0010
0100
1000
,
0010
0100
0010
0100
,
0001
1000
0001
1000
,
0100
0010
0001
0010
,
0100
0010
1000
0010
,
0200
0000
2300
0000
,
3001
0100
0020
0000
,
0230
0000
0302
0000
,
0013
0100
2000
0000
,
3001
0100
0010
0100
,
1000
0100
0010
1000
,
0001
0010
0001
0010
,
0100
1000
0100
1000
,
0002
0000
0010
0000
,
1000
0000
0103
0010
,
2000
0000
0001
0000
,
0100
0000
3010
0100
,
0001
0010
0100
0010
,
1000
0010
0100
1000
,
0001
0100
1000
0100
,
0010
0100
0001
1000
,
0200
0000
0000
0000
,
0000
0000
0000
0000
,
0000
0000
0000
0000
,
0000
0000
0000
0000
,
0000
0000
0300
0000
;

//---------------dance-single - Telperion----------------
#NOTES:
     dance-single:
     Telperion:
     Beginner:
     2:
     0.145,0.253,0.035,0.000,0.000,111.000,4.000,0.000,0.000,0.000,0.000,0.000,0.145,0.253,0.035,0.000,0.000,111.000,4.000,0.000,0.000,0.000,0.000,0.000: // measure 1
1000
0000
0000
0000
,  // measure 2
0000
0000
0000
0000
,  // measure 3
0000
0000
0000
0000
,  // measure 4
0000
0000
0000
0000
,  // measure 5
0001
0000
0000
0000
,  // measure 6
0000
0000
0000
0000
,  // measure 7
0000
0000
0000
0000
,  // measure 8
0000
0000
0000
0000
,  // measure 9
0100
0000
0000
0000
,  // measure 10
0000
0000
0000
0000
,  // measure 11
0010
0000
0000
0000
,  // measure 12
0000
0000
0000
0000
,  // measure 13
1000
0000
0000
0000
,  // measure 14
0000
0000
0000
0000
,  // measure 15
0000
0000
0000
0000
,  // measure 16
0000
0000
0000
0000
,  // measure 17
0001
0000
0000
0000
,  // measure 18
0010
0000
0000
0000
,  // measure 19
0100
0000
0000
0000
,  // measure 20
1000
0000
0000
0000
,  // measure 21
0010
0000
0000
0000
,  // measure 22
0000
0000
0000
0000
,  // measure 23
0100
0000
0000
0000
,  // measure 24
0000
0000
0000
0000
,  // measure 25
0001
0000
0000
0000
,  // measure 26
0100
0000
0000
0000
,  // measure 27
0010
0000
0000
0000
,  // measure 28
1000
0000
0000
0000
,  // measure 29
0100
0000
0000
0000
,  // measure 30
0000
0000
0000
0000
,  // measure 31
0010
0000
0000
0000
,  // measure 32
0010
0010
0010
0010
,  // measure 33
0110
0000
0000
0000
,  // measure 34
0001
0000
0000
0000
,  // measure 35
1000
0000
0000
0000
,  // measure 36
0010
0000
0000
0000
,  // measure 37
0110
0000
0000
0000
,  // measure 38
0100
0000
0000
0000
,  // measure 39
0010
0000
0010
0000
,  // measure 40
0010
0000
0010
0000
,  // measure 41
1001
0000
0001
0000
,  // measure 42
1000
0000
1000
0000
,  // measure 43
0001
0000
0001
0000
,  // measure 44
1000
0000
1000
0000
,  // measure 45
0100
0000
0010
0000
,  // measure 46
0100
0000
0010
0000
,  // measure 47
0001
0000
0001
0000
,  // measure 48
0001
0000
0001
0000
,  // measure 49
0101
0100
0100
0100
,  // measure 50
0001
1000
0100
0100
,  // measure 51
0010
0010
0010
0010
,  // measure 52
0001
1000
0010
0010
,  // measure 53
1000
0001
1000
0001
,  // measure 54
1000
0001
1000
0001
,  // measure 55
0010
0100
0010
0100
,  // measure 56
0010
0100
0010
0100
,  // measure 57
1000
0001
0100
0010
,  // measure 58
0100
0001
0010
0010
,  // measure 59
0100
1000
0001
1000
,  // measure 60
0010
0100
0010
0010
,  // measure 61
1000
0001
0010
0001
,  // measure 62
1000
0001
0010
0001
,  // measure 63
0100
0100
0010
0010
,  // measure 64
1000
1000
0010
0000
,  // measure 65
0100
0000
0000
0000
;
