#TITLE:Shakunetsu BLADE;
#SUBTITLE:;
#ARTIST:Kinya Kotani;
#TITLETRANSLIT:;
#SUBTITLETRANSLIT:;
#ARTISTTRANSLIT:;
#CREDIT:;
#BANNER:Shakunetsu BLADE-bn.png;
#BACKGROUND:Shakunetsu BLADE.png;
#LYRICSPATH:;
#CDTITLE:;
#MUSIC:Shakunetsu BLADE.mp3;
#OFFSET:-1.183;
#SAMPLESTART:55.505;
#SAMPLELENGTH:15.620;
#SELECTABLE:YES;
#BPMS:0.000=130.150;
#STOPS:;
#BGCHANGES:;

//---------------dance-single - ----------------
#NOTES:
     dance-single:
     :
     Hard:
     9:
     0.672,0.637,0.349,0.221,0.634: // measure 1
0000
0000
0000
0000
,  // measure 2
0000
0000
0000
0000
,  // measure 3
0000
0000
0000
0000
,  // measure 4
0000
0000
0000
0000
,  // measure 5
1000
0000
0100
0000
0010
0000
0001
0000
1000
0001
0000
0200
0000
0000
0310
0000
,  // measure 6
1000
0000
0001
0000
0010
0000
0001
0000
0100
0010
0000
2000
0000
0000
3100
0000
,  // measure 7
1000
0000
0100
0000
0010
0000
0001
0000
1000
0010
0000
0200
0000
0000
0301
0000
,  // measure 8
0010
0000
0100
0000
1000
0000
0001
0000
1001
0000
1000
0000
0010
0000
0100
0002
,  // measure 9
0000
0000
0000
0000
0003
0000
0000
0000
1001
0000
0000
0110
0000
0000
1001
0000
,  // measure 10
1000
0100
1000
0100
1000
0100
0000
0000
0010
0001
0010
0001
0010
0001
0000
0000
,  // measure 11
0100
0000
0010
1000
0010
0000
0100
0001
0000
1000
0000
0100
0010
0000
0001
0000
,  // measure 12
1000
0010
1000
0010
1000
0010
0000
0000
0100
0001
0100
0001
0100
0001
0000
0000
,  // measure 13
0100
0000
0010
1000
0010
0000
1000
0100
0000
1000
0000
0001
0010
0000
0001
0000
,  // measure 14
1001
0000
1000
0000
0100
1000
0000
1000
0001
0000
0010
0000
0001
0100
0000
0100
,  // measure 15
0010
0000
1000
0000
0100
0000
0001
0100
0000
1000
0000
0010
1000
0000
1100
0000
,  // measure 16
0100
0000
0010
0000
0001
1000
0000
0001
1000
0000
0010
0000
0100
0001
0000
0100
,  // measure 17
0001
0000
0100
0000
0010
0000
1000
0100
0000
0010
0000
0001
1000
0000
1010
0000
,  // measure 18
1000
0000
0010
0000
0100
0001
0000
0100
0001
0000
1000
0000
0100
1000
0000
0100
,  // measure 19
1000
0000
0100
0000
0010
0000
0001
1000
0000
0010
0000
0100
0001
0000
0101
0000
,  // measure 20
0001
0000
0100
0000
0010
1000
0000
0010
1000
0000
0100
0000
1000
0001
0000
1000
,  // measure 21
0001
0000
1000
0000
0010
0000
0100
0001
0000
0010
0000
0100
1000
0000
0001
0000
,  // measure 22
1001
0000
0000
0000
1010
0000
0000
0000
0110
0000
0000
0101
0000
0000
0100
0000
,  // measure 23
0001
0000
0010
0000
1000
0000
0010
0000
0001
1000
0000
0001
2000
0000
3000
0000
,  // measure 24
1001
0000
0000
0000
0101
0000
0000
0000
0110
0000
0000
1010
0000
0000
0010
0000
,  // measure 25
0100
0000
0001
0000
1000
0000
0100
0000
0010
0001
0000
0010
0001
0000
0100
0001
,  // measure 26
0100
0000
0000
0000
0110
0000
0000
0000
1010
0000
0000
1100
0000
0000
1000
0000
,  // measure 27
0100
0000
0010
0000
0001
0000
1000
0000
0010
0100
0000
0010
0100
0000
0001
0000
,  // measure 28
0101
0000
0000
0000
0110
0000
0000
0000
1010
0000
0000
1100
0000
0000
1000
0000
,  // measure 29
1001
0000
0000
0011
0000
0000
0010
0000
0100
0000
1000
0000
0001
0000
0010
0001
,  // measure 30
0020
0000
0130
0000
1100
0100
0010
0001
,  // measure 31
1000
0010
0000
2000
0000
0000
3001
0000
1000
0000
0100
0000
0010
0000
0001
0000
,  // measure 32
0100
0010
0000
2000
0000
0000
3001
0000
1000
0000
0100
0000
0001
0000
0100
0000
,  // measure 33
1000
0010
0000
0002
0000
0000
0013
0000
1000
0000
0100
0000
0010
0000
0001
0000
,  // measure 34
0100
0010
0000
1000
0010
0000
0100
0000
0101
0000
0001
0000
0010
0000
0100
0000
,  // measure 35
1000
0001
0000
2000
0000
0000
3010
0000
1000
0000
0010
0000
0100
0000
0001
0000
,  // measure 36
1000
0100
0000
2000
0000
0000
3100
0000
0010
0000
0001
0000
0100
0000
0010
0000
,  // measure 37
1000
0001
0000
2000
0000
0000
3100
0000
1000
0100
1000
0000
0001
0100
0001
0000
,  // measure 38
1000
0000
1001
0000
1000
0010
1000
0001
0010
0000
0001
0000
0100
0000
0010
1000
,  // measure 39
0010
0100
0000
0002
0000
0000
1003
0000
0100
0000
1000
0000
0001
0000
0010
0001
,  // measure 40
0010
0100
0000
2000
0000
0000
3010
0000
1000
0000
0010
0000
0100
0000
0001
1000
,  // measure 41
0001
0010
0000
0200
0000
0000
1300
0000
0100
0000
0010
0000
0001
0000
1000
0010
,  // measure 42
1000
0001
0000
0010
0001
0000
0100
0000
0110
0000
0010
0000
1000
0000
0100
1000
,  // measure 43
0001
0010
0000
0002
0000
0000
0103
0000
0010
0000
1000
0000
0100
0000
1000
0010
,  // measure 44
0100
0001
0000
2000
0000
0000
3100
0000
0010
0000
0001
0000
0100
0000
0010
1000
,  // measure 45
0100
1000
0000
0020
0000
0000
0130
0000
0001
0000
0100
0000
0010
0000
1000
0000
,  // measure 46
1001
0000
1000
0000
0010
0000
0100
0002
0000
0000
0003
0000
0000
0000
0000
0000
;

//---------------dance-single - ----------------
#NOTES:
     dance-single:
     :
     Beginner:
     1:
     0.091,0.105,0.012,0.000,0.000:
0000
0000
0000
0000
,
0000
0000
0000
0000
,
0000
0000
0000
0000
,
0000
0000
0000
0000
,
1000
0000
0000
0000
,
0001
0000
0000
0000
,
0100
0000
0000
0000
,
0010
0000
0010
0000
,
0010
0000
0000
0000
,
1000
0000
0000
0000
,
0001
0000
0001
0000
,
0001
0000
0000
0000
,
1000
0000
1000
0000
,
1000
0000
0000
0000
,
0010
0000
0000
0000
,
0100
0000
0000
0000
,
0001
0000
0001
0000
,
0001
0000
0000
0000
,
1000
0000
0000
0000
,
0100
0000
0000
0000
,
0010
0000
0010
0000
,
0010
0000
0000
0000
,
0001
0000
0001
0000
,
0001
0000
0000
0000
,
1000
0000
1000
0000
,
1000
0000
0000
0000
,
0010
0000
0010
0000
,
0010
0000
0000
0000
,
0100
0000
0100
0000
,
0000
0000
0001
0000
,
0000
0000
1000
0000
,
0000
0000
0010
0000
,
0000
0000
0100
0000
,
0100
0000
0100
0000
,
0000
0000
0001
0000
,
0000
0000
1000
0000
,
0000
0000
0010
0000
,
0010
0000
0010
0000
,
0000
0000
0100
0000
,
0000
0000
0001
0000
,
0000
0000
1000
0000
,
1000
0000
1000
0000
,
0000
0000
0100
0000
,
0000
0000
0010
0000
,
0000
0000
0001
0000
,
1001
0000
0000
0000
;

//---------------dance-single - ----------------
#NOTES:
     dance-single:
     :
     Easy:
     3:
     0.229,0.262,0.128,0.000,0.000:
0000
0000
0000
0000
,
0000
0000
0000
0000
,
0000
0000
0000
0000
,
0000
0000
0000
0000
,
1000
0100
0010
0000
,
0001
0100
0010
0000
,
1000
0001
0010
0001
,
1000
0000
0100
1000
,
0001
0000
1001
1001
,
1000
1000
0010
0010
,
0100
0001
0010
0001
,
0100
0100
0010
0010
,
1000
0100
0001
0100
,
1000
0000
0010
0000
,
0100
0001
0010
0000
,
0001
0000
0100
0000
,
0010
1000
0100
0000
,
1000
0000
0001
0000
,
0010
0001
1000
0000
,
0100
0000
1000
0000
,
0001
0100
0010
0000
,
1010
0000
0101
0000
,
0001
0010
0100
0000
,
1100
0000
0011
0000
,
0001
0100
0010
0000
,
1010
0000
0101
0000
,
0001
0010
0100
0000
,
1100
0000
0110
0000
,
0010
0001
0100
0000
,
0010
0010
1000
0100
,
0001
0000
1000
0010
,
0001
0000
1000
0010
,
0100
0001
0010
0100
,
1000
0000
0001
0010
,
1000
0000
0001
0100
,
1000
0000
0001
0010
,
0100
1000
0001
0001
,
1000
1000
0010
1000
,
0100
0000
0010
0001
,
0100
0000
0010
1000
,
0001
0100
0001
0010
,
0100
0000
1000
0010
,
0001
0000
1000
0100
,
0001
0000
1000
0010
,
0100
0001
1000
1000
,
1001
0000
0000
0000
;

//---------------dance-single - Copied from----------------
#NOTES:
     dance-single:
     Copied from:
     Medium:
     6:
     0.484,0.450,0.524,0.244,0.000:
0000
0000
0000
0000
,
0000
0000
0000
0000
,
0000
0000
0000
0000
,
0000
0000
0000
0000
,
1000
0100
0010
0001
0200
0000
0301
0000
,
0100
0010
1000
0100
0020
0000
0031
0000
,
0011
1100
0110
0101
,
1000
0010
0100
0000
0001
0010
0100
1000
,
0001
0000
1100
0101
,
1000
1000
1000
0000
0001
0001
0001
0000
,
0101
0000
1010
0000
0010
1000
0100
0000
,
0010
0010
0010
0000
0001
0001
0001
0000
,
0101
0000
1010
0000
0010
1000
0100
0000
,
0010
0001
0010
0000
0001
0100
0001
0000
,
0100
0000
0010
1000
0100
0000
1100
0000
,
1000
0001
1000
0000
0001
0100
0001
0000
,
1000
0000
0010
1000
0100
0000
1100
0000
,
1000
0001
1000
0000
0001
0100
0001
0000
,
0100
0000
0010
1000
0010
0000
1010
0000
,
0010
1000
0010
0000
0100
0001
0100
0000
,
0001
0000
0010
0100
1000
0000
0001
0000
,
1100
0101
2100
3001
,
1000
0010
0100
0010
2000
0000
3001
0000
,
1001
0101
0012
1003
,
0001
0100
0010
1000
0200
0000
0310
0000
,
0110
0011
1002
0103
,
0001
0100
0010
1000
0200
0000
1300
0000
,
1100
0110
0012
1003
,
0102
1003
2010
3100
,
1100
0000
0011
0000
0001
0100
0010
0100
,
0002
0000
0103
0000
0010
1000
0100
1000
,
0020
1030
1010
0101
,
0011
0000
1100
0000
1000
0100
0010
0001
,
0200
0000
0310
0000
1000
0100
0001
0100
,
2000
0000
3100
0000
0001
0010
1000
0010
,
0002
0103
0101
1010
,
1100
0000
0011
0000
0001
0010
0100
1000
,
0001
0001
1000
1000
0010
1000
0100
1000
,
0002
0000
0013
0000
0001
0100
0010
1000
,
0020
0130
0101
0011
,
0110
0000
1100
0000
1000
0100
0010
0001
,
2000
0000
3001
0000
1000
0010
0100
0001
,
0200
0000
0310
0000
1000
0100
0001
0100
,
2000
3100
1100
0011
,
0101
0000
1010
0000
1000
0100
0010
0001
,
1000
0010
0100
0001
1000
0000
0000
0000
;
