#TITLE:Scattered Rose;
#SUBTITLE:;
#ARTIST:削除;
#TITLETRANSLIT:;
#SUBTITLETRANSLIT:SKz;
#ARTISTTRANSLIT:;
#GENRE:;
#CREDIT:Meseki;
#MENUCOLOR:0.5,0.5,0.5,1.0;
#BANNER:Scattered Rose-bn.png;
#BACKGROUND:Scattered Rose-bg.png;
#LYRICSPATH:;
#CDTITLE:cdtitle.png;
#MUSIC:Scattered Rose.mp3;
#OFFSET:-1.388;
#SAMPLESTART:33.388;
#SAMPLELENGTH:10.667;
#SELECTABLE:YES;
#LISTSORT:;
#DISPLAYBPM:180.000;
#BPMS:0.000=180.000,172.000=1440.000,204.000=180.000;
#STOPS:;
#TICKCOUNT:0.000=2;
#BGCHANGES:-4.167=[Week 8] - Scattered Rose.avi=1.000=1=1=0,
204.000=[Week 8] - Scattered Rose-bg.png=1.000=0=0=1,
99999=-nosongbg-=1.000=0=0=0 // don't automatically add -songbackground-
;
#KEYSOUNDS:;
#ATTACKS:;

//---------------dance-single - ----------------
#NOTES:
     dance-single:
     :
     Medium:
     6:
     0.316,0.425,0.183,0.083,0.050:
0000
0000
0000
0000
,
0000
0000
0000
0000
,
0000
0000
0000
0000
,
0000
0000
0000
0000
,
1000
0000
0001
0000
,
1000
0100
0010
0000
,
1001
0000
0000
0000
,
0100
0000
1000
0000
0010
1000
0000
0000
,
0001
0000
0000
0100
0000
0010
0000
0000
,
1000
0000
0000
0010
0000
0000
0000
0000
0001
0000
0000
0010
0000
0000
0000
0000
,
0100
0000
0000
0001
0000
1000
0000
1001
,
0000
0000
0001
0000
0100
0000
0000
0010
,
1000
0000
0000
0100
0000
0001
0000
0100
,
1000
0000
0000
0010
0100
0000
0000
0001
,
0010
0000
0000
0101
0000
0000
0000
0000
,
0010
0000
0000
1100
0000
0000
0000
0000
,
1001
0000
0000
0001
0000
0000
0000
1000
,
0000
0010
0100
0001
,
0010
0000
0000
0010
0000
0000
0000
0100
,
0000
1000
0010
1000
,
0001
0000
0000
0010
0100
0000
0000
1000
,
0010
0000
0000
0100
0000
0000
0000
0001
,
1000
0000
0100
0100
,
0010
0000
0100
0000
1000
0001
0000
0000
,
0110
0000
0000
1000
0000
0001
0000
0010
,
0100
0000
0000
1000
0000
0000
0000
0000
0100
0000
0000
0001
0000
0000
0000
0000
,
0100
0000
0000
1000
0000
0100
0000
0010
,
0000
0000
0001
0000
0100
0000
0000
0010
,
1000
0000
0000
0001
0000
0010
0000
0100
,
0010
0000
0000
0001
0100
0000
0000
0010
,
1000
0000
0000
1100
0000
0000
0000
0000
,
0001
0000
0000
0101
0000
0000
0000
0000
,
1001
0000
0000
1000
0000
0010
0000
1000
,
0100
0000
0000
0010
0000
0000
0000
0000
0100
0000
0000
1000
0000
0000
0000
0000
,
0001
0000
0000
1000
0000
0001
0000
1001
,
0000
0000
0110
0000
0000
0000
0000
0001
,
2000
0000
3010
0000
,
0200
0000
0301
0000
,
0010
0100
1000
0100
,
0020
0000
0032
0000
,
1003
0000
0000
0000
,
0000
0000
0010
0100
,
0002
0000
0000
0000
,
0000
0000
0000
0000
,
0000
0000
0000
0000
,
0000
0000
0000
0000
,
0000
0000
0000
0000
,
0000
0000
0000
0000
,
0000
0000
0000
0000
,
0000
0000
0000
0000
,
0000
0000
0000
0000
,
0003
0000
0000
0000
;

//---------------dance-single - ----------------
#NOTES:
     dance-single:
     :
     Easy:
     3:
     0.195,0.297,0.033,0.100,0.000:
0000
0000
0000
0000
,
0000
0000
0000
0000
,
0000
0000
0000
0000
,
0000
0000
0000
0000
,
1000
0000
0000
0000
,
0001
0000
1000
0000
,
1001
0000
0000
0000
,
0001
0000
0010
0000
,
0100
0000
0000
1000
0000
0000
0000
0000
,
0001
0000
0100
0000
,
0010
0000
0000
0100
0000
0010
0000
0100
,
0000
0001
0000
0000
,
0010
0000
0000
0100
0000
1000
0000
0000
,
0010
0000
0100
0000
,
0001
0000
0000
0100
0000
0000
0000
0000
,
0010
0000
0000
1000
0000
0000
0000
0000
,
0001
0000
0000
0001
0000
0000
0000
0100
,
0000
0010
1000
0001
,
0010
0000
0000
0010
0000
0000
0000
0100
,
0000
1000
0100
1000
,
0001
0000
0100
0000
,
0010
0000
0000
1000
0000
0000
0000
0000
,
0200
0000
0000
0000
,
0000
0000
1300
0000
,
1001
0000
0000
0000
,
0001
0000
0100
0000
,
1000
0000
0000
0100
0000
0000
0000
0010
,
0000
1000
0000
0000
,
0001
0000
0000
0010
0000
0000
0000
0000
,
0100
0000
1000
0000
,
0010
0000
0000
0100
0000
0000
0000
0000
,
0001
0000
0000
0100
0000
0000
0000
0000
,
0001
0000
0000
0010
0000
0000
0000
0000
,
0001
0000
0100
0000
,
0010
0000
0000
1000
0000
0010
0000
1000
,
0000
0100
0000
0000
,
0020
0000
0030
0000
,
0002
0000
0003
0000
,
0200
0000
0300
0000
,
0020
0000
1030
0000
,
0001
0000
0000
0000
,
0000
0000
0010
0000
,
0200
0000
0000
0000
,
0000
0000
0000
0000
,
0000
0000
0000
0000
,
0000
0000
0000
0000
,
0000
0000
0000
0000
,
0000
0000
0000
0000
,
0000
0000
0000
0000
,
0000
0000
0000
0000
,
0000
0000
0000
0000
,
0300
0000
0000
0000
;

//---------------dance-single - ----------------
#NOTES:
     dance-single:
     :
     Beginner:
     1:
     0.081,0.127,0.000,0.033,0.000:
0000
0000
0000
0000
,
0000
0000
0000
0000
,
0000
0000
0000
0000
,
0000
0000
0000
0000
,
1000
0000
0000
0000
,
0001
0000
0000
0000
,
1000
0000
0000
0000
,
0000
0000
0000
0000
,
0010
0000
0000
0000
,
0100
0000
0000
0000
,
0001
0000
0000
0000
,
0000
0010
0000
0000
,
0100
0000
0000
0000
,
1000
0000
0000
0000
,
0010
0000
0000
0000
,
0100
0000
0000
0000
,
0001
0000
0000
0000
,
0000
0000
0000
0000
,
0010
0000
0000
0000
,
0000
0000
0000
0000
,
0100
0000
0000
0000
,
1000
0000
0000
0000
,
0002
0000
0000
0000
,
0000
0000
0003
0000
,
1000
0000
0000
0000
,
0001
0000
0000
0000
,
0100
0000
0000
0000
,
0000
0000
0000
0000
,
0010
0000
0000
0000
,
1000
0000
0000
0000
,
0001
0000
0000
0000
,
0001
0000
0000
0000
,
1000
0000
0000
0000
,
0100
0000
0000
0000
,
0010
0000
0000
0000
,
0000
0001
0000
0000
,
1000
0000
0000
0000
,
0001
0000
0000
0000
,
1000
0000
0000
0000
,
0010
0000
0000
0000
,
0000
0000
0000
0000
,
0000
0000
0000
0000
,
2000
0000
0000
0000
,
0000
0000
0000
0000
,
0000
0000
0000
0000
,
0000
0000
0000
0000
,
0000
0000
0000
0000
,
0000
0000
0000
0000
,
0000
0000
0000
0000
,
0000
0000
0000
0000
,
0000
0000
0000
0000
,
3000
0000
0000
0000
;

//---------------dance-single - ----------------
#NOTES:
     dance-single:
     :
     Hard:
     8:
     0.433,0.722,0.267,0.083,0.133: // measure 1
0000
0000
0000
0000
,  // measure 2
0000
0000
0000
0000
,  // measure 3
0000
0000
0000
0000
,  // measure 4
0000
0000
0000
0000
,  // measure 5
0001
0000
0000
0010
0100
0000
0000
1000
,  // measure 6
0010
0000
0000
0100
0001
0000
0000
0000
,  // measure 7
2001
0000
0010
3100
,  // measure 8
1000
0010
0100
0001
1000
1000
0000
0000
,  // measure 9
0010
0000
0000
1000
0000
0001
0000
0010
,  // measure 10
0100
0000
0000
0010
0000
0000
0100
0000
1000
0000
0000
0001
0000
0000
1000
0000
,  // measure 11
0010
0000
0000
0110
0000
1010
0000
1001
,  // measure 12
0000
0000
0000
0000
0001
0000
0000
0000
0100
0000
0000
0010
0000
0000
1000
0000
,  // measure 13
0100
0000
0000
1000
0000
0010
0000
0001
,  // measure 14
0010
0000
0000
1000
0000
0000
0100
0000
0001
0000
0000
1000
0000
0000
0010
0000
,  // measure 15
0001
0000
0000
0101
0000
0000
0000
0000
,  // measure 16
0010
0000
0000
1010
0000
0000
0000
0000
,  // measure 17
1001
0000
0000
0001
0000
0000
0000
0100
,  // measure 18
0000
1000
0100
0010
,  // measure 19
1000
0000
0000
1000
0000
0000
0000
0001
,  // measure 20
0000
0000
0100
0000
0010
1000
0100
0010
,  // measure 21
0001
0000
0000
0100
1000
0000
0000
0010
,  // measure 22
0001
0000
0000
0100
0000
0000
0000
0010
,  // measure 23
1000
0000
0000
0001
0100
0010
0100
1000
,  // measure 24
0100
0001
0010
0100
1000
1100
0000
0000
,  // measure 25
0011
0000
0000
1000
0000
0010
0000
0100
,  // measure 26
0001
0000
0000
0010
0000
0000
1000
0000
0001
0000
0000
0100
0000
0000
1000
0000
,  // measure 27
0010
0000
0000
0100
0000
0001
0000
0010
,  // measure 28
0000
0000
0000
0000
1000
0000
0000
0000
0010
0000
0000
0001
0000
0000
0100
0000
,  // measure 29
0010
0000
0000
0001
0000
0010
0000
1000
,  // measure 30
0001
0000
0000
0010
0000
0000
0100
0000
1000
0000
0000
0010
0000
0000
0100
0000
,  // measure 31
0001
0000
0000
0101
0000
0000
0000
0000
,  // measure 32
0010
0000
0000
1010
0000
0000
0000
0000
,  // measure 33
1001
0000
0000
1000
0000
0010
0000
0100
,  // measure 34
1000
0000
0000
0100
0000
0000
0001
0000
0010
0000
0000
1000
0000
0000
0010
0000
,  // measure 35
0001
0000
0000
0101
0000
1010
0000
1001
,  // measure 36
0000
0000
0000
0000
0110
0000
0000
0000
1000
0000
0000
0100
0000
0000
0010
0000
,  // measure 37
2000
0000
0000
0000
0000
0000
0000
0000
3010
0000
0000
0001
0000
0000
1000
0000
,  // measure 38
0020
0000
0000
0000
0000
0000
0000
0000
0130
0000
0000
0001
0000
0000
0010
0000
,  // measure 39
0100
1000
0010
0000
0100
0010
1000
0001
,  // measure 40
0010
0000
0100
0000
0010
0000
0100
0000
1000
0000
0001
1000
0001
0000
1000
0000
,  // measure 41
0020
0000
0000
0000
,  // measure 42
0000
0000
0000
0000
1030
0010
0100
0001
,  // measure 43
0020
0000
0000
0000
,  // measure 44
0000
0000
0000
0000
,  // measure 45
0000
0000
0000
0000
,  // measure 46
0000
0000
0000
0000
,  // measure 47
0000
0000
0000
0000
,  // measure 48
0000
0000
0000
0000
,  // measure 49
0000
0000
0000
0000
,  // measure 50
0000
0000
0000
0000
,  // measure 51
0000
0000
0000
0000
,  // measure 52
0030
0000
0000
0000
;
