#TITLE:squartatrice;
#SUBTITLE:;
#ARTIST:美樹さやか vs. 美樹さやか (fw. 美樹さやか);
#TITLETRANSLIT:;
#SUBTITLETRANSLIT:;
#ARTISTTRANSLIT:gmtn vs. kozato (fw. Luze);
#GENRE:;
#CREDIT:Meseki;
#MENUCOLOR:0.0,0.4,0.8,1.0;
#BANNER:squartarice-bn.png;
#BACKGROUND:squartarice-bg.png;
#LYRICSPATH:;
#CDTITLE:cdtitle.png;
#MUSIC:squartatrice.ogg;
#OFFSET:0.000;
#SAMPLESTART:82.500;
#SAMPLELENGTH:10.833;
#SELECTABLE:YES;
#LISTSORT:;
#BPMS:0.000=180.000;
#STOPS:;
#TICKCOUNT:0.000=2;
#BGCHANGES:0.000=[Week 7] - squartatrice.avi=1.000=1=1=0,
99999=-nosongbg-=1.000=0=0=0 // don't automatically add -songbackground-
;
#KEYSOUNDS:;
#ATTACKS:;

//---------------dance-single - ----------------
#NOTES:
     dance-single:
     :
     Medium:
     7:
     0.379,0.428,0.072,0.072,0.004: // measure 1
0000
0000
0000
0000
,  // measure 2
0000
0000
0000
0000
,  // measure 3
0000
0000
0000
0000
,  // measure 4
0000
0000
0000
0000
,  // measure 5
0000
0000
0000
0000
,  // measure 6
0000
0000
0000
0000
,  // measure 7
0000
0000
0000
0000
,  // measure 8
0000
0000
0000
0000
,  // measure 9
1000
0010
0010
0100
,  // measure 10
0001
0000
0001
0000
0010
0000
0001
1000
,  // measure 11
0001
0100
0010
0100
,  // measure 12
0100
0010
1000
0100
,  // measure 13
0001
0100
0010
0001
,  // measure 14
1000
0010
0010
0100
,  // measure 15
0001
0010
0010
0100
,  // measure 16
1000
0000
1000
0000
0010
0000
0100
0001
,  // measure 17
0100
0010
1000
0100
,  // measure 18
1000
0000
0100
0010
0001
0000
0100
0000
,  // measure 19
1000
0000
0100
0000
0010
1000
0010
1000
,  // measure 20
0001
0010
0200
0001
,  // measure 21
1300
0001
0001
0010
,  // measure 22
0100
0010
0001
0100
,  // measure 23
0010
0000
1000
0000
0000
0000
0100
0010
,  // measure 24
0001
0000
0100
0000
0010
1000
0010
0000
,  // measure 25
1000
0001
0100
0100
,  // measure 26
0010
0001
0010
1000
,  // measure 27
0100
0010
0010
0001
,  // measure 28
1000
0010
0100
0001
,  // measure 29
0010
0000
0100
0000
0000
0000
0010
0001
,  // measure 30
1000
0000
0010
0000
1000
0010
0100
0000
,  // measure 31
0001
0010
0110
0100
,  // measure 32
1000
0000
1000
0000
0000
0000
1000
0001
,  // measure 33
1000
0000
0100
0000
0000
0010
0000
0000
,  // measure 34
0001
0100
0010
1000
,  // measure 35
0000
0100
0000
0000
0010
0000
0001
0000
,  // measure 36
1000
0000
0010
0000
0000
0001
0000
0010
,  // measure 37
1000
0100
0001
0100
,  // measure 38
0000
0010
0000
0001
0100
0000
0010
0000
,  // measure 39
2000
0000
0100
0000
0000
0001
3000
0000
,  // measure 40
0010
0100
0020
0001
,  // measure 41
0000
0000
0031
0100
,  // measure 42
0010
0000
1000
0000
0000
0001
0000
0010
,  // measure 43
0001
0010
0001
0000
0100
0000
0010
0000
,  // measure 44
0010
0020
0000
0000
,  // measure 45
1030
0000
0000
1000
0000
0000
0001
0000
,  // measure 46
1000
0000
0000
1000
0000
0000
0001
0000
,  // measure 47
0010
0100
0010
0001
,  // measure 48
1000
0010
0100
0001
,  // measure 49
0010
0100
0010
0001
,  // measure 50
1000
0010
0001
0010
,  // measure 51
1000
0100
0010
0001
,  // measure 52
1000
0010
0100
0001
,  // measure 53
0010
0001
0100
0010
,  // measure 54
1001
0000
0110
0000
,  // measure 55
1000
0000
0000
0000
0100
0010
0001
0000
,  // measure 56
0100
0000
0000
0000
0010
1000
0001
0000
,  // measure 57
0010
0000
0000
0000
0100
1000
0010
0000
,  // measure 58
0100
0000
0001
0000
,  // measure 59
1001
0000
0000
0000
0110
0000
0000
1000
,  // measure 60
0001
0000
0000
0000
0110
0000
0000
0010
,  // measure 61
1000
0000
0100
0010
0100
0000
0010
0001
,  // measure 62
2000
0000
0020
3000
0000
0000
0000
0000
,  // measure 63
0000
0030
0100
0000
0001
0000
0010
0000
,  // measure 64
0001
0000
0100
0000
0010
0000
1000
0010
,  // measure 65
0100
0010
1000
0000
0100
0000
0010
0000
,  // measure 66
0001
0000
1000
0000
0100
0000
0010
0001
,  // measure 67
1000
0001
0010
0000
0100
0000
0001
0000
,  // measure 68
0100
1000
0010
0100
,  // measure 69
0001
0000
1001
0000
0001
1000
0000
0100
,  // measure 70
0000
0010
0000
0000
1000
0000
0010
0000
,  // measure 71
0001
0000
0000
0000
0100
0000
0000
0010
0000
0000
0010
0000
0000
0000
0000
0000
,  // measure 72
1000
0000
0100
0000
0010
0000
0100
1000
,  // measure 73
0010
0100
0001
0000
0010
0000
0100
0000
,  // measure 74
0010
0000
0001
0000
0100
0000
0010
1000
,  // measure 75
0100
0010
0001
0000
0100
0000
1000
0000
,  // measure 76
0100
0010
1000
0100
,  // measure 77
0010
0000
0110
0000
0000
0001
0000
0100
,  // measure 78
0000
1000
0000
0000
0100
0000
0010
0000
,  // measure 79
1000
0000
0100
0000
0010
0001
0000
0001
,  // measure 80
0100
0000
0000
0010
0000
0000
1000
0000
,  // measure 81
0001
0000
0100
0000
0010
1000
0000
1000
,  // measure 82
0100
0000
0000
0010
0000
0000
0001
0000
,  // measure 83
1000
0000
0100
0000
0000
0010
0000
0000
,  // measure 84
0001
0000
1000
0010
1000
0010
1000
0010
,  // measure 85
1000
0000
0001
0000
0000
0010
0000
0000
,  // measure 86
0200
1000
0000
1300
,  // measure 87
1000
0000
1001
0000
0001
0000
0100
1000
,  // measure 88
0100
0010
1000
1000
,  // measure 89
0100
0010
0001
0100
,  // measure 90
0010
0001
0010
1000
,  // measure 91
0100
0000
0010
0000
0001
0100
0010
0000
,  // measure 92
1000
0000
0100
0000
0010
0001
0010
0000
,  // measure 93
1000
0010
0001
0100
,  // measure 94
0010
0010
1000
0001
,  // measure 95
1000
0200
0000
0000
,  // measure 96
0000
0000
0000
0300
,  // measure 97
0000
2002
0000
0000
,  // measure 98
0000
0000
0000
0000
,  // measure 99
0000
0000
0000
0000
,  // measure 100
0000
3003
0000
0000
;

//---------------dance-single - ----------------
#NOTES:
     dance-single:
     :
     Easy:
     4:
     0.243,0.321,0.036,0.094,0.000: // measure 1
0000
0000
0000
0000
,  // measure 2
0000
0000
0000
0000
,  // measure 3
0000
0000
0000
0000
,  // measure 4
0000
0000
0000
0000
,  // measure 5
0000
0000
0000
0000
,  // measure 6
0000
0000
0000
0000
,  // measure 7
0000
0000
0000
0000
,  // measure 8
0000
0000
0000
0000
,  // measure 9
1000
0000
0000
0001
,  // measure 10
0000
0000
0100
0010
,  // measure 11
1000
0010
0000
0000
,  // measure 12
0100
0000
0000
0001
,  // measure 13
0000
0000
0010
0001
,  // measure 14
0010
0100
0000
0000
,  // measure 15
1000
0000
0000
0001
,  // measure 16
0000
0000
0010
0001
,  // measure 17
0100
0001
0000
0000
,  // measure 18
1000
0000
0010
1000
,  // measure 19
0000
0001
0010
0000
,  // measure 20
0000
0200
0000
0300
,  // measure 21
1000
0010
0000
0010
,  // measure 22
0100
0000
0001
0010
,  // measure 23
0000
0100
0000
1000
,  // measure 24
0010
0000
0100
0001
,  // measure 25
0100
0001
0010
0000
,  // measure 26
0000
0100
0000
0000
,  // measure 27
1000
0010
0000
0100
,  // measure 28
0001
0000
0010
0100
,  // measure 29
0000
1000
0000
0100
,  // measure 30
0010
0000
0001
1000
,  // measure 31
0001
0000
1001
0000
,  // measure 32
1000
0001
0000
0100
,  // measure 33
0010
0000
1000
0000
0000
0010
0000
0000
,  // measure 34
0100
0000
0000
0001
,  // measure 35
0000
0010
0000
0000
0100
0000
0000
0000
,  // measure 36
1000
0000
0010
0000
0000
0100
0000
0000
,  // measure 37
0001
0000
0010
0100
,  // measure 38
0000
1000
0000
0000
0001
0000
0000
0000
,  // measure 39
2000
0000
0001
0000
3000
0001
0000
0000
,  // measure 40
1000
0000
0020
0100
,  // measure 41
0000
0000
0130
0000
,  // measure 42
0010
0000
1000
0000
0000
0001
0000
0000
,  // measure 43
1000
1000
0100
0000
,  // measure 44
0000
0020
0000
0000
,  // measure 45
0031
0000
0000
0001
0000
0000
1000
0000
,  // measure 46
0001
0000
0000
0001
0000
0000
1000
0000
,  // measure 47
0010
0000
0100
0000
,  // measure 48
0001
0000
0100
0000
,  // measure 49
0010
0010
1000
0000
,  // measure 50
0001
0001
0010
0000
,  // measure 51
0100
0000
1000
0000
,  // measure 52
0100
0000
0001
0000
,  // measure 53
0100
0000
1000
0000
,  // measure 54
1001
0000
1001
0000
,  // measure 55
0001
0000
0100
0010
,  // measure 56
0100
0000
0010
1000
,  // measure 57
0010
0000
0100
0010
,  // measure 58
1000
0000
0001
0000
,  // measure 59
1000
0000
0001
0000
,  // measure 60
0010
0000
0100
0000
,  // measure 61
1000
1000
0010
0010
,  // measure 62
0200
0000
0002
0300
0000
0000
0000
0000
,  // measure 63
0003
1000
0001
1000
,  // measure 64
0000
0100
0000
0010
,  // measure 65
0001
0100
0001
0010
,  // measure 66
0000
0100
0000
1000
,  // measure 67
0010
0000
0010
0000
0000
1000
0000
0001
,  // measure 68
0000
1000
0000
0000
0100
0000
0010
0000
,  // measure 69
0001
0000
1001
0000
0000
0001
0000
0100
,  // measure 70
0000
0010
0000
0000
1000
0000
0001
0000
,  // measure 71
1000
0000
0000
0000
0200
0000
0000
0300
0000
0000
1000
0000
0000
0000
0000
0000
,  // measure 72
0100
0000
0010
0001
,  // measure 73
0100
0000
0000
0000
0020
0000
0000
0030
0000
0000
1000
0000
0000
0000
0000
0000
,  // measure 74
0100
0000
0000
0010
,  // measure 75
0001
0000
1000
0000
0000
0001
0000
0100
,  // measure 76
0000
0010
0000
0000
1000
0000
0100
0000
,  // measure 77
0010
0000
0001
0000
0000
1000
0000
0100
,  // measure 78
0000
1000
0000
0000
0001
0000
0100
0000
,  // measure 79
0010
0000
1000
0000
0000
0010
0000
0000
,  // measure 80
1000
0000
0000
0001
0000
0000
0010
0000
,  // measure 81
0000
0000
0100
0000
0000
0001
0000
0000
,  // measure 82
0100
0000
0000
0010
0000
0000
0001
0000
,  // measure 83
0000
0000
1000
0000
0000
0100
0000
0000
,  // measure 84
0010
0002
0000
0000
,  // measure 85
0013
0000
0100
0000
0000
1000
0000
0000
,  // measure 86
0200
0000
0000
0000
,  // measure 87
0300
1000
0010
0000
,  // measure 88
0000
0100
0001
0000
,  // measure 89
0000
0010
0000
0100
,  // measure 90
0000
1000
0000
0001
,  // measure 91
0000
0100
0010
0100
,  // measure 92
0000
0010
1000
1000
,  // measure 93
0000
0001
0000
0010
,  // measure 94
0000
0100
0000
1000
,  // measure 95
0000
0200
0000
0000
,  // measure 96
0000
0000
0000
0300
,  // measure 97
0000
2002
0000
0000
,  // measure 98
0000
0000
0000
0000
,  // measure 99
0000
0000
0000
0000
,  // measure 100
0000
3003
0000
0000
;

//---------------dance-single - ----------------
#NOTES:
     dance-single:
     :
     Hard:
     9:
     0.612,0.678,0.281,0.137,0.140: // measure 1
0000
0000
0000
0000
,  // measure 2
0000
0000
0000
0000
,  // measure 3
0000
0000
0000
0000
,  // measure 4
0000
0000
0000
0000
,  // measure 5
0000
0000
0000
0000
,  // measure 6
0000
0000
0000
0000
,  // measure 7
0000
0000
0000
0000
,  // measure 8
0000
0000
0000
0000
,  // measure 9
1000
0000
0010
0100
0010
0100
0001
0000
,  // measure 10
0010
0000
0100
0000
0010
0000
0100
0000
1000
0000
0000
0010
0100
0000
0001
0000
,  // measure 11
0010
0100
1000
0000
0001
1000
0100
1000
,  // measure 12
0100
0000
0100
0001
0100
1000
0010
0000
,  // measure 13
1000
0000
0001
0000
0010
0100
1000
0001
,  // measure 14
0010
0001
0100
0000
0010
1000
0010
1000
,  // measure 15
0100
0000
0010
0001
0010
0001
0100
0000
,  // measure 16
0010
0000
1000
0000
0010
0000
1000
0000
0001
0000
0000
0010
0100
0000
1000
0000
,  // measure 17
0010
0100
0001
0000
0010
0001
0100
0001
,  // measure 18
1000
0000
0100
0010
0001
0010
0100
0000
,  // measure 19
1000
0010
0100
0001
1000
0001
0100
1000
,  // measure 20
0100
0000
0010
0000
1000
0001
1000
0000
0200
0000
0000
0000
0001
0000
0000
0000
,  // measure 21
2300
0010
0010
3001
,  // measure 22
1000
0010
0001
0010
,  // measure 23
1000
0000
0000
0000
1100
0000
0000
0000
0000
0000
0000
0000
1000
0000
0000
0100
,  // measure 24
0010
0000
0100
0000
1000
0010
0100
0001
,  // measure 25
0010
0000
1000
0000
0010
0000
0001
0000
0100
0000
0000
0010
1000
0000
0000
0000
,  // measure 26
0100
0000
0000
0000
0011
0000
0000
0000
0101
0000
0000
0000
0010
0000
0000
1000
,  // measure 27
0002
0010
0010
1003
,  // measure 28
0001
0100
1000
0100
,  // measure 29
0001
0000
0000
0000
0011
0000
0000
0000
0000
0000
0000
0000
0001
0000
0000
0100
,  // measure 30
0010
0000
0100
0000
0001
0010
1000
0010
,  // measure 31
0001
0100
1000
0100
0101
0000
0101
0000
,  // measure 32
1001
0000
1001
0000
0000
0000
0100
0010
,  // measure 33
0110
0000
1000
0000
0000
0010
0000
0100
,  // measure 34
0001
0010
0100
0010
0001
0001
0100
0100
,  // measure 35
0000
0000
0010
0000
0000
0000
1000
0000
0001
0000
0000
0010
0100
0000
0000
0000
,  // measure 36
1001
0000
1000
0000
0000
0010
0000
0100
,  // measure 37
0001
0010
0100
1000
0010
0010
0100
0100
,  // measure 38
0000
0000
0000
0001
0000
0000
0000
0000
0000
0010
0000
0000
0001
0000
0000
0000
0001
0000
0100
0000
0000
0000
0010
0000
,  // measure 39
2000
0000
0100
0000
0000
0001
3000
1000
,  // measure 40
0001
0010
0100
1000
0002
0000
0100
0100
,  // measure 41
0000
0000
0010
0000
0000
0000
0103
0000
0001
0000
0000
0010
0100
0000
0000
0000
,  // measure 42
1000
0000
1100
0000
0000
0011
0000
1000
,  // measure 43
0010
0000
0100
0000
0001
0000
0000
0000
1001
0000
0000
0001
0100
0000
0000
0010
,  // measure 44
1000
0000
0200
1000
1000
0000
1000
0300
,  // measure 45
2000
3000
0010
0000
1000
0000
0002
0003
0010
0000
0001
0000
0100
0000
0000
0000
,  // measure 46
0020
0030
1000
0000
0010
0000
0200
0300
0001
0000
0100
0000
0010
0000
0000
0000
,  // measure 47
1000
0100
0001
0100
0010
0001
1000
0000
,  // measure 48
0010
1000
0100
0010
1000
0010
0001
0000
,  // measure 49
0100
0010
0001
0010
1000
0001
0010
0000
,  // measure 50
0100
1000
0001
0100
1000
0100
0010
0000
,  // measure 51
1000
0100
0010
1000
0010
0001
1000
0000
,  // measure 52
0010
1000
0001
0100
1000
0100
0010
0000
,  // measure 53
1000
0100
0001
0100
0010
0001
0100
0010
,  // measure 54
0110
0000
0101
1020
,  // measure 55
1030
0000
0000
0100
1000
0000
0000
0000
0100
0000
0010
0000
0001
0000
0100
0000
,  // measure 56
0001
0000
0000
1000
0001
0000
0000
0000
0100
0000
0010
0000
0001
0000
0010
0000
,  // measure 57
1000
0000
0000
0100
1000
0000
0000
0000
0100
0000
0010
0000
0001
0000
0100
0000
,  // measure 58
0010
0000
0000
0010
1000
0000
0001
0000
0010
0000
0000
0100
1000
0000
0000
0000
,  // measure 59
1001
0000
0000
0000
0110
0000
0000
0010
,  // measure 60
1010
0000
0000
0000
0101
0000
0000
0001
,  // measure 61
1000
0000
0100
1000
0000
0000
0100
0000
0010
0000
0001
0000
0100
0000
0001
0000
,  // measure 62
0020
0000
0200
0030
0000
0000
0000
0000
,  // measure 63
0000
0000
0300
0000
1000
0000
0100
0000
0010
0000
0001
0100
0000
0000
0010
0000
,  // measure 64
0100
0001
0010
0100
0010
0001
1000
0010
,  // measure 65
0001
0000
0010
0000
1000
0000
0100
0000
0010
0000
0001
1000
0000
0000
0010
0000
,  // measure 66
0100
0001
0010
0100
1000
0010
0100
0010
,  // measure 67
1000
0000
0001
0000
0010
0000
0001
0000
1000
0000
0001
0010
0000
0001
1000
0000
,  // measure 68
0010
0000
0100
0000
0001
0000
1000
0010
0000
0000
0100
0000
0001
0000
0010
0000
,  // measure 69
0100
1000
1100
0000
0100
0110
0000
0011
,  // measure 70
0000
1001
0000
0000
1000
0000
0010
0000
,  // measure 71
0100
0000
0000
0000
0001
0000
0000
0010
0000
0000
0010
0000
0000
0000
0100
0000
,  // measure 72
1000
0001
0000
0000
0010
0000
0100
0000
0010
0000
0001
0000
1000
0000
0100
0000
,  // measure 73
0001
0000
0100
0000
1000
0000
0100
0010
0000
0000
0001
0000
0000
1000
0000
0000
,  // measure 74
0010
0100
0010
1000
0001
0010
0100
0001
,  // measure 75
0100
0000
1000
0000
0010
0000
0100
0001
0000
0000
0010
0000
0100
1000
0000
0000
,  // measure 76
0010
0100
0001
0010
1000
0010
0001
1000
,  // measure 77
0100
0010
0110
0000
0000
0011
0000
1100
,  // measure 78
0000
0000
1001
0000
0000
0000
0000
0000
0101
0000
0000
0000
1010
0000
0000
1000
,  // measure 79
0000
0010
0100
0000
0010
1000
0000
0001
,  // measure 80
0010
0000
0100
0010
0000
0001
0011
0000
,  // measure 81
0101
0000
0110
0000
0010
1000
0000
0100
,  // measure 82
0010
0000
0001
0100
0000
0010
0110
0000
,  // measure 83
1010
0000
2100
0000
0000
3200
0000
0000
,  // measure 84
0320
0000
0000
0031
0100
0001
0100
0001
0100
0001
0100
0001
,  // measure 85
0010
0000
0001
0000
0000
0100
0000
0000
,  // measure 86
2000
0100
0000
3100
,  // measure 87
0110
0000
0000
0000
1001
0000
0000
0000
0001
0000
0000
0010
0100
0000
1000
0000
,  // measure 88
0010
0100
0001
0000
0010
0100
0010
0100
,  // measure 89
1000
0100
1000
0000
0001
0100
1000
0100
,  // measure 90
0001
0000
0010
0000
1000
0010
0001
0010
,  // measure 91
0100
0000
0000
0000
1000
0000
0000
0000
0001
0000
0000
1000
0010
0000
0100
0000
,  // measure 92
0001
0010
0100
0000
0001
0100
0010
0100
,  // measure 93
1000
0000
0010
0100
0001
0000
0010
0100
,  // measure 94
1000
0000
0100
0010
0001
1000
0010
0100
,  // measure 95
0001
1000
0001
0100
0010
0100
0010
0100
,  // measure 96
1000
0100
0010
1000
0001
0010
0100
0001
,  // measure 97
0100
1000
2002
0000
0000
0000
0000
0000
,  // measure 98
0000
0000
0000
0000
,  // measure 99
0000
0000
0000
0000
,  // measure 100
0000
3003
0000
0000
;

//---------------dance-single - Not for 3.9----------------
#NOTES:
     dance-single:
     Not for 3.9:
     Edit:
     9:
     0.627,0.750,0.252,0.295,0.165: // measure 1
0000
0000
0000
0000
,  // measure 2
0000
0000
0000
0000
,  // measure 3
0000
0000
0000
0000
,  // measure 4
0000
0000
0000
0000
,  // measure 5
0000
0000
0000
0000
,  // measure 6
0000
0000
0000
0000
,  // measure 7
0000
0000
0000
0000
,  // measure 8
0000
0000
0000
0000
,  // measure 9
0101
0000
010M
0010
1000
0010
1000
0000
,  // measure 10
0100
0000
0010
0000
0100
0000
0010
0000
0001
0000
00M0
0100
1000
0000
0100
0000
,  // measure 11
0001
0010
0100
0000
1000
0010
0100
0001
,  // measure 12
1000
L000
1000
0100
0010
0001
0200
0000
,  // measure 13
M001
000L
0310
0000
1000
0100
0010
0001
,  // measure 14
0010
0100
0010
0000
0001
0100
0001
0100
,  // measure 15
0010
0000
1000
0100
1000
0100
0010
0000
,  // measure 16
0001
0000
0100
0000
100M
0000
0100
0000
0001
0000
0M00
0010
1000
0000
0010
0000
,  // measure 17
0001
1000
0010
0000
0100
0001
0100
0001
,  // measure 18
0010
0000
0100
0010
0001
0010
1000
0000
,  // measure 19
0010
0001
0100
0001
1000
0010
0100
0001
,  // measure 20
0010
0000
0100
0000
0010
0001
0010
0001
0200
0000
0000
0000
100M
0000
0000
0000
,  // measure 21
0302
0000
0010
0000
0010
0000
1003
000L
,  // measure 22
0100
0010
0011
0001
,  // measure 23
1000
0000
0000
0000
1020
0000
0030
0000
0000
0000
0000
0000
M100
0000
0000
0001
,  // measure 24
0010
0000
0100
0000
0010
0001
1000
0010
,  // measure 25
0001
0010
1000
0001
1000
L000
1000
0000
,  // measure 26
0010
0000
0000
0000
1010
0000
0000
0000
0101
0000
0000
0000
0100
0000
0000
0010
,  // measure 27
2000
0000
0010
0000
0010
0000
3001
L000
,  // measure 28
0100
0010
1010
1000
,  // measure 29
0001
0000
0000
0000
0021
0000
0030
0000
0000
0000
0000
0000
010M
0000
0000
1000
,  // measure 30
0010
0000
0100
0000
0001
0010
0100
0001
,  // measure 31
01M0
1000
0001
0100
0101
0000
1010
0000
,  // measure 32
1100
0000
0011
0000
0000
0000
0010
0100
,  // measure 33
1001
0000
1000
0000
0000
0001
0000
0100
,  // measure 34
0010
1000
0010
0M01
0010
0010
0100
0100
,  // measure 35
0000
0000
0001
0000
0000
0000
0010
0000
0100
0000
1000
0100
1000
0000
0100
0000
,  // measure 36
0110
0000
0010
0000
0000
0001
0000
1000
,  // measure 37
0010
0100
0001
01M0
1000
1000
0100
0100
,  // measure 38
0000
0000
0000
0010
0000
0000
0000
0000
0000
1000
0000
0000
0001
0000
0010
0000
0100
0000
1000
0000
0100
0000
0010
0000
,  // measure 39
0002
0000
0010
0000
0000
1000
0003
0010
,  // measure 40
0100
0001
0010
0100
2000
0000
0010
0010
,  // measure 41
0000
0000
0001
0000
0000
0000
3100
0000
1000
0000
0010
1000
0010
0000
0000
0000
,  // measure 42
0100
0000
0110
0000
0000
1001
0000
1000
,  // measure 43
0010
0000
0001
0000
0010
0000
0100
0000
1001
0000
0000
1000
001M
0000
0000
0100
,  // measure 44
M001
0000
0200
0010
0010
00L0
0010
0300
,  // measure 45
0001
0000
000L
0001
0000
0000
1000
0000
,  // measure 46
1000
0000
L000
1000
0000
0000
0001
0000
,  // measure 47
0001
0100
0010
1000
0100
0001
0100
1000
,  // measure 48
0010
0100
0001
1000
0010
0100
1000
0100
,  // measure 49
0001
0010
0001
0100
1000
0100
0010
1000
,  // measure 50
0100
0010
0100
1000
0001
0010
0100
M000
,  // measure 51
0100
0010
0100
1000
0010
0001
0010
1000
,  // measure 52
0100
1000
0010
0100
0001
0010
0100
0001
,  // measure 53
0100
1000
0001
0010
0100
1000
0100
0010
,  // measure 54
1001
0M10
1001
020M
,  // measure 55
4300
0000
3000
0000
0100
0010
0001
0010
,  // measure 56
0400
0000
0300
0000
1000
0010
0001
0010
,  // measure 57
0400
0000
0300
0000
0010
1000
0001
0010
,  // measure 58
0100
0000
0000
1000
0MM1
0000
0000
0000
1000
0000
0000
0010
M10M
0000
0000
0000
,  // measure 59
0110
0000
0MM0
0000
1001
0000
000M
1000
,  // measure 60
1100
0000
MM00
0000
0011
0000
00M0
0001
,  // measure 61
1000
0000
0010
0100
0000
0010
0100
0000
0001
0000
0100
0000
0010
0000
1000
0000
,  // measure 62
0020
0000
0200
0030
0000
0000
0000
0310
,  // measure 63
1000
0000
0001
0000
0M10
0000
0001
0000
1000
0000
0100
0010
0000
0000
0001
0000
,  // measure 64
0100
0000
0010
0000
100M
0000
0100
0010
0000
0000
0001
0000
0100
1000
00M0
0000
,  // measure 65
0100
0001
0000
0000
0010
0000
0001
0000
1000
0000
0100
0001
00M0
0100
1000
0000
,  // measure 66
0001
0100
0010
1000
0100
0010
0001
0001
,  // measure 67
0100
0000
0100
0000
0010
0000
1000
0000
0100
0000
0010
0001
0M00
1000
0010
0000
,  // measure 68
0100
0000
0001
0000
0M10
0000
0001
0010
0000
0000
0100
0010
0100
0000
1000
0000
,  // measure 69
0001
0000
1000
0000
0210
0000
0000
0302
0000
0000
0203
0000
0000
0320
0000
0000
,  // measure 70
1030
0000
0000
0000
0002
0000
0000
0023
0000
0000
0230
0000
0000
2300
0000
0000
,  // measure 71
3002
0013
00LL
0000
1100
0000
0000
1000
,  // measure 72
0001
0010
0000
0000
0001
0000
0100
0000
0010
0000
0M01
0000
0010
0000
1000
0000
,  // measure 73
0001
0000
0010
0000
0100
0000
1000
0100
0000
0000
1000
0010
0000
0100
0001
0000
,  // measure 74
0100
0010
1000
0100
0010
0001
10M0
1000
,  // measure 75
0M01
0000
0001
0000
0010
0000
1000
0010
0000
0000
0001
0000
0100
1000
0000
0000
,  // measure 76
0100
0001
0010
0100
0001
0100
0010
0001
,  // measure 77
1000
0000
0010
0000
2000
0000
0000
3002
0M00
0000
0023
0000
M000
0032
0000
0000
,  // measure 78
0103
0000
0010
0000
2000
0000
0000
3020
000M
0000
0230
0000
M000
0302
0000
0000
,  // measure 79
0013
0100
110M
0000
0100
0001
00M0
0100
,  // measure 80
1000
0000
010M
0010
0000
0100
1001
0000
,  // measure 81
1M1M
0000
0110
0000
M100
0001
0000
0010
,  // measure 82
1000
000M
0010
0001
0000
0100
0110
0000
,  // measure 83
1M1M
0000
2001
0000
0000
3200
0000
0000
,  // measure 84
0320
0000
0000
0030
0000
0000
0004
4000
0000
0000
0000
0000
0000
0000
0000
0000
0000
0000
0000
0000
0000
0000
0000
0000
,  // measure 85
3003
0000
00M1
0000
0000
M010
0000
0000
,  // measure 86
2000
0M1M
0000
3M1M
,  // measure 87
0110
0000
0000
0000
1001
0000
0000
0000
0001
0000
0000
0100
100M
0000
0100
0000
,  // measure 88
0010
1000
0001
0000
0010
0100
1000
0100
,  // measure 89
0010
1M00
0010
0000
0001
1000
0001
0010
,  // measure 90
0100
0L00
0100
0000
1000
0010
M001
0010
,  // measure 91
1000
0000
0100
0000
1000
0000
0000
0000
0010
0000
0M00
0001
1000
0000
0100
0000
,  // measure 92
0001
0010
0100
0000
0010
00L0
0010
0000
,  // measure 93
0001
000L
0001
0000
1000
0000
0010
0100
,  // measure 94
M001
0010
1000
0000
0010
0000
0001
0100
,  // measure 95
0010
0M01
0020
0000
0000
0000
0000
0000
,  // measure 96
0000
0000
0000
0000
0000
0030
0000
00L0
,  // measure 97
00M0
00M0
2002
0000
0000
0000
0000
0000
,  // measure 98
0000
0000
0000
0000
,  // measure 99
0000
0000
0000
0000
,  // measure 100
0000
3003
0000
0000
;

//---------------dance-single - ----------------
#NOTES:
     dance-single:
     :
     Beginner:
     2:
     0.138,0.179,0.043,0.094,0.000: // measure 1
0000
0000
0000
0000
,  // measure 2
0000
0000
0000
0000
,  // measure 3
0000
0000
0000
0000
,  // measure 4
0000
0000
0000
0000
,  // measure 5
0000
0000
0000
0000
,  // measure 6
0000
0000
0000
0000
,  // measure 7
0000
0000
0000
0000
,  // measure 8
0000
0000
0000
0000
,  // measure 9
1000
0000
0000
0001
,  // measure 10
0000
0000
1000
0000
,  // measure 11
0000
0010
0000
0000
,  // measure 12
0100
0000
0000
0010
,  // measure 13
0000
0000
1000
0000
,  // measure 14
0000
0001
0000
0000
,  // measure 15
0100
0000
0000
0010
,  // measure 16
0000
0000
1000
0000
,  // measure 17
0000
0010
0000
0000
,  // measure 18
0100
0000
0000
0001
,  // measure 19
0000
0000
0010
0000
,  // measure 20
0000
0200
0300
0000
,  // measure 21
1000
0000
0000
0001
,  // measure 22
0000
0000
0010
0000
,  // measure 23
0000
0001
0000
0000
,  // measure 24
0100
0000
0000
0010
,  // measure 25
0000
1000
0010
0000
,  // measure 26
0000
0100
0000
0000
,  // measure 27
0001
0000
0000
0010
,  // measure 28
0000
0000
0100
0000
,  // measure 29
0000
1000
0000
0000
,  // measure 30
0001
0000
0000
1000
,  // measure 31
0000
0000
1001
0000
,  // measure 32
0000
0001
0000
0000
,  // measure 33
0000
1000
0000
0000
,  // measure 34
0001
0000
0000
0100
,  // measure 35
0000
0000
0010
0000
,  // measure 36
0000
1000
0000
0000
,  // measure 37
0010
0000
0000
0100
,  // measure 38
0000
0000
0001
0000
,  // measure 39
2000
0000
0000
0000
,  // measure 40
3000
0000
0020
0000
,  // measure 41
0000
0000
0030
0000
,  // measure 42
1000
0010
0000
0000
,  // measure 43
1000
0000
0001
0000
,  // measure 44
0000
0020
0000
0030
,  // measure 45
0001
0000
0000
0000
,  // measure 46
1000
0000
0000
0000
,  // measure 47
0010
0000
0000
0000
,  // measure 48
0100
0000
0000
0000
,  // measure 49
0001
0000
0010
0000
,  // measure 50
0100
0000
1000
0000
,  // measure 51
0010
0000
0000
0000
,  // measure 52
0100
0000
0000
0000
,  // measure 53
0001
0000
1000
0000
,  // measure 54
0001
0000
0100
0000
,  // measure 55
0020
0030
0000
0000
,  // measure 56
2000
3000
0000
0000
,  // measure 57
0200
0300
0000
0000
,  // measure 58
0010
0000
0001
0000
,  // measure 59
0100
0000
0001
0000
,  // measure 60
1000
0000
0010
0000
,  // measure 61
1000
0000
0001
0000
,  // measure 62
2000
0000
0000
0000
,  // measure 63
3000
0100
0000
0010
,  // measure 64
0000
0001
0000
0000
,  // measure 65
0000
0100
0000
0010
,  // measure 66
0000
1000
0000
0000
,  // measure 67
0000
1001
0000
0000
,  // measure 68
0000
0110
0000
0000
,  // measure 69
0000
1001
0000
0000
,  // measure 70
0000
0000
0000
0001
,  // measure 71
0000
1000
0000
0000
,  // measure 72
0100
0000
0010
0000
,  // measure 73
0001
0000
0000
0000
,  // measure 74
0100
0000
0000
0010
,  // measure 75
0000
1000
0000
0000
,  // measure 76
0000
0000
0001
0000
,  // measure 77
0000
1001
0000
0000
,  // measure 78
0000
0000
1000
0000
,  // measure 79
0000
0010
0000
0000
,  // measure 80
0100
0000
0000
0001
,  // measure 81
0000
0100
0000
0000
,  // measure 82
0010
0000
0000
1000
,  // measure 83
0000
0100
0000
0000
,  // measure 84
0000
0020
0000
0000
,  // measure 85
0030
0001
0000
0000
,  // measure 86
0200
0000
0000
0000
,  // measure 87
0300
0010
0000
0000
,  // measure 88
0000
1000
0000
0000
,  // measure 89
0000
0001
0000
0000
,  // measure 90
0000
0010
0000
0001
,  // measure 91
0000
0100
0000
0000
,  // measure 92
0000
0010
0000
0000
,  // measure 93
0000
1000
0000
0000
,  // measure 94
0000
0001
0000
0000
,  // measure 95
0000
0020
0000
0000
,  // measure 96
0000
0000
0030
0000
,  // measure 97
0000
2002
0000
0000
,  // measure 98
0000
0000
0000
0000
,  // measure 99
0000
0000
0000
0000
,  // measure 100
0000
3003
0000
0000
;
