#TITLE:The Goblin Returns;
#SUBTITLE:;
#ARTIST:Skaven;
#TITLETRANSLIT:;
#SUBTITLETRANSLIT:;
#ARTISTTRANSLIT:;
#CREDIT:348;
#BANNER:The Goblin Returns Banner.png;
#BACKGROUND:The Goblin Returns Background.png;
#LYRICSPATH:;
#CDTITLE:;
#MUSIC:The Goblin Returns.ogg;
#OFFSET:-1.719;
#SAMPLESTART:47.190;
#SAMPLELENGTH:15.000;
#SELECTABLE:YES;
#BPMS:0.000=102.170,32.000=110.943,33.000=104.465,34.000=116.211,36.000=130.912,37.000=143.843,38.000=135.999,40.000=148.152,41.000=130.757,43.000=134.458,45.000=136.497,47.000=133.738,49.000=137.985,53.000=136.329,57.000=135.964,61.000=135.304,65.000=163.454,89.000=81.849,93.000=163.323,265.000=68.222,266.000=61.521,268.000=322.998,273.000=157.772;
#STOPS:269.000=1.240
,271.000=1.776
,273.000=0.505
;
#BGCHANGES:;

//---------------dance-single - ----------------
#NOTES:
     dance-single:
     :
     Beginner:
     2:
     0.108,0.142,0.000,0.008,0.000: // measure 1
0000
0000
0000
0000
,  // measure 2
0000
0000
0000
0000
,  // measure 3
1000
0000
0000
0100
,  // measure 4
0000
0000
0010
0000
,  // measure 5
0000
0001
0000
0000
,  // measure 6
1000
0000
0000
0010
,  // measure 7
0000
0000
0100
0000
,  // measure 8
0000
0001
0000
0000
,  // measure 9
0000
1000
0000
0000
,  // measure 10
0000
1000
0000
0000
,  // measure 11
0000
0001
0000
0000
,  // measure 12
0000
0001
0000
0000
,  // measure 13
0000
0100
0000
0000
,  // measure 14
0000
0100
0000
0000
,  // measure 15
0000
0010
0000
0000
,  // measure 16
0000
0010
0000
0000
,  // measure 17
0000
1000
0000
0000
,  // measure 18
0000
0100
0000
0000
,  // measure 19
0000
1000
0000
0000
,  // measure 20
0000
0100
0000
0000
,  // measure 21
0000
0010
0000
0000
,  // measure 22
0000
0001
0000
0000
,  // measure 23
0000
0010
0000
0001
,  // measure 24
0000
1000
0000
0000
,  // measure 25
0000
0001
0000
0000
,  // measure 26
0000
1000
0000
0001
,  // measure 27
0000
1000
0000
0000
,  // measure 28
0000
0010
0000
0000
,  // measure 29
0000
0100
0000
0000
,  // measure 30
0000
0010
0000
0100
,  // measure 31
0000
0010
0000
0000
,  // measure 32
0000
1000
0000
1000
,  // measure 33
0000
0001
0000
0000
,  // measure 34
0000
0100
0000
0100
,  // measure 35
0000
0010
0000
0000
,  // measure 36
0000
0010
0000
0010
,  // measure 37
0000
0100
0000
0000
,  // measure 38
0000
0001
0000
0001
,  // measure 39
0000
1000
0000
0000
,  // measure 40
0000
0001
0000
0000
,  // measure 41
0001
0010
0000
0000
,  // measure 42
0010
0100
0000
0000
,  // measure 43
0100
1000
0000
0000
,  // measure 44
0000
1000
0000
0000
,  // measure 45
1000
0100
0000
0000
,  // measure 46
0100
0010
0000
0000
,  // measure 47
0010
0001
0000
0000
,  // measure 48
0000
1000
0000
0000
,  // measure 49
0000
0001
0000
0000
,  // measure 50
0000
1000
0000
0010
,  // measure 51
0000
0100
0000
0001
,  // measure 52
0000
0100
0000
0000
,  // measure 53
0000
0010
0000
0000
,  // measure 54
0000
0100
0000
0001
,  // measure 55
0000
1000
0000
0010
,  // measure 56
0000
1000
0000
0100
,  // measure 57
0000
1000
0000
0000
,  // measure 58
0000
0001
0000
0010
,  // measure 59
0000
0001
0000
0000
,  // measure 60
0000
0100
0000
0001
,  // measure 61
0000
0100
0000
0000
,  // measure 62
0000
0010
0000
1000
,  // measure 63
0000
0010
0000
0000
,  // measure 64
0000
1000
0000
0010
,  // measure 65
0000
0100
0000
0001
,  // measure 66
0000
0010
0000
0100
,  // measure 67
0000
1000
0002
0000
,  // measure 68
0000
0000
0000
0000
,  // measure 69
0000
0000
0000
0000
,  // measure 70
0000
0000
0000
0000
,  // measure 71
0000
0003
0000
0000
;

//---------------dance-single - ----------------
#NOTES:
     dance-single:
     :
     Easy:
     4:
     0.260,0.256,0.129,0.154,0.000: // measure 1
0000
0000
0000
0000
,  // measure 2
0000
0000
0000
0000
,  // measure 3
1000
0000
1000
0001
,  // measure 4
0000
0001
0100
0000
,  // measure 5
0100
0020
0000
0030
,  // measure 6
0010
0000
0010
1000
,  // measure 7
0000
1000
0001
0000
,  // measure 8
0001
0200
0000
0300
,  // measure 9
0100
0001
0000
0010
,  // measure 10
0000
0100
0000
1000
,  // measure 11
0000
0001
0000
0100
,  // measure 12
0000
0010
0000
1000
,  // measure 13
0000
0002
0000
0003
,  // measure 14
1000
2000
0000
3000
,  // measure 15
0010
0020
0000
0030
,  // measure 16
0100
0200
0000
0300
,  // measure 17
0001
1000
0000
1000
,  // measure 18
0000
0100
0000
0100
,  // measure 19
0000
0010
0000
0010
,  // measure 20
0000
0001
0000
0001
,  // measure 21
0000
1000
0000
0001
,  // measure 22
0000
0100
0000
0010
,  // measure 23
0000
0100
0010
1000
,  // measure 24
0001
1000
0100
1100
,  // measure 25
0000
0001
0010
0011
,  // measure 26
0000
1000
0100
0010
,  // measure 27
0001
0200
0000
0010
,  // measure 28
0310
1000
0001
0010
,  // measure 29
0001
1000
0001
1000
,  // measure 30
0000
0001
1000
0100
,  // measure 31
1000
0001
1000
0001
,  // measure 32
0000
0100
0001
0101
,  // measure 33
0000
0010
1000
1010
,  // measure 34
0000
0001
1000
0010
,  // measure 35
0100
1001
0000
0110
,  // measure 36
0000
2000
3001
1000
,  // measure 37
0000
0020
0130
0010
,  // measure 38
0000
1000
0001
0100
,  // measure 39
0010
2000
0000
0001
,  // measure 40
3001
1000
0010
0100
,  // measure 41
0010
1000
0000
0001
,  // measure 42
1000
0001
0100
0010
,  // measure 43
0100
0001
0000
1000
,  // measure 44
0001
1100
0000
0001
,  // measure 45
1000
0011
0000
0100
,  // measure 46
0010
1001
0000
0110
,  // measure 47
0000
0110
0000
1001
,  // measure 48
0000
1000
0100
0010
,  // measure 49
0001
1000
0100
0010
,  // measure 50
0100
1000
0100
0001
,  // measure 51
0100
1000
0000
0001
,  // measure 52
1001
0001
0100
0010
,  // measure 53
1000
0001
0010
0100
,  // measure 54
0010
0001
0010
1000
,  // measure 55
0010
0001
0000
1000
,  // measure 56
1001
1000
0100
0020
,  // measure 57
0000
0031
0010
0200
,  // measure 58
0000
1300
0001
0010
,  // measure 59
0100
0010
0001
2000
,  // measure 60
0000
3001
0010
0002
,  // measure 61
0000
1003
0100
2000
,  // measure 62
0000
3010
0100
0010
,  // measure 63
0100
0002
0000
0023
,  // measure 64
0000
0031
0000
0110
,  // measure 65
0000
1000
0000
0110
,  // measure 66
0000
0001
1000
0001
,  // measure 67
1000
0020
0000
0000
,  // measure 68
0000
0130
0000
0010
,  // measure 69
0000
0200
0000
0000
,  // measure 70
0000
0000
0000
0000
,  // measure 71
0000
0300
0000
0000
;

//---------------dance-single - ----------------
#NOTES:
     dance-single:
     :
     Medium:
     7:
     0.423,0.426,0.251,0.275,0.000: // measure 1
0000
0000
0000
0000
,  // measure 2
0000
0000
0000
0000
,  // measure 3
1000
1000
0100
0001
,  // measure 4
0001
0100
1000
0001
,  // measure 5
1000
0020
0000
0130
,  // measure 6
0001
0001
0010
1000
,  // measure 7
1000
0010
0001
1000
,  // measure 8
0001
0200
0000
0000
,  // measure 9
0310
1000
0100
1000
,  // measure 10
0100
0010
0001
0010
,  // measure 11
0001
0000
1000
0000
0001
0010
0001
0000
,  // measure 12
1000
0100
1000
0000
0010
0100
0010
0000
,  // measure 13
0110
0000
0001
0000
1000
0010
1000
0000
,  // measure 14
0101
0000
1000
0000
0001
0100
0001
0000
,  // measure 15
1010
0001
0011
0001
,  // measure 16
0101
1000
1100
1000
,  // measure 17
1010
2000
0100
0100
,  // measure 18
3100
0020
0001
0001
,  // measure 19
0031
0000
1000
0000
0001
0000
1000
0001
,  // measure 20
0100
0000
0010
1000
0001
0000
0100
0010
,  // measure 21
0100
0002
0010
0010
,  // measure 22
0013
0200
1000
1000
,  // measure 23
1300
2000
3001
0020
,  // measure 24
0130
0000
1000
0000
0100
0000
1000
0010
,  // measure 25
1000
0000
0001
0000
0010
0000
0001
0100
,  // measure 26
0001
0000
1000
0000
0110
0000
1000
0001
,  // measure 27
0010
0000
0100
1000
0001
0000
1000
0001
,  // measure 28
1000
0000
0001
0010
0001
0000
0001
0010
,  // measure 29
0001
1000
1100
1000
,  // measure 30
1010
0000
1000
0100
1000
0000
1000
0100
,  // measure 31
1000
0001
0011
0001
,  // measure 32
0101
2000
3100
0020
,  // measure 33
0031
0002
0013
0200
,  // measure 34
1300
1000
0110
0001
,  // measure 35
0110
0000
1000
0001
1000
0000
0010
0100
,  // measure 36
0010
2000
3010
0200
,  // measure 37
0301
0002
0103
0020
,  // measure 38
1030
0010
1001
0100
,  // measure 39
1001
0000
0020
0000
1030
0001
0100
0001
,  // measure 40
1000
0000
0001
0100
0001
0000
1000
0010
,  // measure 41
1000
0000
0010
0100
0010
0000
0200
0000
,  // measure 42
0310
0000
1000
0100
1000
0000
0001
0010
,  // measure 43
0001
0000
1000
0001
1000
0000
0002
0000
,  // measure 44
1003
0000
0001
1000
0001
0000
1000
0000
,  // measure 45
0011
0000
0100
0010
0100
0000
0001
0000
,  // measure 46
1100
0010
1010
0100
,  // measure 47
0101
0002
2003
3020
,  // measure 48
0230
0000
0301
0000
1000
0100
0010
0000
,  // measure 49
0001
0000
1000
0000
0001
0010
0100
0000
,  // measure 50
1000
0001
1001
1000
,  // measure 51
1001
0000
0110
0000
0001
1000
0100
1000
,  // measure 52
0001
0000
1000
0000
0001
0100
0010
0000
,  // measure 53
1000
0000
0001
0000
1000
0010
0100
0000
,  // measure 54
0001
0100
0110
0010
,  // measure 55
0110
0000
1001
0000
0100
0010
0100
0000
,  // measure 56
1001
0000
0100
0000
0001
0100
0010
0000
,  // measure 57
0100
0000
0010
0000
1000
0010
0100
0000
,  // measure 58
0010
1000
0011
1000
,  // measure 59
0101
0000
1000
0000
0001
1000
0010
1000
,  // measure 60
0001
2000
3010
0020
,  // measure 61
1030
0002
0103
0200
,  // measure 62
0301
0001
1100
0001
,  // measure 63
1010
0000
0001
0000
1000
0001
0100
0001
,  // measure 64
1000
0002
0010
0100
,  // measure 65
1003
2000
0100
0010
,  // measure 66
3001
0200
0310
0020
,  // measure 67
0130
2000
3002
0000
,  // measure 68
0000
1003
0000
0001
,  // measure 69
0000
2000
0000
0000
,  // measure 70
0000
0000
0000
0000
,  // measure 71
0000
3000
0000
0000
;

//---------------dance-single - ----------------
#NOTES:
     dance-single:
     :
     Hard:
     8:
     0.512,0.483,0.324,0.308,0.000: // measure 1
0000
0000
0000
0000
,  // measure 2
0000
0000
0000
0000
,  // measure 3
1000
0000
0100
1000
0100
0000
0020
0000
,  // measure 4
0031
0000
1001
0000
0001
0000
0010
0001
,  // measure 5
0010
0200
1000
1300
,  // measure 6
1000
0000
0001
0100
0001
0000
2000
0000
,  // measure 7
3001
0000
0110
0000
0001
0000
1000
0100
,  // measure 8
1000
0002
0100
0010
,  // measure 9
1003
0000
1000
0000
0100
0010
0001
0000
,  // measure 10
1100
0000
0001
0000
0010
0100
1000
0000
,  // measure 11
0011
0000
1010
0000
0101
0000
1000
0001
,  // measure 12
0100
0001
1000
0000
0001
0000
1100
0000
,  // measure 13
0101
0000
0100
0000
0001
0100
0010
0000
,  // measure 14
0101
0000
0010
0000
1000
0010
0100
0000
,  // measure 15
1010
0000
0011
0000
1010
0000
0001
1000
,  // measure 16
0100
1000
0001
0000
1000
0001
0100
0010
,  // measure 17
0100
0001
2000
0000
3001
0010
0100
0000
,  // measure 18
0010
0000
0002
0000
1003
0100
0010
0000
,  // measure 19
0100
0000
1001
0000
0110
0000
1000
0100
,  // measure 20
0001
0100
1000
0000
0001
0010
1000
0010
,  // measure 21
0001
0000
0200
0000
0301
0100
0010
0000
,  // measure 22
0100
0000
0020
0000
1030
0010
0100
0000
,  // measure 23
0010
2100
3001
0012
,  // measure 24
1003
0000
0011
0000
1000
0100
1000
0010
,  // measure 25
1000
0001
1000
0000
0001
0010
0001
0000
,  // measure 26
1100
0000
1010
0000
0001
0010
0001
0100
,  // measure 27
0001
1000
0001
0000
1000
0100
1000
0000
,  // measure 28
0101
0000
1000
0001
0100
0001
1000
0010
,  // measure 29
1000
0001
1000
0100
0010
0002
0000
1000
,  // measure 30
1003
0000
0001
0100
0010
1000
0010
1000
,  // measure 31
0001
0100
0001
0100
0010
2000
0000
0001
,  // measure 32
3001
0000
1000
0001
0100
0000
0100
0001
,  // measure 33
1000
0000
0001
0010
0100
1000
0001
0000
,  // measure 34
0110
0000
0001
1000
0010
0000
0010
1000
,  // measure 35
0001
0000
1000
0010
0100
0001
0010
0100
,  // measure 36
1000
0000
0011
0000
1000
0100
0010
0100
,  // measure 37
1000
0000
1100
0000
0001
0010
0100
0010
,  // measure 38
0001
0000
0001
0100
0010
0000
0100
0010
,  // measure 39
1000
0000
0001
0010
1000
0001
0100
1000
,  // measure 40
0001
1000
0002
0000
0013
0000
0200
0000
,  // measure 41
1300
0000
1100
0000
0011
0000
1000
0010
,  // measure 42
0001
0010
2000
0000
3010
0000
0200
0000
,  // measure 43
0301
0000
0101
0000
1010
0000
0001
0100
,  // measure 44
1000
0100
0002
0000
1003
0100
0010
0001
,  // measure 45
1000
0000
0200
0000
1300
0001
0100
0010
,  // measure 46
1000
0012
0103
2010
,  // measure 47
3100
0000
1001
0000
1000
0100
0010
0001
,  // measure 48
1000
0001
2000
0000
3100
0000
0100
1000
,  // measure 49
0100
0000
0020
0000
0031
0000
0001
0010
,  // measure 50
0001
0000
1000
0100
0001
0000
0001
0100
,  // measure 51
1000
0000
1000
0100
0001
0100
1000
0001
,  // measure 52
1000
0000
0002
0000
0103
0000
0100
0001
,  // measure 53
0100
0000
0020
0000
1030
0000
1000
0010
,  // measure 54
1000
0000
0001
0010
1000
0000
1000
0010
,  // measure 55
0001
0000
0001
0010
1000
0010
0001
1000
,  // measure 56
0001
0000
1000
0000
1000
0100
0020
0000
,  // measure 57
0031
0000
0001
0000
0001
0010
0200
0000
,  // measure 58
1300
1000
1010
0001
,  // measure 59
0101
0000
1000
0100
0010
0001
1000
0010
,  // measure 60
0100
0001
1000
0100
0020
0000
0130
0010
,  // measure 61
0001
0000
0001
0010
0200
0000
0310
0100
,  // measure 62
1000
2100
3010
0102
,  // measure 63
0013
0000
0110
0000
0001
1000
0001
0000
,  // measure 64
0110
0000
0002
0000
1003
0000
0001
1000
,  // measure 65
0001
0000
0200
0000
0310
0000
0100
0010
,  // measure 66
0100
1002
1003
0210
,  // measure 67
0310
0002
2000
3003
,  // measure 68
1000
0001
1000
0001
,  // measure 69
0110
0220
0000
0000
,  // measure 70
0000
0000
0000
0000
,  // measure 71
0000
0330
0000
0000
;

//---------------dance-single - ----------------
#NOTES:
     dance-single:
     :
     Challenge:
     9:
     0.597,0.540,0.445,0.227,0.113: // measure 1
0000
0000
0000
0000
,  // measure 2
0000
0000
0000
0000
,  // measure 3
1000
0100
0001
0100
1000
0001
1000
0000
,  // measure 4
0011
0000
1100
0000
0001
0010
1000
0010
,  // measure 5
0001
1000
0002
0000
1003
0001
2000
0000
,  // measure 6
3001
0010
0100
1000
0010
0100
0001
0000
,  // measure 7
1010
0000
0101
0000
1000
0100
0010
0001
,  // measure 8
1000
0001
0200
0000
0001
0000
0320
0000
,  // measure 9
1030
0000
1001
0000
0001
0010
0001
0000
,  // measure 10
1001
0000
0110
0000
0100
0010
0100
0000
,  // measure 11
0110
0000
1010
0000
0101
0000
1000
0100
,  // measure 12
0010
0100
2000
0000
3001
1000
0010
0100
,  // measure 13
0010
1000
0101
0000
0100
0001
0100
0000
,  // measure 14
0101
0000
1010
0000
0010
1000
0010
0000
,  // measure 15
1010
0000
1100
0000
0011
0000
1000
0100
,  // measure 16
0010
0001
0200
0000
0301
0100
0010
1000
,  // measure 17
0010
0000
0100
0000
0002
0000
0000
0000
1003
0000
0100
0000
2000
0000
0000
3001
,  // measure 18
1000
0000
0000
0000
0020
0000
0000
0000
0130
0000
0010
0000
0200
0000
0000
0310
,  // measure 19
0100
0000
1010
0000
0101
0000
1000
0100
,  // measure 20
0010
0000
0100
1000
0200
0000
0000
0000
0310
0000
0001
0000
0100
0000
0001
0000
,  // measure 21
1000
0000
0001
0100
0002
0000
0000
0000
0103
0000
0001
0000
0200
0000
0000
0310
,  // measure 22
0100
0000
0000
0000
0020
0000
0000
0000
1030
0000
0010
0000
2000
0000
0000
3100
,  // measure 23
1000
0012
0100
1000
,  // measure 24
0100
0000
0013
0001
1000
0100
1000
0001
,  // measure 25
0100
0010
1000
0100
0001
0100
1000
0100
,  // measure 26
0010
0001
0100
0001
1000
0010
1000
0001
,  // measure 27
0010
0100
1000
0010
0001
0010
1000
0010
,  // measure 28
0100
0000
0001
0000
1000
0000
0001
0100
0001
0000
1000
0000
0001
0000
0010
0000
,  // measure 29
0001
0010
0100
1000
0100
2000
0000
0001
,  // measure 30
3001
0000
0000
0000
0001
0000
1000
0100
1000
0000
0001
0000
1000
0000
0010
0000
,  // measure 31
1000
0010
0100
0001
0100
0002
0000
1000
,  // measure 32
1003
0000
0000
0000
1001
0000
0000
1000
0100
0000
0000
0100
0010
0000
0000
0010
,  // measure 33
0001
0000
0000
0001
0100
0000
0000
0100
0010
0000
0000
0010
1000
0000
0000
1000
,  // measure 34
0001
0000
0000
0001
1000
0000
0000
1000
0001
0000
0000
0100
0010
0000
0000
0010
,  // measure 35
0100
0000
0000
0100
0001
0010
0001
0000
1000
0000
0100
0000
1000
0000
0001
0000
,  // measure 36
1000
0010
0200
0000
0301
0010
1000
0010
,  // measure 37
0001
1000
0020
0000
1030
0100
0001
0100
,  // measure 38
1000
0001
2000
0000
3001
1000
0010
0100
,  // measure 39
0001
1000
0002
0000
0010
0000
0100
0000
,  // measure 40
1003
0000
0000
0000
1000
0000
0100
0000
1000
0000
0000
0000
0001
0000
0010
0001
,  // measure 41
0010
0000
0000
0000
0001
0000
0010
0000
0001
0000
0000
0000
1000
0000
0100
1000
,  // measure 42
0100
0000
0000
0000
1000
0000
0001
0000
1000
0000
0000
0000
0010
0000
0100
0010
,  // measure 43
0100
0000
0001
0010
0001
0100
0010
1000
,  // measure 44
0100
0000
1000
0100
1000
0010
0100
0001
,  // measure 45
0010
0000
0001
1000
0001
1000
0010
0100
,  // measure 46
0010
0100
0001
1000
0010
0100
0001
1000
,  // measure 47
0010
0100
0011
0000
1010
0000
1100
0000
,  // measure 48
0101
0000
1000
0100
1100
0000
0001
0010
,  // measure 49
0011
0000
1000
0001
0100
0010
0100
0001
,  // measure 50
1001
0000
0001
0010
0100
1000
0010
0100
,  // measure 51
0001
0000
1000
0000
0001
0000
0100
0010
0100
0000
0001
0000
1000
0000
0000
0000
,  // measure 52
0110
0000
1000
0010
1010
0000
0001
0100
,  // measure 53
0101
0000
1000
0100
0010
0001
0100
0010
,  // measure 54
1001
0000
0001
1000
0100
0010
0100
1000
,  // measure 55
0001
0000
1000
0000
1001
0000
0000
0000
1000
0000
0100
0010
0001
0000
0000
0000
,  // measure 56
0110
0000
1100
0000
1000
0001
0011
0000
,  // measure 57
0100
0010
1000
0100
0001
0100
1000
0000
,  // measure 58
0110
0000
0000
0000
0001
0000
1000
0100
1000
0000
0001
0000
1000
0000
0100
0000
,  // measure 59
0010
0001
1000
0010
0100
0001
1000
0001
,  // measure 60
1000
0000
0001
0001
0101
0000
1000
1000
,  // measure 61
1010
0000
0001
0010
1000
0010
0001
0000
,  // measure 62
0110
1100
0101
0011
,  // measure 63
1010
0000
0000
0000
0110
0000
0000
0000
0001
0000
0010
0100
1000
0000
0000
0000
,  // measure 64
1001
0000
2000
0000
3001
0010
0100
1000
,  // measure 65
0001
1000
0002
0000
1003
0010
0100
0001
,  // measure 66
0100
0010
1100
0000
0011
0000
0101
0000
,  // measure 67
1010
1001
0220
0330
,  // measure 68
1000
1100
0001
0011
,  // measure 69
1001
2002
0000
0000
,  // measure 70
0000
0000
0000
0000
,  // measure 71
0000
3003
0000
0000
;

//---------------dance-single - ----------------
#NOTES:
     dance-single:
     :
     Edit:
     10:
     0.683,0.768,0.299,0.316,0.324: // measure 1
0000
0000
0000
0000
,  // measure 2
0000
0000
0000
0000
,  // measure 3
1000
0100
0010
0100
1000
0010
0200
0000
,  // measure 4
0301
0010
1000
0010
0001
0010
0100
0010
,  // measure 5
0001
0100
0020
0000
1030
0001
2000
0000
,  // measure 6
3001
0100
0010
0100
0001
1000
0002
0000
,  // measure 7
1003
0100
0001
0100
1000
0010
0100
0010
,  // measure 8
1000
0001
2000
0000
3001
0010
0100
1000
,  // measure 9
0001
0000
0000
0000
1001
0000
0000
0000
1000
0000
0100
0000
0010
0000
0000
0010
,  // measure 10
0001
0000
0000
0000
1001
0000
0000
0000
0001
0000
0010
0000
0100
0000
0000
0100
,  // measure 11
1000
0000
0011
0000
1100
0000
0001
1000
,  // measure 12
0001
0000
1000
0001
1000
0000
0000
0000
0001
0000
0100
0000
0010
0000
1000
0000
,  // measure 13
0001
0000
0100
0010
0100
0000
0000
0000
0001
0000
1000
0000
0010
0000
0000
0010
,  // measure 14
1000
0000
0000
0000
0110
0000
0000
0000
1000
0000
0001
0000
0100
0000
0000
0100
,  // measure 15
0001
0000
0011
0000
1100
0000
0010
0100
,  // measure 16
0010
0000
0100
0010
0100
0000
0000
0000
0010
0000
1000
0000
0001
0000
0100
0000
,  // measure 17
0001
0000
1000
0001
2000
0000
0000
0000
3001
0000
0010
0000
0001
0000
0000
0001
,  // measure 18
0100
0000
0000
0100
0002
0000
0000
0000
1003
0000
0100
0000
1000
0000
0000
1000
,  // measure 19
0010
0000
0000
0010
1000
0000
0000
0000
0110
0000
0000
0000
0001
0000
0100
0000
,  // measure 20
0010
0000
1000
0010
0200
0000
0000
0000
0301
0000
1000
0000
0010
0000
0100
0000
,  // measure 21
0001
1000
0001
1000
0002
0000
0000
0000
1003
0000
0010
0000
1000
0000
0000
1000
,  // measure 22
0100
0000
0000
0100
2000
0000
0000
0000
3001
0000
0100
0000
0001
0000
0000
0001
,  // measure 23
0010
0000
0000
0010
0002
0000
0000
0000
1003
0000
0000
0000
2100
0000
0000
0000
,  // measure 24
3001
0000
0001
1000
0010
0100
0010
1000
,  // measure 25
0001
0000
1000
0100
1000
0000
0100
0000
0010
0000
0001
0000
0010
0000
0100
0000
,  // measure 26
1000
0000
0001
0010
0001
0000
0100
0000
1000
0000
0100
0000
0001
0000
1000
0000
,  // measure 27
0100
0000
1000
0010
1000
0000
0100
0000
0001
0000
0100
0000
1000
0000
0001
0000
,  // measure 28
0010
0000
0001
0100
0001
0000
1000
0100
1000
0000
0100
0010
0100
0000
0010
0001
,  // measure 29
0010
0000
0001
0000
1000
0001
1000
0000
0010
0100
0020
0000
0000
0000
2030
0000
,  // measure 30
0001
0000
3001
0000
1000
0000
0001
0010
0001
0000
0010
0100
0010
0000
0100
1000
,  // measure 31
0100
0000
1000
0000
0001
1000
0001
0000
0100
0010
0200
0000
0000
0000
0302
0000
,  // measure 32
1000
0000
1000
0000
1003
0000
0100
0000
0010
0000
0000
0000
0001
0000
0010
0001
,  // measure 33
0010
0000
0001
0000
0010
0000
0100
0000
1000
0000
0000
0000
0100
0000
1000
0100
,  // measure 34
1000
0000
0100
0000
1000
0000
0010
0000
0100
0000
0000
0000
0001
0000
1000
0001
,  // measure 35
1000
0000
0001
0000
1000
0010
1000
0000
0001
0010
0001
0000
1000
0100
1000
0000
,  // measure 36
0001
0100
0001
0000
1000
0000
0100
0000
0011
0000
0000
0000
0001
0000
0100
0000
,  // measure 37
1010
0000
1000
0010
0101
0000
0001
0010
,  // measure 38
1100
0000
1000
0001
1001
0100
0010
0100
,  // measure 39
0110
0000
0001
0000
1000
0100
1000
0100
1000
0010
1000
0010
0100
0001
0100
0001
,  // measure 40
0010
0001
0010
0001
1000
0000
0100
0000
1010
0000
0000
0000
0001
0000
0010
0000
,  // measure 41
0101
0000
0000
0000
1000
0000
0100
0000
0010
0000
0001
0010
0100
0000
1000
0000
,  // measure 42
1001
0000
0001
0100
0011
0000
1000
0010
,  // measure 43
1100
0000
0000
0000
0001
0000
0100
0000
0010
0000
1000
0010
0100
0000
0001
0000
,  // measure 44
1001
0000
0000
0000
0001
0000
0010
0000
0001
0000
1000
0010
0100
0000
0001
0000
,  // measure 45
0110
0000
0000
0000
1000
0000
0100
0000
1000
0000
0001
0100
0010
0000
1000
0000
,  // measure 46
0110
0000
0000
0000
0001
0010
0100
0000
0010
0100
1000
0000
0001
0100
0010
0000
,  // measure 47
0100
0010
1000
0000
0001
0000
1000
0001
1000
0000
0010
0100
0010
0000
1000
0000
,  // measure 48
0001
0000
0100
0000
0002
0000
0000
0000
1003
0000
0100
1000
0100
0000
0010
0000
,  // measure 49
0001
0000
0100
0000
0101
0000
0000
0000
0001
0000
0010
0001
0010
0000
0100
0000
,  // measure 50
1000
0010
2010
0000
3002
0000
0203
0000
,  // measure 51
0320
0000
0000
0000
1030
0000
0001
0100
0010
0000
0100
0000
0001
0000
1000
0010
,  // measure 52
0100
0000
0010
0000
2000
0000
0000
0000
3001
0000
0100
0001
0100
0000
0010
0000
,  // measure 53
1000
0000
0100
0000
1100
0000
0000
0000
1000
0000
0010
1000
0010
0000
0100
0000
,  // measure 54
0001
0010
0012
0000
2003
0010
3020
0000
,  // measure 55
0230
0000
0000
0000
0301
0000
1000
0001
0100
0000
0010
1000
0001
0000
1000
0000
,  // measure 56
0100
0000
0010
0000
0002
0000
0000
0000
1003
0000
0001
1000
0100
0000
0000
0000
,  // measure 57
1100
0000
0000
0000
2000
0000
0000
0000
3001
0000
1000
0001
0010
0000
0000
0000
,  // measure 58
0011
2010
3100
0012
,  // measure 59
0100
0000
0000
0000
1003
0000
0010
0100
0010
0000
1000
0000
0001
0000
0100
0010
,  // measure 60
0100
0001
1000
0100
0010
0001
1000
0100
,  // measure 61
0001
0100
1000
0010
0001
0010
1000
0010
,  // measure 62
0100
0000
0001
0000
1000
0010
0100
0000
0001
0010
0100
0000
1000
0100
0010
0000
,  // measure 63
0001
0100
0010
0000
2000
0000
0000
0000
3001
0000
0100
0010
0100
0000
0000
0000
,  // measure 64
0002
0000
1003
0100
0020
0000
0031
0010
,  // measure 65
0200
0000
1300
0001
0100
0010
0100
0001
,  // measure 66
2000
0000
0000
0000
3001
0100
0001
0000
1000
0001
0100
0000
0010
1000
0001
0000
,  // measure 67
1000
0100
1000
0000
0002
0000
0000
1000
2000
0000
0000
0000
3003
0000
0000
0000
,  // measure 68
1100
1100
0011
0011
,  // measure 69
1001
2002
0000
0000
,  // measure 70
0000
0000
0000
0000
,  // measure 71
0000
3003
0000
0000
;
