#TITLE:SuperNova;
#SUBTITLE:;
#ARTIST:cranky;
#TITLETRANSLIT:;
#SUBTITLETRANSLIT:;
#ARTISTTRANSLIT:;
#GENRE:;
#CREDIT:Telperion;
#BANNER:;
#BACKGROUND:;
#LYRICSPATH:;
#CDTITLE:;
#MUSIC:supernova.ogg;
#OFFSET:-0.288980;
#SAMPLESTART:67.195000;
#SAMPLELENGTH:14.528000;
#SELECTABLE:YES;
#DISPLAYBPM:165.000000;
#BPMS:0.000000=165.000000;
#STOPS:;
#DELAYS:;
#TIMESIGNATURES:0.000000=4=4
;
#BGCHANGES:;
#KEYSOUNDS:;
#ATTACKS:;

//---------------dance-single - Telperion----------------
#NOTES:
     dance-single:
     Telperion:
     Hard:
     9:
     0.741,0.838,0.512,0.156,0.412,494.000,56.000,17.000,0.000,0.000,0.000,0.000,0.741,0.838,0.512,0.156,0.412,494.000,56.000,17.000,0.000,0.000,0.000,0.000:
0000
0000
0000
0000
,
0000
0000
0000
0000
,
0000
0000
0000
0000
,
0000
0000
0000
0000
,
0000
0000
0000
0000
,
0010
0100
0010
0100
,
1010
0000
0000
0000
0101
0000
0000
0000
0011
0000
0000
0001
0100
0000
0010
0000
,
1010
0000
0000
0000
0101
0000
0000
0000
0011
0000
0000
1000
0001
0000
0010
0000
,
0110
0000
0000
0100
1000
0000
0001
0000
0100
0000
0000
0001
0000
0000
1000
0000
,
0100
0000
0010
0100
1000
0000
0001
0000
0100
0000
0000
0000
0010
0000
0000
0000
,
0210
0000
0300
0000
0001
0100
0001
0100
0002
0000
0003
0000
1000
0100
1000
0100
,
2000
0000
3000
0000
0001
0010
0001
0010
0002
0000
0003
0000
1000
0010
1000
0010
,
0200
0000
0300
0010
1000
0000
0100
0000
0010
0000
0000
0001
0000
0000
1000
0000
,
0001
0000
1000
0010
1000
0000
0001
0010
0001
0000
0100
0000
0010
0000
0000
0000
,
0110
0010
0100
0001
0011
0010
0100
0000
,
0110
0000
0000
0100
1000
0000
0000
1000
0001
0000
0100
0000
0010
0000
0000
0000
,
0110
0001
0100
0010
1000
0000
1000
0001
,
0011
0000
0000
0000
0110
0000
0000
0000
1100
0000
0100
1000
0010
0000
0000
0000
,
0110
0000
0001
0010
0011
0000
0001
1000
,
1010
0000
0110
0000
0101
0000
1000
0100
,
0110
0000
0000
0001
1000
0000
0010
0000
0100
0000
0000
0100
0010
0000
1000
0000
,
0001
0000
0010
0100
0000
0000
0010
0000
0001
0000
0010
0000
0100
0000
1000
0000
,
1010
0000
0000
0000
0001
0000
0010
0000
0110
0000
0000
0010
0001
0000
0100
0000
,
0110
0000
0000
0000
1000
0000
0001
0000
1100
0000
0000
1000
0100
0000
0010
0000
,
0011
0000
0000
0000
1000
0000
0010
0000
0110
0000
0000
0100
0001
0000
0000
0000
,
0011
0000
0000
0000
0110
0000
0000
0000
1100
0000
1000
0001
0200
0000
0300
0000
,
0010
0000
0000
0000
0100
0000
0010
0000
1010
0000
0000
1000
0001
0000
0010
0000
,
0110
0000
0000
0000
0010
0000
0100
0000
1100
0000
0000
1000
0001
0000
0100
0000
,
0110
0000
0000
0000
0001
0000
0010
0000
0100
0000
1000
0100
0010
0000
0001
0000
,
0100
0010
0010
0100
0100
0000
0100
0000
,
1001
0001
0010
0001
0100
0001
0010
0100
,
1000
0010
1000
0100
1000
0010
0110
0000
,
1001
1000
0010
1000
0100
1000
0010
0100
,
0001
0100
1000
0100
0110
0000
0110
0000
,
1001
0001
0010
0001
0100
0010
0100
0001
,
0010
1000
0010
0001
0010
0100
0110
0000
,
1001
1000
0010
1000
0100
0010
0100
1000
,
0010
0000
0001
0000
0010
0000
0100
0000
0001
0010
0000
0010
0100
0000
1000
0000
,
1001
0000
0001
0000
0100
0000
0010
0000
1000
0000
0100
1000
0100
0000
0010
0000
,
0000
0001
0010
1000
0020
0000
0030
0000
,
1001
0000
1000
0000
0010
0000
0100
0000
0001
0000
0010
0100
0010
0000
0001
0000
,
0000
1000
0010
0001
0020
0000
0130
0000
,
1001
0000
0001
0000
0010
0000
0001
0000
0100
0000
0001
0010
0100
0000
1000
0000
,
1001
0000
1000
0000
0010
0000
1000
0000
0001
0000
1000
0010
0100
0000
0001
0000
,
1001
0010
0100
0010
1001
0010
0100
0010
,
0200
0300
0000
0000
,
0001
0000
0000
1000
0000
0000
0010
0000
0000
0100
0000
0000
0001
0000
0100
0000
,
0010
0000
0000
1000
0000
0000
0100
0000
0000
0010
0000
0000
0001
0000
0010
0000
,
0100
0000
0000
1000
0000
0000
0001
0000
0000
1000
0000
0000
0010
0000
0100
0000
,
0001
0000
0000
1000
0000
0000
0001
0000
0000
0010
0000
0000
0010
0000
0100
0000
,
1000
0000
0001
0100
0000
0000
0010
0000
1000
0000
0001
0010
0000
0000
0100
0000
,
0010
0000
0001
0100
0001
0000
0010
0000
0100
0000
1000
0010
1000
0000
0100
0000
,
0001
0000
0000
0100
1000
0000
0000
1000
0010
0000
0000
0001
0010
0000
0000
0010
,
0200
0000
0000
0000
,
0300
0000
0000
0000
,
0010
0100
0010
0100
,
0011
0000
0000
0000
1100
0000
0000
0000
1010
0000
0000
0010
0100
0000
0001
0000
,
0011
0000
0000
0000
1100
0000
0000
0000
1010
0000
0000
1000
0001
0000
0010
0000
,
0110
0000
0000
0100
1000
0000
0010
0000
0100
0000
0000
0001
0000
0000
0100
0000
,
0010
0000
1000
0100
0010
0000
0001
0000
0010
0000
0000
0000
0100
0000
0000
0000
,
0210
0000
0300
0000
1000
0100
1000
0100
2000
0000
3000
0000
0001
0100
0001
0100
,
0002
0000
0003
0000
1000
0010
1000
0010
2000
0000
3000
0000
0001
0010
0001
0010
,
0200
0000
0300
0010
0001
0000
0100
0000
0010
0000
0000
1000
0000
0000
0010
0000
,
0100
0000
0001
0010
0001
0000
1000
0010
1000
0000
0100
0000
0020
0000
0030
0000
,
0001
0000
0100
0000
1000
0000
0100
0000
0001
0000
0100
0010
0100
0000
0001
0000
,
0010
0000
0100
0000
0001
0000
0100
0000
1000
0000
0100
0010
0100
0000
1000
0000
,
0001
0000
0000
0100
0010
0000
1000
0000
0010
0000
0000
0100
0001
0000
0010
0000
,
0100
1000
0001
0010
1000
0010
0001
0100
,
0010
0000
1000
0010
1000
0000
0100
0000
0010
0000
0001
0010
0100
0000
1000
0000
,
0010
0000
1000
0010
1000
0000
0100
0000
0010
0000
0001
1000
0010
0000
0100
0000
,
0001
0000
0010
0100
0010
0000
0010
0000
0001
0000
0100
0010
0100
0000
0001
0000
,
1000
0000
0010
0100
0010
0000
0010
0000
1000
0001
0010
0100
1000
0100
0010
0001
,
1000
0000
0000
0000
0000
0000
0010
0000
0000
0000
0000
0000
0100
0000
0000
0010
0000
0000
0000
0000
0000
1000
0000
0000
0000
0000
0000
0001
0000
0000
0000
0000
0000
0010
0000
0000
0001
0000
0000
0000
1000
0000
0000
0000
0001
0000
0000
0000
,
2000
3000
0000
0000
;

//---------------dance-single - Telperion----------------
#NOTES:
     dance-single:
     Telperion:
     Medium:
     8:
     0.579,0.603,0.512,0.229,0.082,362.000,56.000,25.000,0.000,0.000,0.000,0.000,0.579,0.603,0.512,0.229,0.082,362.000,56.000,25.000,0.000,0.000,0.000,0.000:
2002
0000
0000
0000
,
0000
0000
0000
0000
,
3003
0000
0000
0000
,
0000
0000
0000
0000
,
0000
0000
0000
0000
,
0010
0100
0010
0100
,
1001
0000
0100
0000
0001
0000
0010
0001
,
0100
0000
0010
0000
1000
0000
0010
0100
,
1001
0000
0000
0001
0000
0000
0100
0000
0010
0000
0000
0100
0000
0000
0001
0000
,
0010
0100
0001
0100
0010
0100
1000
0001
,
1001
0000
0100
0000
1000
0000
0010
1000
,
0100
0000
0010
0000
0001
0000
0100
0010
,
1001
0000
0000
0010
0000
0000
0010
0000
0100
0000
0000
0100
0000
0000
0100
0000
,
0001
0100
1000
0100
0001
0100
0010
0000
,
0110
1100
0012
0103
,
1010
0110
2100
3001
,
0011
1100
0120
0031
,
1200
0000
0010
0000
0301
0100
1000
0000
,
0110
0101
0021
1030
,
0110
1100
1002
0013
,
1010
0100
0011
0100
,
0010
0000
0000
1000
0000
0000
0010
0000
0200
0000
0000
0000
0300
0000
0000
0000
,
1001
0000
0100
0000
1000
0000
0010
1000
,
0100
0000
0010
0000
1000
0000
0010
0001
,
1001
0000
0100
0000
0001
0000
0010
0100
,
1000
0000
0100
0000
0010
1000
0010
0100
,
0110
0000
0000
0000
0001
0000
0000
0000
1000
0000
0000
1000
0000
0000
1000
0000
,
0010
0000
0000
0000
0100
0000
0000
0000
0001
0000
0000
0001
0000
0000
0010
0000
,
0011
0000
1000
0010
1010
0000
0100
0001
,
0011
0010
0100
0010
0001
1000
0001
0100
,
0020
0000
0001
0000
1030
0000
0100
0001
,
0020
1000
0031
0110
,
2001
0000
0010
0000
0100
0000
3001
0100
,
0020
0001
1030
0110
,
1002
0000
0010
0000
0100
0000
1003
0100
,
0020
0001
0130
1010
,
0201
0000
0010
0000
1300
0100
0001
0010
,
0100
1000
0100
0001
0100
0000
0100
0000
,
0110
0000
0010
0000
0001
1000
0010
0000
,
0000
0010
0100
0010
1000
0001
0010
0000
,
0110
0000
0010
0000
0100
1000
0001
0100
,
0000
0010
0100
0001
1000
0100
0010
0000
,
0110
0000
0100
0000
1000
0001
0100
0000
,
0010
0100
0010
1000
0001
0010
0100
0000
,
0110
0001
1001
1000
,
0120
0030
0000
0000
,
0002
0010
1000
0013
,
2000
0001
0010
0001
,
3200
0001
0010
1000
,
0320
0000
0001
0000
1030
0010
0001
0100
,
0110
0100
1100
0100
,
0101
0000
0200
0300
1100
0000
0200
0300
,
0101
0000
0000
0001
1000
0000
0000
1000
0100
0000
0000
1000
0001
0000
0000
0001
,
0100
0000
0100
0000
,
0200
0000
0000
0000
,
0310
0100
0010
0100
,
1001
0000
0100
0000
0001
0000
0010
0100
,
1000
0000
0010
0000
1000
0000
0010
0100
,
1001
0000
0000
1000
0000
0000
0100
0000
0010
0000
0000
0100
0000
0000
1000
0000
,
0010
0100
1000
0100
0010
0100
0001
1000
,
1001
0000
0100
0000
1000
0000
0010
0100
,
0001
0000
0010
0000
0001
0000
0100
0010
,
1001
0000
0000
0010
0000
0000
0010
0000
0100
0000
0000
0100
0000
0000
0100
0000
,
1000
0100
0010
0100
0001
0100
0010
0000
,
1001
0010
0000
0010
0100
0010
0000
0010
,
1001
1000
0000
1000
0010
1000
0000
0001
,
1001
0010
0000
1000
1000
0010
0000
0001
,
0001
0010
0010
0100
0100
1000
1000
0010
,
0110
1000
0001
0010
0100
0010
0001
1000
,
0110
0001
1000
0001
0010
0001
1000
0100
,
0110
1000
0001
1000
0100
1000
0001
1000
,
0100
0010
0001
0010
1000
0010
0001
0010
,
0100
0000
0000
0000
1000
0000
0000
0001
0000
1000
0000
0010
0100
0000
0000
0000
,
0020
0030
0000
0000
;

//---------------dance-single - Telperion----------------
#NOTES:
     dance-single:
     Telperion:
     Easy:
     5:
     0.425,0.468,0.174,0.238,0.009,280.000,19.000,26.000,0.000,0.000,0.000,0.000,0.425,0.468,0.174,0.238,0.009,280.000,19.000,26.000,0.000,0.000,0.000,0.000: // measure 1
0000
0000
0000
0000
,  // measure 2
0000
0000
0000
0000
,  // measure 3
0000
0000
0000
0000
,  // measure 4
0000
0000
0000
0000
,  // measure 5
0000
0000
0000
0000
,  // measure 6
0001
1000
0001
1000
,  // measure 7
0010
0100
0001
0100
,  // measure 8
0010
0100
1000
0100
,  // measure 9
0010
0000
1000
0001
0010
0000
0100
1000
,  // measure 10
0010
0000
0100
0010
1000
0010
0100
0001
,  // measure 11
0010
0100
1000
0001
,  // measure 12
0100
0010
1000
0001
,  // measure 13
0010
0000
0100
0010
0001
0000
1000
0010
,  // measure 14
0100
0001
0020
0030
,  // measure 15
0100
0000
0100
0000
0010
0100
0010
0000
,  // measure 16
0001
1000
0001
1000
0010
0100
0010
0000
,  // measure 17
1000
0001
0010
0100
1000
0000
0001
1000
,  // measure 18
0010
0100
0002
0003
,  // measure 19
0100
0000
0100
0000
0010
0100
0010
0000
,  // measure 20
2000
3002
0023
0030
,  // measure 21
0100
0010
0001
1000
0010
0000
0100
0001
,  // measure 22
0010
0000
0000
0001
0000
0000
0100
0000
0020
0000
0000
0000
0030
0000
0000
0000
,  // measure 23
1000
0100
0010
0100
,  // measure 24
0001
0100
0010
0100
,  // measure 25
1000
0000
0001
1000
0010
0000
0100
0001
,  // measure 26
0010
0000
0100
0010
0001
0010
0200
0000
,  // measure 27
0301
0100
1000
0001
,  // measure 28
0100
0010
0001
0010
,  // measure 29
0100
0000
0001
1000
0100
0000
1000
0010
,  // measure 30
0100
0010
0100
0010
0100
0000
0110
0000
,  // measure 31
2002
0000
0000
3003
,  // measure 32
0001
0010
0100
0110
,  // measure 33
0220
0000
0000
0330
,  // measure 34
0010
0100
1000
1001
,  // measure 35
2002
0000
0000
3003
,  // measure 36
1000
0010
0100
0110
,  // measure 37
0220
0000
0000
0330
,  // measure 38
0010
0000
0000
0000
0100
0000
0000
0000
0001
0000
0000
1000
0000
0000
0001
0000
,  // measure 39
0012
0010
1000
0013
,  // measure 40
0000
0000
1000
0010
0100
0010
0000
0000
,  // measure 41
2010
0010
0001
3100
,  // measure 42
0000
0001
0010
0100
1000
0010
0000
0000
,  // measure 43
0102
1000
0100
0013
,  // measure 44
2100
0001
0010
3100
,  // measure 45
0012
0000
0100
0003
2010
0000
3100
0000
,  // measure 46
0110
0000
0000
0000
,  // measure 47
0010
0000
0000
0000
,  // measure 48
0010
0000
0000
0000
,  // measure 49
0010
0000
0000
0000
,  // measure 50
0010
0000
0100
0000
,  // measure 51
0001
0000
1000
0000
,  // measure 52
0001
0000
1000
0000
,  // measure 53
1001
0000
0110
0000
,  // measure 54
2002
0000
0000
0000
,  // measure 55
3003
0000
0000
0000
,  // measure 56
0001
1000
0001
1000
,  // measure 57
0100
0010
0001
0010
,  // measure 58
0100
0010
1000
0010
,  // measure 59
0100
0000
1000
0001
0100
0000
0010
1000
,  // measure 60
0100
0000
0100
0010
0001
1000
0010
0100
,  // measure 61
0010
0100
1000
0100
,  // measure 62
0010
0100
0001
0010
,  // measure 63
0100
0000
0010
0001
1000
0000
0100
1000
,  // measure 64
0020
0030
0020
0030
,  // measure 65
0010
0000
0100
0001
0010
0000
0100
0010
,  // measure 66
0001
0000
1000
0010
0100
0000
0010
1000
,  // measure 67
0100
0000
0010
0100
1000
0000
0001
0100
,  // measure 68
0010
0000
1000
0010
0100
0001
0100
0010
,  // measure 69
1000
0000
0001
1000
0010
0000
1000
0100
,  // measure 70
0010
0000
0100
0010
0001
0000
1000
0001
,  // measure 71
0100
0000
0010
0100
0010
0000
1000
0010
,  // measure 72
0100
0001
0010
0100
1000
0001
0010
0001
,  // measure 73
0200
0000
0000
0300
,  // measure 74
0110
0000
0000
0000
;

//---------------dance-single - Telperion----------------
#NOTES:
     dance-single:
     Telperion:
     Challenge:
     10:
     0.864,0.938,0.348,0.265,0.764,594.000,38.000,29.000,0.000,0.000,0.000,0.000,0.864,0.938,0.348,0.265,0.764,594.000,38.000,29.000,0.000,0.000,0.000,0.000:
0000
0000
0000
0000
,
0000
0000
0000
0000
,
0000
0000
0000
0000
,
0000
0000
0000
0000
,
0000
0000
0000
0000
,
0100
0010
0100
0010
,
1002
0000
0000
0000
0103
0000
0010
0000
1000
0000
0001
0010
0100
0000
0010
0000
,
0011
0000
0000
0000
0001
0000
1000
0000
0010
0000
0100
0010
1000
0000
0100
0000
,
0010
0000
0100
0010
0000
0010
0001
0000
1000
0000
0001
0010
0000
0010
0100
0000
,
1000
0000
0001
0100
0010
0000
0100
0000
0001
0000
1000
0100
0010
0001
0010
0100
,
2000
0000
0000
0000
3001
0100
0001
0100
0020
0000
0000
0000
0130
0001
1000
0001
,
0020
0000
0000
0000
0031
1000
0001
0100
0020
0000
0000
0000
0130
0001
1000
0100
,
0010
0000
0100
1000
0000
1000
0001
1000
0010
0000
0100
0001
0000
0001
1000
0001
,
0010
0000
0100
1000
0100
0000
0010
0000
0001
0000
0100
0000
1000
0000
0000
0000
,
0110
1000
0110
1000
0001
0010
1100
0000
,
0001
0000
1000
0001
0010
0000
0010
0001
0100
0000
0010
0000
1010
0000
0000
0000
,
1000
0000
0000
0001
0000
0000
1000
0000
0000
0001
0000
0000
0100
0000
0000
0001
1000
0001
1000
0000
0000
0100
0000
0000
,
0001
0000
0000
0000
0000
0000
0000
0000
0100
0000
0000
0000
0000
0100
0000
0000
0010
0000
0001
0000
0010
0000
0100
0000
2000
0000
0000
0000
3020
0000
0000
0000
,
0130
0000
0000
0000
0001
0000
0100
0000
1000
0000
0100
0001
0000
0000
0010
0000
,
0110
0000
0000
0000
1100
0000
1000
0000
0101
0000
0001
0100
0000
0000
0010
0000
,
0110
0000
0000
0100
0000
0000
0001
0000
0000
0010
0000
0000
0100
0000
0000
1000
0100
1000
0100
0000
0000
1000
0000
0000
,
0001
0000
0000
0100
1000
0000
0100
0000
0010
1000
0001
1000
0010
1000
0100
0010
,
0001
0000
0000
0000
0101
0000
0000
0000
1100
0000
1000
0010
0000
0000
0100
0000
,
0101
0000
0000
0000
1100
0000
0000
0000
1010
0000
1000
0001
0000
0000
0010
0000
,
0110
0000
0000
0000
0000
0000
0011
0000
0000
0001
0000
0000
1000
0000
0000
0001
0100
0001
0100
0000
0000
0010
0000
0000
,
0100
0000
0000
0000
0110
0000
0010
0000
1000
0001
0010
0100
2000
0000
3002
0000
,
0203
0000
0300
0000
0011
0000
0001
0000
1000
0000
0010
0100
0000
0100
0001
0000
,
0100
0000
0000
0000
1010
0000
1000
0000
0001
0000
0010
0100
0001
0000
0100
0000
,
0010
0000
0001
0100
0110
0000
1000
0100
,
0110
0000
0010
0000
0010
0000
0010
0000
0010
0100
0000
0000
0010
0000
0000
0000
,
2001
0000
0000
0000
0010
0000
0000
0000
3001
0000
0010
0001
0100
0000
0010
0000
,
1020
0000
0100
0000
0031
0000
1000
0100
,
1002
0000
0000
0000
0010
0000
0000
0000
1003
0000
0100
0010
0100
0000
1000
0000
,
1020
0100
0031
0110
,
2001
0000
0000
0000
0010
0000
0000
0000
3001
0000
0010
0100
1000
0000
0010
0000
,
0201
0000
1000
0000
0310
0000
0001
0010
,
1002
0000
0000
0000
0010
0000
0000
0000
1003
0000
0010
1000
0100
0000
0010
0000
,
0011
0000
0001
0000
0010
0000
0100
1000
0010
0100
0000
0100
0010
0000
1000
0000
,
1001
0000
0001
0000
0010
0000
0001
0000
1000
0000
0001
0010
0100
0000
1000
0000
,
0000
0000
0010
0000
1000
0000
0100
0000
0010
0000
0001
0010
0100
0000
1000
0000
,
1001
0000
1000
0000
0010
0000
0100
0000
0001
0000
0100
0010
1000
0000
0001
0000
,
0000
0000
0010
0000
1000
0000
0010
0000
0001
0000
0100
0010
1000
0000
0010
0000
,
1001
0000
1000
0000
0100
0000
1000
0000
0010
0000
0100
0010
0001
0000
0010
0000
,
0100
0000
0001
0000
0010
0000
0001
0000
1000
0000
0100
0010
1000
0000
0010
0000
,
0110
0001
1000
0001
0110
1000
0001
0010
,
0200
0300
0000
0000
,
0010
0000
0001
1000
0000
0000
0010
0000
0100
0010
0000
0000
1000
0001
1000
0100
,
0010
0000
0001
1000
0000
0000
0010
0000
0100
0010
0000
0000
1000
0010
1000
0001
,
0010
0000
0001
1000
0000
0000
0100
0000
0010
0100
0000
0000
1000
0001
0100
0001
,
0010
0000
0100
1000
0000
0000
0001
0000
0100
0010
0000
0010
1000
0000
0010
0000
,
0100
0001
0100
0001
0010
0000
0000
0000
0100
1000
0100
1000
0010
0000
0000
0000
,
0100
0001
0100
0010
2000
0000
3000
0000
0100
1000
0100
0010
0002
0000
0003
0000
,
0010
0100
0000
1000
0001
1000
0000
0010
0100
0001
0000
1000
0100
0010
0000
0001
,
0100
0000
0100
0000
,
0200
0000
0000
0000
0000
0000
0000
0000
0000
0000
0000
0000
0000
0000
0000
0000
0000
0000
0000
0000
0000
0000
0000
0000
0000
0000
0000
0000
0000
0000
0000
0000
0000
0000
0000
0000
0000
0000
0000
0000
0000
0000
0000
0000
0000
0000
0000
0000
0000
0000
0000
0000
0000
0000
0000
0000
0000
0000
0000
0000
0000
0000
0000
0000
0000
0000
0000
0000
0000
0000
0000
0000
0000
0000
0000
0000
0000
0000
0000
0000
0000
0000
0000
0000
0000
0000
0000
0000
0000
0000
0000
0000
0000
0000
0000
0000
0000
0000
0000
0000
0000
0000
0000
0000
0000
0000
0000
0000
0000
0000
0000
0000
0000
0000
0000
0000
0000
0000
0000
0000
0000
0000
0000
0000
0000
0000
0000
0000
0000
0000
0000
0000
0000
0000
0000
0000
0000
0000
0000
0000
0000
0000
0000
0000
0000
0000
0000
0000
0000
0000
0000
0000
0000
0000
0000
0000
0000
0000
0000
0000
0000
0000
0000
0000
0000
0000
0000
0000
0000
0000
0000
0000
0000
0000
0000
0000
0000
0000
0000
0000
0000
0000
0000
0000
0000
0000
0000
0000
0000
0000
0000
0300
,
0010
0100
0010
0100
,
2001
0000
0000
0000
3100
0000
0010
0000
0001
0000
1000
0010
0100
0000
0010
0000
,
1010
0000
0000
0000
1000
0000
0001
0000
0010
0000
0100
0010
0001
0000
0100
0000
,
0010
0000
0100
0010
0000
0010
1000
0000
0001
0000
1000
0010
0000
0010
0100
0000
,
0001
0000
1000
0100
0010
0000
0100
0000
1000
0000
0001
0100
0010
1000
0010
0100
,
0002
0000
0000
0000
1003
0001
1000
0100
0020
0000
0000
0000
0130
1000
0001
0100
,
0020
0000
0000
0000
1030
0100
1000
0001
0020
0000
0000
0000
0130
1000
0001
0100
,
0010
0000
1000
0010
0000
0100
0010
0100
0001
0000
0010
0100
0000
1000
0001
1000
,
0010
0000
0100
0001
0100
0000
0010
1000
0001
0000
0010
0100
2000
0000
3000
0000
,
0100
0000
0100
0000
0010
0000
0100
0000
0001
0000
0100
1000
0100
0000
0010
0000
,
0001
0000
0100
0000
0010
0000
0100
0000
1000
0000
0100
0010
1000
0000
0100
0010
,
0100
0000
1000
0001
0000
0001
0100
0000
0010
0000
1000
0010
0000
0100
0001
1000
,
0001
0000
0001
1000
0001
0010
0001
0010
0100
1000
0001
0100
0010
0100
0001
0010
,
0100
0000
1000
0100
0010
0100
1000
0001
0100
0000
0010
0100
0000
0100
0001
0000
,
1000
0001
0100
0010
1000
0100
0010
0000
0001
0010
0100
1000
0002
0000
0103
0000
,
0010
1000
0100
0000
0100
1000
0010
0000
0100
0001
0010
0000
0001
0100
0010
0000
,
1000
0100
0010
0001
0010
0100
1000
0010
0100
0010
1000
0001
0100
0001
0010
0100
,
1000
0000
0000
0000
0000
0000
0001
0000
1000
0000
0001
0000
1000
0000
0000
0010
0000
0000
0000
0000
0000
0100
0000
0000
0000
0000
0000
0010
0000
0000
0000
0000
0000
1000
0000
0000
0100
0000
0000
0000
0010
0000
0000
0000
0001
0000
0000
0000
,
0020
0030
0000
0000
;
