#TITLE:Opposites Attract;
#SUBTITLE:;
#ARTIST:Paula Abdul and The Wild Pair;
#TITLETRANSLIT:;
#SUBTITLETRANSLIT:;
#ARTISTTRANSLIT:;
#GENRE:;
#CREDIT:N. Muriel;
#MENUCOLOR:;
#METERTYPE:DDR X;
#BANNER:[Week 7] - Opposites Attract.png;
#BACKGROUND:[Week 7] - Opposites Attract-bg.png;
#LYRICSPATH:;
#CDTITLE:;
#MUSIC:[Week 7] - Opposites Attract.mp3;
#OFFSET:-0.796;
#SAMPLESTART:47.900;
#SAMPLELENGTH:15.000;
#SELECTABLE:YES;
#LISTSORT:;
#DISPLAYBPM:117.000;
#BPMS:0.000=117.160;
#STOPS:;
#BGCHANGES:-2.000=Opposites Attract.avi=1.000=0=0=1,
174.000=Opposites Attract-bg.png=1.000=0=0=1,
99999=-nosongbg-=1.000=0=0=0 // don't automatically add -songbackground-
;
#ATTACKS:;

//---------------dance-single - ----------------
#NOTES:
     dance-single:
     :
     Hard:
     8:
     0.493,0.494,0.236,0.204,0.204:
0000
0000
0000
0000
1000
0100
1000
0100
,
0001
0000
0010
0000
1000
0000
0100
0000
0000
0001
0100
0000
0001
0000
0000
0000
,
0010
0000
0000
0000
1010
0000
1000
0000
0100
0000
0000
0001
0000
0000
0020
0000
,
0000
0000
0000
0200
0000
0000
0330
0100
,
1000
0000
0100
0000
0001
0000
0001
0010
0001
0000
0100
0000
0001
0000
0000
0010
,
0000
1000
0100
1000
0001
0000
0100
0000
0001
0010
0100
1000
0000
1100
0000
0000
,
1000
0000
0010
0000
1000
0000
0100
0000
0001
0000
0010
0000
0001
0000
1000
0001
,
0100
0000
0000
0010
0000
0000
0000
0000
0100
0000
0010
0000
0100
0000
0010
0000
,
1000
0100
1000
0001
0100
0000
0000
0000
,
0010
1000
0010
2000
0000
3001
0000
0000
,
0000
1000
0100
0010
0001
0000
1000
1000
,
0002
0000
0023
0000
0032
1000
0103
0000
,
0000
0100
0100
1000
0010
0100
0001
0010
,
0100
0100
0001
0020
0200
0000
0330
0110
,
0010
0001
0100
0000
0101
0000
0100
0001
,
0010
0000
0100
0000
0001
0000
0000
0000
0001
0000
0000
0000
0100
0000
0100
1000
,
0001
0100
0001
0010
0100
1000
0000
1000
,
1000
0000
0001
0000
0100
0000
0001
0000
0000
0001
0010
0000
0100
0000
0100
0000
,
0000
1000
0010
1000
0100
0001
0000
0001
,
0001
0000
0010
0100
0000
0100
0010
0000
0011
0000
0000
0000
1100
0000
0000
0000
,
0001
0100
0001
0100
0010
0100
0000
1000
,
0001
0100
0001
0101
0000
0000
0000
0010
,
1000
0100
0001
0100
1000
0010
1000
0100
,
1100
0000
0101
0000
0011
0010
1010
0000
,
1100
0000
1000
0100
0010
0001
0000
0000
,
0001
0010
0100
1000
0000
0001
1001
0000
,
0000
1000
0100
0000
1000
0000
0010
0000
0100
0000
0001
0000
0000
0000
0001
0000
,
0000
0100
1000
0100
1000
0001
0010
0100
,
0000
0000
1000
0100
0010
0110
0000
0000
,
0001
0000
0100
0000
0010
0000
0110
0000
0000
0010
0100
0000
0000
0000
0000
0000
,
0000
1000
0010
0000
0100
0000
0001
0000
0010
0000
0100
0000
1000
0000
0002
0000
,
0000
0000
0103
0002
0000
0000
1003
0001
,
1001
0000
1000
0000
0100
0000
1000
0000
0010
0000
1000
0000
0001
1000
0000
0000
,
0100
0000
0001
0000
0010
0000
0001
0000
0100
0000
0001
0000
1000
0001
0000
0000
,
0010
0000
0100
0000
1000
0000
1000
0001
0000
0001
0000
0000
0000
0000
0010
0001
,
0020
0000
2030
0000
3200
0000
0301
0001
,
1001
0000
1000
0100
0010
0001
0000
0000
,
0001
0000
0010
0001
0000
0010
0001
0000
0000
1000
0000
0000
1000
0000
0000
0000
0000
0000
1010
0000
0000
0000
0000
0000
,
1000
0000
0000
0100
0000
0100
0010
0000
0000
0001
0000
0000
0010
0000
0000
0000
0000
0000
0011
0000
0000
0000
0000
0000
,
0002
0000
0203
0000
2300
0000
3010
0010
,
0010
0000
0110
0000
0110
0000
0010
1000
0000
0001
0000
0000
0000
0000
0000
0001
,
0000
0010
0001
0100
0001
0000
1000
0100
0000
0100
0000
0000
0000
0000
0000
0010
,
0000
0100
0000
0010
0000
0000
0000
0000
0100
0000
0010
1000
0000
1000
0001
0000
,
0012
0000
0203
0000
2300
0000
3010
0010
;

//---------------dance-single - ----------------
#NOTES:
     dance-single:
     :
     Medium:
     5:
     0.289,0.343,0.021,0.204,0.032:
0000
0000
0000
0000
,
0000
0000
0000
0000
,
0000
0000
0000
0000
0000
0000
0000
2000
,
0000
0000
0000
0002
0000
0000
3003
0000
,
0001
0100
0001
0000
0010
0100
1000
0000
,
1000
0100
1000
0010
0100
0001
0100
0000
,
0001
0100
1000
0000
1000
0100
0001
0000
,
0020
1030
0200
0301
,
1000
0000
0001
0000
1000
0100
1000
0000
,
0001
0000
0100
0010
0000
0010
0000
0000
,
0000
1000
0100
1000
,
0001
0000
0100
0000
0010
0100
1000
0000
,
0001
0000
0100
0000
0001
0100
0001
0000
,
1000
0000
0010
1000
0000
0000
0000
0001
,
0200
0320
2030
3100
,
0200
0320
0032
2003
,
3001
0100
0001
0000
0100
0000
0001
0000
,
1000
0100
1000
0000
1100
0000
0000
0000
,
0000
0010
0100
0001
,
1000
0000
0000
1000
0000
0000
1000
0000
0000
0000
0000
0000
0000
0000
0000
0000
,
0000
0000
0001
0010
0001
0010
0000
0000
,
0010
0001
0010
0001
0000
0000
0000
0000
,
1000
0100
0001
0000
0001
0100
1000
0000
,
1000
0000
0001
0000
1000
0001
1000
0001
,
1001
0000
1000
0000
0100
1000
0000
0000
,
0001
0100
0001
0100
0000
0000
0000
0000
,
0000
0100
1000
0000
1000
0100
0000
0100
,
0000
0100
0010
0100
0010
0100
1000
0000
,
0001
0000
0100
0000
0001
0100
0001
0000
,
1000
0010
1000
0010
0000
0000
0000
0000
,
0000
0001
0010
0001
0010
0100
0010
0100
,
0000
0010
0100
0001
,
0010
0000
0000
0000
0100
0000
0000
1000
0000
1000
0000
0000
0000
0000
0000
0000
,
1000
0000
0100
0000
0010
0000
0001
0000
1000
0000
0000
1000
0000
0000
1000
0000
,
0000
0000
0010
0000
0100
0000
0000
0001
0000
0001
0000
0000
0000
0000
0000
0000
,
2000
3002
0203
0320
,
1030
0000
0100
0010
0001
0001
0000
0000
,
0000
0000
0001
0100
0010
0000
0000
0000
,
1000
0000
1000
0100
0010
0000
0000
0000
,
0002
2003
3200
0320
,
0031
0000
0000
0000
;

//---------------dance-single - ----------------
#NOTES:
     dance-single:
     :
     Easy:
     3:
     0.164,0.169,0.032,0.043,0.000:
0000
0000
0000
0000
,
0000
0000
0000
0000
,
0000
0000
0000
0000
,
0000
0000
0000
0000
,
0010
1000
0100
0000
,
1000
0010
0100
0000
,
0010
0001
0100
0000
,
0001
0010
0100
0000
,
1000
0000
0001
0000
,
0010
0010
0010
0000
,
0001
0000
1000
0000
,
0010
0010
0010
0100
,
0001
0010
0001
0010
,
0100
1000
0100
0000
,
1000
0010
1000
0010
,
0100
0001
0100
0000
,
0000
1000
0001
1001
,
0000
0010
0100
0000
,
0000
1000
0100
1000
,
0010
0010
0010
0000
,
0000
1000
0100
0001
,
0000
0001
0100
0000
,
0000
0001
0100
1000
,
1000
0100
0001
0000
,
0000
0010
0010
0000
,
0000
0100
0100
0000
,
0000
0010
0010
0010
,
0100
0100
0110
0000
,
0000
0010
0010
0000
,
0100
0100
0100
0000
,
0000
0010
0010
0010
,
0100
0100
0110
0000
,
2000
0000
0001
0000
,
0010
0010
3010
0000
,
0002
0000
1000
0000
,
0010
0010
0013
0000
,
0020
0000
1000
0000
,
0100
0100
0130
0000
,
0020
0000
0001
0000
,
0100
0100
0130
0000
;

//---------------dance-single - ----------------
#NOTES:
     dance-single:
     :
     Beginner:
     1:
     0.095,0.171,0.043,0.086,0.000: // measure 1
0000
0000
0000
0000
,  // measure 2
0000
0000
0000
0000
,  // measure 3
0000
0000
0000
0000
,  // measure 4
0000
0000
0000
0000
,  // measure 5
0000
0000
0000
0000
,  // measure 6
0000
0000
0000
0000
,  // measure 7
0000
0000
0000
0000
,  // measure 8
0000
0000
0000
0000
,  // measure 9
1000
0000
0100
0000
,  // measure 10
0010
0000
0000
0000
,  // measure 11
0010
0000
1000
0000
,  // measure 12
0100
0000
0000
0000
,  // measure 13
0001
0000
0010
0000
,  // measure 14
0100
0000
0000
0000
,  // measure 15
0010
0000
0001
0000
,  // measure 16
0100
0000
0000
0000
,  // measure 17
1000
0000
0000
1001
,  // measure 18
0000
0000
0000
0000
,  // measure 19
0000
0000
0001
0000
,  // measure 20
0010
0000
0010
0000
,  // measure 21
0000
0000
1000
0000
,  // measure 22
0010
0000
0110
0000
,  // measure 23
1001
0000
0000
0000
,  // measure 24
0000
0000
0000
0000
,  // measure 25
0010
0000
0010
0000
,  // measure 26
0100
0000
0100
0000
,  // measure 27
0010
0000
0100
0000
,  // measure 28
0010
0000
0100
0000
,  // measure 29
0010
0000
0010
0000
,  // measure 30
0100
0000
0100
0000
,  // measure 31
0010
0000
0100
0000
,  // measure 32
0010
0000
0100
0000
,  // measure 33
2000
0000
0000
3000
,  // measure 34
0002
0000
0000
0003
,  // measure 35
2000
0000
0000
3000
,  // measure 36
0002
0000
1000
1003
,  // measure 37
2000
0000
0000
3000
,  // measure 38
0002
0000
0000
0003
,  // measure 39
2000
0000
0000
3000
,  // measure 40
0002
0000
1000
1003
,  // measure 41
1001
0000
0000
0000
;
