#TITLE:Masquerade-A-GoGo;
#SUBTITLE:;
#ARTIST:Norihiko Tada;
#TITLETRANSLIT:;
#SUBTITLETRANSLIT:;
#ARTISTTRANSLIT:;
#CREDIT:TaroNuke;
#BANNER:magg.png;
#BACKGROUND:magg-bg.png;
#LYRICSPATH:;
#CDTITLE:pop'n music.png;
#MUSIC:magg.ogg;
#OFFSET:-0.437;
#SAMPLESTART:41.379;
#SAMPLELENGTH:15.000;
#SELECTABLE:YES;
#DISPLAYBPM:150.000:170.000;
#BPMS:0.000=150.000,181.000=225.002,182.000=300.003,183.000=374.996,184.000=450.000,195.000=150.000,240.000=170.000,254.000=-170.000,254.500=170.000,256.500=-170.000,257.000=170.000,259.000=-170.000,259.500=170.000,268.500=-170.000,269.000=170.000,273.501=-170.000,274.501=170.000,280.998=-170.000,281.248=170.000;
#STOPS:195.000=0.310
;
#BGCHANGES:273.500=magg-awesome.png=1.000=0=0=1,
276.500=magg-bg.png=1.000=0=0=1,
99999=-nosongbg-=1.000=0=0=0 // don't automatically add -songbackground-
;

//---------------dance-single - SLUMPAGE----------------
#NOTES:
     dance-single:
     SLUMPAGE:
     Edit:
     10:
     0.752,1.000,0.301,0.177,0.703:
0000
0000
0000
0000
,
0000
0000
0000
0000
,
0001
1000
0100
0010
0001
0100
1000
0200
,
0000
0310
1000
0100
0010
0010
0001
0000
,
1000
0001
0100
0010
1000
0100
0001
0200
,
0000
0310
0001
1000
0010
1001
0000
0000
,
1001
0000
0000
0000
1001
0000
1000
0000
0100
0010
0000
0100
0000
0000
2002
3003
,
0000
0000
0001
0000
0100
0000
0010
0000
1000
0100
0000
1000
0000
0000
0000
0000
,
0110
0000
0000
0000
0110
0000
0010
0000
1000
0010
0000
0100
0000
0000
2002
3003
,
0000
0000
1000
0000
0010
0000
1000
0000
0100
0010
0000
0001
0000
0000
0000
0000
,
1000
0000
0000
0100
0000
0000
0000
0000
0000
0100
0000
0000
1000
0000
0000
0000
0000
0000
0001
0000
0000
0000
0000
0000
1000
0000
0000
0000
0100
0000
0000
0000
0010
0000
0000
0000
0001
0000
0000
0010
0000
0000
0001
0000
0000
0000
0000
0000
,
1000
0010
0100
0001
1000
0000
0100
0000
0010
0001
0000
0000
0011
0000
1000
0100
,
1000
0000
0010
0000
1000
0100
1000
0000
0001
0100
0001
1000
0010
0000
0100
0000
,
2002
0000
0000
0000
,
0000
0000
0000
0000
0010
0020
3033
0000
,
1000
0000
0010
1000
0000
0010
1000
0000
0001
0000
0010
0001
0000
0010
0001
0000
,
1000
0000
0100
1000
0000
0100
1000
0000
0001
0000
0100
0001
0000
0100
0001
0000
,
1000
0001
0010
0100
1000
0010
0001
0020
,
0000
0130
0001
1000
0010
1001
0000
0000
,
1100
0000
0000
0110
0000
0000
0011
0000
0000
0000
0001
0000
0010
0000
0100
0000
,
1000
0010
0000
1010
0000
0000
0000
0000
1001
0000
0000
1001
0000
0000
1001
0000
,
0101
0000
0000
0110
0000
0000
1010
0000
0000
0000
1000
0000
0100
0000
0010
0000
,
0001
0010
0000
0011
0000
0000
0000
0000
0110
0000
0000
0110
0000
0000
0110
0000
,
0001
0000
0000
0010
0000
0000
0000
0000
0000
0100
0000
0000
1000
0000
0000
0000
0000
0000
0010
0000
0000
0000
0000
0000
0100
0000
0000
0000
0010
0000
0000
0000
1000
0000
0000
0000
0001
0000
0000
0100
0000
0000
0010
0000
0000
0000
0000
0000
,
1000
0010
0100
0001
0010
0000
0100
0000
1000
0100
0000
0011
0000
1000
0010
0100
,
0010
0000
1000
0000
0001
0100
0000
0010
1000
0100
0010
0001
1000
0000
0010
0000
,
2002
0000
0000
0000
0000
0000
0000
0000
0000
0000
0000
0M00
0000
00M0
0000
0M00
,
30M3
0M00
M00M
00M0
M00M
00M0
M00M
MMMM
MMMM
MMMM
0000
0000
0000
0000
0000
0000
,
0001
0000
0100
0001
0000
0100
0001
0000
1000
0000
0100
1000
0000
0100
1000
0000
,
0001
0000
0010
0001
0000
0010
0001
0000
1000
0000
0010
1000
0000
0010
1000
0000
,
0001
1000
0100
0010
0001
0100
1000
0200
,
0000
0000
0310
0000
1000
0000
0001
0000
0100
0000
1001
0000
0000
0000
0001
0010
,
0100
1000
0100
1000
0010
1000
0100
1000
0001
1000
0100
1000
0010
1000
0100
1000
,
0001
1000
0100
1000
0010
1000
0100
1000
0001
1000
0010
1000
0001
1000
0100
0000
,
1000
0100
0010
0100
1000
0001
1000
0100
0010
0100
1000
0001
1000
0100
0010
0100
,
1000
0001
1000
0100
0010
0100
1000
0001
1000
0100
0010
0100
1000
0000
0001
0000
,
1000
0100
0010
0001
0100
0010
1000
0100
0010
0001
0100
0010
1000
0100
0010
0001
,
0100
0010
1000
0100
0010
0001
0100
0010
1000
0100
0010
0001
0100
0010
1000
0000
,
0001
0000
1000
0100
0010
0001
1000
0010
0100
0001
1000
0100
0010
0001
0010
0100
,
0010
0100
1000
0010
0100
0001
1000
0100
0010
0010
0010
0010
0002
0003
0000
0000
,
1000
0100
0001
0100
1000
0000
0001
0000
0010
0000
0100
0000
1000
0010
0001
0010
,
1000
0000
0001
0000
0100
0000
0010
0000
1000
0100
0001
0100
1000
0000
0100
0000
,
0010
0000
0001
0000
1000
0010
0001
0010
1000
0000
0010
0000
0100
0000
0001
0000
,
1000
0100
0001
0100
0010
0001
0100
0000
0010
0000
1000
0000
0001
0100
1000
0100
,
0010
1000
0100
0000
0010
0000
0001
0000
1000
0100
0001
0100
0010
0001
1000
0000
,
0001
0100
0020
0000
0000
0000
0000
0000
,
0000
0000
0000
0000
,
0000
0000
0000
0000
,
0000
0000
0000
0000
0000
0000
0000
0000
0000
0000
0000
0000
0000
0000
0000
0000
0000
0000
0000
0000
0000
0000
0000
0000
0000
0000
0000
0000
0000
0000
0000
0000
0000
0000
0000
0000
0000
0000
0000
0000
0000
0000
0000
0000
0000
0000
0000
0000
0000
0000
0000
0000
0000
0000
0000
0000
0000
0000
0000
0000
0000
0000
0000
0000
0000
0000
0000
0000
0000
0000
0000
0000
0000
0000
0000
0000
0000
0000
0000
0000
0000
0000
0000
0000
0000
0000
0000
0000
0000
0000
0000
0000
0000
0000
0000
0000
0000
0000
0000
0000
0000
0000
0000
0000
0000
0000
0000
0000
0000
0000
0000
0000
0000
0000
0000
0000
0000
0000
0000
0000
0000
0000
0000
0000
0000
0000
0000
0000
0000
0000
0000
0000
0000
0000
0000
0000
0000
0000
0000
0000
0000
0000
0000
0030
0000
0000
0000
0000
0000
0000
0000
0000
0000
0000
0000
0000
0000
0000
0000
0000
0000
0000
0000
0000
0000
0000
0000
0000
1000
0000
0000
0000
0000
0000
0000
0000
0000
0000
0000
0000
0000
0000
0000
0000
0000
0000
0000
0000
0000
0000
0000
0000
,
0002
1000
0000
1000
0010
1000
0000
1000
,
0010
0100
0000
0100
0013
1000
0000
0100
,
2000
0010
0000
0010
0100
0010
0000
0010
,
0100
0001
0000
0010
0001
3100
0000
0010
,
0012
0000
0000
1000
0000
0000
0000
0000
0000
0000
0000
0000
1000
0000
0000
0100
,
0000
0000
0000
0000
0000
0000
0000
0000
0100
0000
0000
0010
0000
0000
0000
0000
,
0000
0000
0000
0000
0010
0000
0000
0100
0003
0000
0000
0000
0000
0000
0001
0000
,
2000
0010
0000
0010
0001
0010
0000
0100
,
0010
0100
0000
0010
0100
3001
0000
0000
,
1010
0000
0010
1000
0000
0010
1000
0000
0011
0000
0010
0001
0000
0010
0001
0000
,
1100
0000
0100
1000
0000
0100
1000
0000
0101
0000
0100
0001
0000
0100
0001
0000
,
1000
0100
0001
0100
1000
0100
0001
0100
,
1000
0010
0100
0001
0000
1000
0010
1000
,
0010
0000
0100
0001
1000
0001
0100
0000
,
0011
0000
0000
0000
1000
0001
0100
0000
0000
0000
0000
0000
0000
0000
0001
1000
,
0100
0000
0000
0000
0000
0000
0000
0000
1000
0001
0100
0000
0000
0000
0000
0000
,
0000
0100
0100
0100
0100
0100
0100
0100
,
0100
0001
0100
1000
0100
0010
0000
1000
,
0001
0000
0000
0000
1000
0100
0001
0100
,
0010
0010
0010
1000
0000
0000
0000
0000
,
0000
0010
0000
0001
1000
0010
0100
0010
,
0100
0001
0000
1000
0010
0100
0100
0001
,
0100
0001
1000
0000
1100
0000
0001
0000
,
0100
0000
0010
0000
0000
0000
1000
0000
0010
0100
1000
0100
0002
0000
0000
0000
,
0003
0000
0000
0000
;

//---------------dance-single - TaroNuke----------------
#NOTES:
     dance-single:
     TaroNuke:
     Challenge:
     10:
     0.661,0.807,0.389,0.186,0.429:
0000
0000
0000
0000
,
0000
0000
0000
0000
,
0001
1000
0100
0010
0001
0100
1000
0200
,
0000
0310
1000
0100
0010
0010
0001
0000
,
1000
0001
0100
0010
1000
0100
0001
0200
,
0000
0310
0001
1000
0010
1001
0000
0000
,
1001
0000
0000
0000
1001
0000
1000
0000
0100
0010
0000
0100
0000
0000
2002
3003
,
0000
0000
0001
0000
0100
0000
0010
0000
1000
0100
0000
1000
0000
0000
0000
0000
,
0110
0000
0000
0000
0110
0000
0010
0000
1000
0010
0000
0100
0000
0000
2002
3003
,
0000
0000
1000
0000
0010
0000
1000
0000
0100
0010
0000
0001
0000
0000
0000
0000
,
1000
0100
0000
0100
1000
0000
0001
0000
0100
0000
0010
0000
1000
0010
0000
0010
,
0100
0000
0001
0000
1000
0000
0100
0000
0010
0001
0000
0001
0100
0000
0010
0000
,
0100
0000
0001
0000
1000
0100
0000
0100
0010
0000
0001
0000
1000
0000
0010
0000
,
2002
0000
0000
0000
,
0000
0000
0000
3003
MMMM
0000
0000
0000
,
1000
0000
0010
1000
0000
0010
1000
0000
0001
0000
0010
0001
0000
0010
0001
0000
,
1000
0000
0100
1000
0000
0100
1000
0000
0001
0000
0100
0001
0000
0100
0001
0000
,
1000
0001
0010
0100
1000
0010
0001
0020
,
0000
0130
0001
1000
0010
1001
0000
0000
,
1100
0000
0000
0110
0000
0000
0011
0000
0000
0000
0001
0000
0010
0000
0100
0000
,
1000
0010
0000
1010
0000
0000
0000
0000
1001
0000
0000
1001
0000
0000
1001
0000
,
0101
0000
0000
0110
0000
0000
1010
0000
0000
0000
1000
0000
0100
0000
0010
0000
,
0001
0010
0000
0011
0000
0000
0000
0000
0110
0000
0000
0110
0000
0000
0110
0000
,
0001
0010
0000
0100
1000
0000
0010
0000
0100
0000
0001
0000
1000
0100
0000
0010
,
0001
0000
0100
0000
0010
0000
1000
0000
0001
0100
0000
0010
1000
0000
0100
0000
,
0010
0000
0001
0000
1000
0010
0000
0100
0001
0000
0010
0000
0100
0000
1000
0000
,
2002
0000
0000
0000
0000
0000
0000
0000
0000
0000
0000
0M00
0000
00M0
0000
0M00
,
30M3
0M00
M00M
00M0
M00M
00M0
M00M
MMMM
MMMM
MMMM
0000
0000
0000
0000
0000
0000
,
0001
0000
0100
0001
0000
0100
0001
0000
1000
0000
0100
1000
0000
0100
1000
0000
,
0001
0000
0010
0001
0000
0010
0001
0000
1000
0000
0010
1000
0000
0010
1000
0000
,
0001
1000
0100
0010
0001
0100
1000
0200
,
0000
0310
1000
0001
0100
1001
0000
0001
,
1000
0000
0010
0100
0010
0000
1000
0100
1000
0000
0100
0010
0100
0000
1000
0100
,
1000
0000
0010
0100
0010
0000
1000
0000
0001
0000
0010
0000
0100
0000
1000
0000
,
0001
0000
0100
0000
0010
1000
0000
1000
0100
0000
0100
1000
0000
1000
0010
0000
,
0010
0100
0000
0100
0001
0000
0001
0010
0000
0010
0100
0000
1100
0000
0000
0000
,
1000
0100
0010
0000
0001
0000
1000
0010
0100
0000
0001
0000
1000
0100
0010
0000
,
0001
0000
1000
0010
0100
0000
0001
0000
1000
0100
1000
0000
0011
0000
0001
0000
,
1000
0100
0001
0100
0010
0001
1000
0010
,
0001
0000
0010
0000
1000
0000
0001
0000
0100
0010
0100
0010
1000
0000
0000
0000
,
1100
0000
0000
0101
0000
0000
0100
0000
0010
0000
1000
0000
1010
0000
0000
0101
,
0000
0000
0001
0000
0100
0000
0010
0000
1010
0000
0000
0011
0000
0000
1000
0000
,
0001
0000
0100
0000
0011
0000
0000
1100
0000
0000
0001
0000
0100
0000
0010
0000
,
2010
0000
0000
0001
0000
0000
3100
0000
0010
0000
0001
0000
0012
0000
0000
0100
,
0000
0000
1003
0000
0010
0000
0100
0000
0012
0000
0000
1003
0000
0000
0001
0000
,
0100
0001
0020
0000
0000
0000
0000
0000
,
0000
0000
0000
0000
,
0000
0000
0000
0000
,
0000
0000
0000
0000
0000
0000
0000
0000
0000
0000
0000
0000
0000
0000
0000
0000
0000
0000
0000
0000
0000
0000
0000
0000
0000
0000
0000
0000
0000
0000
0000
0000
0000
0000
0000
0000
0000
0000
0000
0000
0000
0000
0000
0000
0000
0000
0000
0000
0000
0000
0000
0000
0000
0000
0000
0000
0000
0000
0000
0000
0000
0000
0000
0000
0000
0000
0000
0000
0000
0000
0000
0000
0000
0000
0000
0000
0000
0000
0000
0000
0000
0000
0000
0000
0000
0000
0000
0000
0000
0000
0000
0000
0000
0000
0000
0000
0000
0000
0000
0000
0000
0000
0000
0000
0000
0000
0000
0000
0000
0000
0000
0000
0000
0000
0000
0000
0000
0000
0000
0000
0000
0000
0000
0000
0000
0000
0000
0000
0000
0000
0000
0000
0000
0000
0000
0000
0000
0000
0000
0000
0000
0000
0000
0030
0000
0000
0000
0000
0000
0000
0000
0000
0000
0000
0000
0000
0000
0000
0000
0000
0000
0000
0000
0000
0000
0000
0000
0000
1000
0000
0000
0000
0000
0000
0000
0000
0000
0000
0000
0000
0000
0000
0000
0000
0000
0000
0000
0000
0000
0000
0000
0000
,
0002
1000
0000
1000
0010
1000
0000
1000
,
0010
0100
0000
0100
0013
1000
0000
0100
,
2000
0010
0000
0010
0100
0010
0000
0010
,
0100
0001
0000
0010
0001
3100
0000
0010
,
0002
0000
0000
1000
0000
0000
0000
0000
0000
0000
0000
0000
1000
0000
0000
0100
,
0000
0000
0000
0000
0000
0000
0000
0000
0100
0000
0000
0010
0000
0000
0000
0000
,
0000
0000
0000
0000
0010
0000
0000
0100
0003
0000
0000
0000
0000
0000
0001
0000
,
2000
0010
0000
0010
0001
0010
0000
0100
,
0010
0100
0000
0010
0100
3001
0000
0000
,
1010
0000
0010
1000
0000
0010
1000
0000
0011
0000
0010
0001
0000
0010
0001
0000
,
1100
0000
0100
1000
0000
0100
1000
0000
0101
0000
0100
0001
0000
0100
0001
0000
,
1000
0100
0001
0100
1000
0100
0001
0100
,
1000
0010
0100
0001
0000
1000
0010
1000
,
0010
0000
0100
0001
1000
0001
0100
0000
,
0011
0000
1000
0001
0000
0000
0000
1000
,
0001
0000
0000
0000
1000
0001
0000
0000
,
0000
0100
0100
0100
0100
0100
0100
0100
,
0100
0001
0100
1000
0100
0010
0000
1000
,
0001
0000
0000
0000
1000
0100
0001
0100
,
0010
0010
0010
1000
0000
0000
0000
0000
,
0000
0010
0000
0001
1000
0010
0100
0010
,
0100
0001
0000
1000
0010
0100
0100
0001
,
0100
0001
1000
0000
1100
0000
0001
0000
,
0100
0000
0010
0000
0000
0000
1000
0000
0010
0100
0010
0100
0002
0000
0000
0000
,
0003
0000
0000
0000
;

//---------------dance-single - TaroNuke----------------
#NOTES:
     dance-single:
     TaroNuke:
     Hard:
     9:
     0.591,0.645,0.451,0.248,0.181: // measure 1
0000
0000
0000
0000
,  // measure 2
0000
0000
0000
0000
,  // measure 3
0001
1000
0100
0010
0001
0100
0010
2000
,  // measure 4
0000
3001
1000
0100
0010
0100
1000
0000
,  // measure 5
0001
1000
0010
0100
0001
0010
0100
2000
,  // measure 6
0000
3001
1000
0100
0010
1001
0000
0000
,  // measure 7
1001
0000
0000
0000
1001
0000
1000
0000
0100
0000
0010
0000
0001
0000
2002
3003
,  // measure 8
0000
0001
0100
0010
1000
0100
0010
0000
,  // measure 9
0110
0000
0000
0000
0110
0000
0010
0000
1000
0000
0001
0000
0100
0000
0220
0330
,  // measure 10
0000
0001
1000
0100
0010
0100
0002
0003
,  // measure 11
0001
0100
1000
0010
0002
0000
1003
0100
,  // measure 12
0001
0010
2000
0000
3001
0100
1000
0010
,  // measure 13
0002
0000
1003
0100
0001
0010
1000
0010
,  // measure 14
0001
0100
0001
0100
0010
1000
0010
1000
,  // measure 15
0100
0010
0100
0010
0001
0002
0003
0000
,  // measure 16
1010
0000
0000
1001
0000
0000
0000
0000
0011
0000
0000
1001
0000
0000
0000
0000
,  // measure 17
1100
0000
0000
1001
0000
0000
0000
0000
0101
0000
0000
1001
0000
0000
0001
0000
,  // measure 18
1000
0001
0100
0010
1000
0100
0010
0002
,  // measure 19
0000
1003
0001
0010
0100
1001
0000
0000
,  // measure 20
1000
0000
0000
0100
0000
0000
0010
0000
0000
0000
0001
0000
0010
0000
0100
0000
,  // measure 21
1000
0010
0000
1000
0000
0000
0000
0000
1000
0000
0000
1000
0000
0000
1000
0000
,  // measure 22
0001
0000
0000
0100
0000
0000
0010
0000
0000
0000
1000
0000
0100
0000
0010
0000
,  // measure 23
0001
0010
0000
0001
0000
0000
0000
0000
0001
0000
0000
0100
0000
0000
1000
0000
,  // measure 24
1000
0100
0001
0010
2000
0000
3001
0100
,  // measure 25
1000
0010
0002
0000
1003
0100
0001
0010
,  // measure 26
2000
0000
3001
0100
1000
0010
0001
0010
,  // measure 27
1000
0100
1000
0100
0010
0001
0010
0001
,  // measure 28
1000
0010
1000
0010
0100
0100
0100
0000
,  // measure 29
0101
0000
0000
1001
0000
0000
0000
0000
1100
0000
0000
1001
0000
0000
0000
0000
,  // measure 30
1010
0000
0000
1001
0000
0000
0000
0000
0011
0000
0000
1001
0000
0000
1000
0000
,  // measure 31
0001
1000
0010
0100
0001
0010
0100
2000
,  // measure 32
0000
3001
1000
0100
0010
1001
0000
0001
,  // measure 33
1000
0100
0001
0100
0010
0100
0001
0100
,  // measure 34
0010
0100
0001
0100
0010
0001
1000
0010
,  // measure 35
0100
0010
0001
0010
1000
0010
0001
0010
,  // measure 36
0100
0010
0001
0010
1000
0100
0010
0000
,  // measure 37
0001
0010
0100
0001
0100
1000
0001
0100
,  // measure 38
1000
0100
0010
1000
0100
0010
0001
0000
,  // measure 39
1000
0100
0010
0001
0100
0010
0001
0010
,  // measure 40
0100
0000
0001
0000
0010
0000
0100
0000
1000
0010
1000
0010
0100
0000
0000
0000
,  // measure 41
1100
0000
0000
0101
0000
0000
0000
0000
0000
0000
0000
0000
0101
0000
0000
0011
,  // measure 42
0000
0000
0000
0000
0000
0000
0000
0000
0011
0000
0000
1010
0000
0000
0000
0000
,  // measure 43
0000
0000
0000
0000
1010
0000
0000
1100
0000
0000
0000
0000
0000
0000
0000
0000
,  // measure 44
2000
0000
0000
3200
0000
0000
0302
0000
,  // measure 45
0000
0000
0000
0000
0023
0000
0000
2030
,  // measure 46
0000
3200
0000
0000
,  // measure 47
0000
0000
0000
0000
,  // measure 48
0000
0000
0000
0000
,  // measure 49
0000
0000
0300
0000
,  // measure 50
1001
0000
1000
0000
0100
0000
0010
0000
0001
0000
1000
0010
0000
0000
0000
0000
,  // measure 51
0000
0000
1000
0000
0010
0000
0100
0000
0001
0000
0010
1000
0000
0000
0000
0000
,  // measure 52
0000
0000
0010
0000
0001
0000
0100
0000
1000
0000
0100
0010
0000
0000
0000
0000
,  // measure 53
0000
0000
1000
0000
0001
0000
0010
0000
1000
0000
0010
0001
0000
0000
0000
0000
,  // measure 54
0011
0000
0000
0101
0000
0000
0000
0000
0000
0000
0000
0000
0101
0000
0000
1100
,  // measure 55
0000
0000
0000
0000
0000
0000
0000
0000
1100
0000
0000
1010
0000
0000
0000
0000
,  // measure 56
0000
0000
0000
0000
1010
0000
0000
0011
0000
0000
0000
0000
0000
0000
0000
0000
,  // measure 57
1001
0000
1000
0000
0100
0000
0010
0000
1000
0000
0010
0001
0000
0000
0000
0000
,  // measure 58
0000
0000
1000
0000
0010
0000
0100
0000
1000
0000
0100
0001
0000
0000
0000
0000
,  // measure 59
0011
0000
0000
1001
0000
0000
0000
0000
1100
0000
0000
1001
0000
0000
0000
0000
,  // measure 60
1010
0000
0000
1001
0000
0000
0000
0000
0101
0000
0000
1001
0000
0000
0000
0000
,  // measure 61
1000
0100
1000
0100
0010
0001
0010
0001
,  // measure 62
1000
0001
1000
0010
0000
0100
0001
0100
,  // measure 63
0001
0000
1000
0100
0001
0100
1000
0000
,  // measure 64
0001
0000
0100
0020
M00M
0000
0000
0000
,  // measure 65
0100
M00M
0000
0000
0000
0100
M00M
0000
,  // measure 66
0030
0000
0000
0000
,  // measure 67
0000
1000
0010
0100
0010
1000
0000
0001
,  // measure 68
0100
0000
0000
0000
0000
0000
0000
0000
0000
M00M
0000
0000
0000
0000
0000
0000
0000
0000
0000
0000
0000
0000
0000
0000
0000
0000
0000
0000
0000
0000
0000
0000
0000
0000
0000
0000
0000
0000
0000
0000
1000
0000
0000
0000
0000
0000
0000
0000
0001
0000
0000
0000
0000
0000
0000
0000
1000
0000
0000
0000
0000
0000
0000
0000
,  // measure 69
0010
0000
0000
0000
0000
0000
0000
0000
0100
0000
0000
0000
0000
0000
0000
0000
0100
0000
0000
0000
0000
0000
0000
0000
0010
M00M
0000
0000
0000
0000
0000
0000
0000
0000
0000
0000
0000
0000
0000
0000
0000
0000
0000
0000
0000
0000
0000
0000
0000
0000
0000
0000
0000
0000
0000
0000
0000
0000
0000
0000
0000
0000
0000
0000
,  // measure 70
0000
0000
0000
1000
0001
0010
0001
0010
,  // measure 71
0001
0000
0000
0000
0000
0000
0000
0000
1000
0000
0000
0000
0000
0000
0000
0000
0000
0M0M
0000
0000
0000
0000
0000
0000
0010
0000
0000
0000
0000
0000
0000
0000
0100
0000
0000
0000
0000
0000
0000
0000
0001
0000
0000
0000
0000
0000
0000
0000
0001
0000
0000
0000
0000
0000
0000
0000
1000
0000
0000
0000
0000
0000
0000
0000
,  // measure 72
0001
1000
0020
0030
0200
0300
0002
0003
,  // measure 73
2000
0000
3001
0000
0000
0000
0001
0000
1000
0010
1000
0010
0200
0000
0000
0000
,  // measure 74
0300
0000
0000
0000
;

//---------------dance-single - TaroNuke----------------
#NOTES:
     dance-single:
     TaroNuke:
     Beginner:
     2:
     0.147,0.225,0.115,0.080,0.000:
0000
0000
0000
0000
,
0000
0000
0000
0000
,
1000
0000
0000
0000
,
0001
0000
0000
0000
,
0100
0000
0000
0000
,
0010
0000
0000
0000
,
1000
1000
0000
0000
,
0010
0000
0100
0000
,
0001
0001
0000
0000
,
0010
0000
0100
0000
,
1000
0000
0000
0100
,
0000
0000
0001
0000
,
0000
0010
0000
0000
,
2000
0000
0000
0000
,
0000
0000
3001
0000
,
0001
0000
0001
0000
,
1000
0000
1000
0000
,
0010
0000
0000
0000
,
0100
0000
0000
0000
,
1001
0000
0000
0000
,
1001
0000
0000
0000
,
0110
0000
0000
0000
,
0110
0000
0000
0000
,
1000
0000
0000
0010
,
0000
0000
0001
0000
,
0000
0100
0000
0000
,
2000
0000
0000
0000
,
0000
0000
3001
0000
,
1000
0000
1000
0000
,
0001
0000
0001
0000
,
0200
0000
0000
0000
,
0300
0000
0000
0000
,
0010
0010
0010
0000
,
1000
1000
1000
0000
,
0001
0001
0001
0000
,
0100
0100
0100
0000
,
0001
0000
0000
0001
0000
0000
0001
0000
,
0000
0001
0000
0000
0001
0000
0000
0000
,
1000
0000
0010
0000
,
0100
0000
0001
0000
,
1001
0000
0000
1001
,
0000
0000
0110
0000
,
0000
0110
0000
0000
,
1001
0000
0000
1001
,
0000
0000
0110
0000
,
0000
0220
0000
0000
,
0000
0000
0000
0000
,
0000
0000
0000
0000
,
0000
0000
0330
0000
,
1000
0000
0000
0000
,
0001
0000
0000
0000
,
1000
0000
0000
0000
,
0001
0000
0000
0000
,
1000
0000
0000
0100
,
0000
0000
0001
0000
,
0000
0010
0000
0000
,
1000
0000
0000
0000
,
0001
0000
0000
0000
,
1000
0000
1000
0000
,
0001
0000
0001
0000
,
1000
0000
0000
0000
,
1000
0000
0000
0000
,
0001
0000
0000
0000
,
0200
0000
0000
0000
,
0000
0000
0000
0000
,
0000
0000
0300
0000
,
0000
2000
0000
0000
0000
0000
0000
0000
,
0000
0000
0000
3000
0000
0000
0000
0000
,
0000
0002
0000
0000
0000
0000
0000
0000
,
0000
1003
0000
0000
0000
0000
0000
0000
,
0000
0020
0000
0030
0000
0000
0000
0000
,
0000
0001
0000
1000
,
0000
0010
0000
1001
;

//---------------dance-single - TaroNuke----------------
#NOTES:
     dance-single:
     TaroNuke:
     Medium:
     7:
     0.485,0.549,0.212,0.106,0.119:
0000
0000
0000
0000
,
0000
0000
0000
0000
,
1000
0100
1000
0100
0010
0000
0001
0100
,
0000
0100
0001
0000
1000
0010
1000
0000
,
0001
0100
0001
0100
0010
0000
1000
0100
,
0000
0100
1000
0000
0001
1001
0000
0000
,
1100
0000
1100
0000
1000
0100
1000
0000
,
0001
0100
0001
0000
1000
0001
0010
0000
,
0011
0000
0011
0000
0001
1000
0010
0000
,
0100
0001
1000
0000
0010
0100
0001
0000
,
1010
0000
0000
1010
0000
0000
1000
0100
0010
0001
0000
0000
,
0101
0000
0000
0001
0010
0100
1000
0000
0000
1010
0000
0000
,
1000
0100
1000
0100
0000
0000
0011
0000
0000
0001
0000
0000
,
1000
0010
0100
0010
,
1000
0100
0010
0000
,
0001
0100
0001
0000
1000
0100
1000
0000
,
0001
0010
0001
0000
1000
0010
1000
0000
,
0001
0010
0001
0010
0100
0000
1000
0010
,
0000
0010
1000
0000
0001
1001
0000
0000
,
1010
0000
0000
1000
0000
0000
1001
0000
0000
0000
0001
0000
0010
0000
0100
0000
,
1000
0000
0001
0000
0100
0000
0010
0000
0100
0000
0000
0100
0000
0000
0100
0000
,
0011
0000
0000
0001
0000
0000
1001
0000
0000
0000
1000
0000
0100
0000
0010
0000
,
0001
0000
0100
0000
0010
0000
1000
0000
0100
0000
0000
0100
0000
0000
0100
0000
,
1100
0000
0000
1100
0000
0000
1000
0010
0100
0001
0000
0000
,
0011
0000
0000
0001
0100
0010
1000
0000
0000
1010
0000
0000
,
0001
0100
0001
0100
0000
0000
0011
0000
0000
0100
0000
0000
,
1000
0100
0001
0100
,
1000
0010
0100
0001
,
1000
0010
1000
0000
0001
0010
0001
0000
,
1000
0100
1000
0000
0001
0100
0001
0000
,
1000
0100
1000
0100
0010
0000
0001
0100
,
0000
0100
0001
0000
1000
1001
0000
0000
,
1000
0100
0001
0100
1000
0100
0001
0100
,
1000
0100
0001
0100
1000
0010
0100
0001
,
1000
0010
0100
0010
1000
0010
0100
0010
,
1000
0010
0100
0010
1000
0100
0010
0000
,
0001
0100
0001
1000
0100
1000
0001
0100
,
0001
1000
0100
1000
0001
0010
0100
1000
,
0001
0100
0010
1000
,
0100
0000
0010
0000
0001
1000
1001
0000
,
1000
0000
0000
1000
0000
0000
0000
0000
0000
0000
0000
0000
0100
0000
0000
0100
,
0000
0000
0000
0000
0000
0000
0000
0000
0001
0000
0000
0001
0000
0000
0000
0000
,
0000
0000
0000
0000
0010
0000
0000
0010
0000
0000
0000
0000
0000
0000
0000
0000
,
2000
0000
0000
3020
0000
0000
0032
0000
,
0000
0000
0000
0000
0203
0000
0000
2300
,
0000
3020
0000
0000
,
0000
0000
0000
0000
,
0000
0000
0000
0000
,
0000
0000
0000
0000
0030
0000
0000
1000
,
0001
0100
0000
0100
0010
1000
0000
1000
,
0100
0010
0000
0010
0001
0100
0000
0100
,
0010
1000
0000
1000
0001
0010
0000
0010
,
0001
0100
0000
0100
0010
1000
0000
1000
,
0001
0000
0000
0001
0000
0000
0000
0000
0000
0000
0000
0000
0010
0000
0000
0010
,
0000
0000
0000
0000
0000
0000
0000
0000
1000
0000
0000
1000
0000
0000
0000
0000
,
0000
0000
0000
0000
0100
0000
0000
0100
0000
0000
0000
0000
0000
0000
0001
0000
,
0100
0010
0000
0010
1000
0100
0000
0100
,
0010
1000
0000
1000
0010
0001
0000
0000
,
1000
0100
1000
0000
0001
0100
0001
0000
,
1000
0010
1000
0000
0001
0010
0001
0000
,
1000
1000
0010
0010
,
0100
0000
0100
0001
0000
0000
1001
0000
,
1001
0000
1000
0100
1000
0000
0001
0000
,
0001
0000
0100
0020
M00M
0000
0000
0000
,
0000
M00M
0000
0000
0000
0000
M00M
0000
,
0030
0000
0000
0000
,
0000
0001
0100
0010
0100
0001
0000
1000
,
0010
0000
0000
0000
0000
0000
0000
0000
0000
M00M
0000
0000
0000
0000
0000
0000
0000
0000
0000
0000
0000
0000
0000
0000
0000
0000
0000
0000
0000
0000
0000
0000
0000
0000
0000
0000
0000
0000
0000
0000
0001
0000
0000
0000
0000
0000
0000
0000
1000
0000
0000
0000
0000
0000
0000
0000
0001
0000
0000
0000
0000
0000
0000
0000
,
0100
0000
0000
0000
0000
0000
0000
0000
0010
0000
0000
0000
0000
0000
0000
0000
0010
0000
0000
0000
0000
0000
0000
0000
0100
M00M
0000
0000
0000
0000
0000
0000
0000
0000
0000
0000
0000
0000
0000
0000
0000
0000
0000
0000
0000
0000
0000
0000
0000
0000
0000
0000
0000
0000
0000
0000
0000
0000
0000
0000
0000
0000
0000
0000
,
0000
0000
0000
0001
1000
0100
1000
0100
,
1000
0000
0000
0000
0000
0000
0000
0000
0001
0000
0000
0000
0000
0000
0000
0000
0000
M0M0
0000
0000
0000
0000
0000
0000
0100
0000
0000
0000
0000
0000
0000
0000
0010
0000
0000
0000
0000
0000
0000
0000
1000
0000
0000
0000
0000
0000
0000
0000
1000
0000
0000
0000
0000
0000
0000
0000
0001
0000
0000
0000
0000
0000
0000
0000
,
1000
0001
0200
0300
0020
0030
2000
3000
,
0002
1003
0000
1000
0001
0100
0020
0000
,
0030
0000
0000
0000
;

//---------------dance-single - TaroNuke----------------
#NOTES:
     dance-single:
     TaroNuke:
     Easy:
     4:
     0.268,0.354,0.124,0.097,0.000:
0000
0000
0000
0000
,
0000
0000
0000
0000
,
1000
0010
1000
0010
,
0100
0001
0100
0100
,
0001
0010
0001
0010
,
0100
0000
1000
0000
0100
1000
0000
0000
,
0001
0000
0001
0000
0100
0010
0100
0000
,
0001
0000
1000
0000
0100
0010
0100
0000
,
1000
0000
1000
0000
0010
0100
0010
0000
,
1000
0000
0001
0000
0010
0100
0010
0000
,
0001
0010
0001
1000
,
0010
1000
0001
0100
,
0001
1000
0100
1000
,
0020
0000
0000
0000
,
0000
0000
0000
0000
0100
0130
0000
0000
,
1000
0000
0100
0000
,
0001
0000
0010
0000
,
1000
0100
1000
0100
,
0010
0000
0001
0000
0010
0010
0000
0000
,
0001
0100
1000
0100
,
0001
0000
1001
0000
,
1000
0100
0001
0100
,
1000
0000
0110
0000
,
1000
0100
1000
0001
,
0100
0001
1000
0010
,
1000
0001
0010
0001
,
0200
0000
0000
0000
,
0000
0000
0310
0000
,
1000
0000
0010
0000
,
0001
0000
0100
0000
,
1000
0010
1000
0010
,
0100
0000
0001
0000
0100
0100
0000
0000
,
0001
0100
1000
0100
,
0001
0100
1000
0100
,
0001
0010
1000
0010
,
0001
0010
1000
0010
,
0001
0100
0010
0100
,
0001
0100
0010
0100
,
0001
0010
0100
1000
,
0001
0100
0010
1000
,
0100
0000
0000
1001
,
0000
0000
0010
0000
,
0000
1001
0000
0000
,
0100
0000
0000
1001
,
0000
0000
0110
0000
,
0000
2002
0000
0000
,
0000
0000
0000
0000
,
0000
0000
0000
0000
,
0000
0000
3003
0000
,
2001
0000
0001
0000
,
0010
0000
3001
0000
,
0002
0000
1000
0000
,
0010
0000
1003
0000
,
1001
0000
0000
0110
,
0000
0000
1001
0000
,
0000
0110
0000
0000
,
2001
0000
0001
0000
,
0010
0000
3001
0000
,
0001
0000
0100
0000
,
1000
0000
0010
0000
,
0001
0001
1000
1000
,
0010
0010
0100
0000
,
0001
0001
1000
1000
,
0010
0200
0000
0000
,
0000
0000
0000
0000
,
0000
0300
0000
0000
,
0000
0002
0000
0000
0000
1000
0000
0000
,
0000
0000
0000
0003
0000
0000
0000
0000
,
0000
2000
0000
0000
0000
0000
0000
0000
,
0000
3001
0000
0000
0000
0010
0000
0010
,
0000
0200
0000
0300
0000
0000
0000
0000
,
0000
1000
0001
0010
,
0001
1000
0000
1001
;
