#TITLE:腐れ外道とチョコレゐト;
#SUBTITLE:;
#ARTIST:ピノキオP feat. 灯油;
#TITLETRANSLIT:Kusare Gedou to Chocolate;
#SUBTITLETRANSLIT:;
#ARTISTTRANSLIT:PinocchioP feat. KEROSENE;
#GENRE:ROTTEN HERESY CHOCOLATE;
#CREDIT:AznPunk07/Frozen_Heat/GuardianFrozen;
#MENUCOLOR:#dd0076;
#METERTYPE:DDR;
#BANNER:Kusare Gedou to Chocolate-bn.png;
#BACKGROUND:Kusare Gedou to Chocolate-bg.png;
#LYRICSPATH:Kusare Gedou to Chocolate.lrc;
#CDTITLE:!cdtitle.png;
#MUSIC:Kusare Gedou to Chocolate.mp3;
#OFFSET:-0.086;
#SAMPLESTART:3.780;
#SAMPLELENGTH:11.060;
#SELECTABLE:YES;
#LISTSORT:;
#BPMS:0.000=260.000,168.000=130.000,172.000=260.000,572.000=130.000,580.000=260.000;
#STOPS:;
#BGCHANGES:;
#ATTACKS:;

//---------------dance-single - ----------------
#NOTES:
     dance-single:
     :
     Hard:
     10:
     1.000,1.000,0.613,0.153,0.018: // measure 1
0000
0000
0000
0000
,  // measure 2
0000
0000
0000
0000
,  // measure 3
0000
0000
0000
0000
,  // measure 4
0000
0000
0000
0000
,  // measure 5
1100
0000
0001
0010
0100
0010
0001
0000
,  // measure 6
0101
0000
0010
0100
1000
0100
0010
0000
,  // measure 7
1001
0000
1000
0100
0010
0100
1000
0000
,  // measure 8
0001
0010
1000
0010
0001
0010
1000
0010
,  // measure 9
0011
0000
0100
1000
0010
1000
0100
0000
,  // measure 10
1010
0000
0010
0100
0001
0100
0010
0000
,  // measure 11
0110
0000
0001
0010
0100
1000
0001
0000
,  // measure 12
1100
0000
0000
0101
0000
0000
1001
0000
,  // measure 13
0110
0000
0001
0100
1000
0010
1000
0100
,  // measure 14
0001
0000
1000
0100
0001
0010
0001
0100
,  // measure 15
1000
0000
0001
0010
1000
0001
0100
1000
,  // measure 16
0100
0100
0010
0100
0000
0100
1000
0001
,  // measure 17
1001
0000
0001
0010
1000
0100
1000
0010
,  // measure 18
0001
0000
1000
0010
0001
0100
0001
0010
,  // measure 19
1000
0000
0001
0010
1000
0001
0100
1000
,  // measure 20
0001
0001
0010
0010
0100
0100
1000
1000
,  // measure 21
0001
0100
1000
0100
0010
0100
1000
0100
,  // measure 22
0110
1010
0110
1010
,  // measure 23
0100
0000
0001
0100
1000
0100
0010
0100
,  // measure 24
0101
0110
0101
1000
,  // measure 25
1100
0000
0010
0001
1000
0001
0100
0100
,  // measure 26
0010
0000
0010
0001
0010
1000
0010
0100
,  // measure 27
0001
0001
1000
1000
0010
0100
0001
0000
,  // measure 28
0101
1001
0101
0110
,  // measure 29
1010
0000
0010
1000
0100
1000
0010
0000
,  // measure 30
0101
0000
0010
0001
0100
0001
0010
0000
,  // measure 31
0101
0000
0001
1000
0100
0010
0001
1000
,  // measure 32
1100
1001
1100
0011
,  // measure 33
0001
0100
0001
0100
0000
0010
1000
0010
,  // measure 34
0100
0000
0010
1000
0100
1000
0100
0010
,  // measure 35
0001
0000
1000
0100
0001
0100
1000
0000
,  // measure 36
2200
0000
0000
3300
,  // measure 37
0001
1000
0010
1000
0001
0010
0001
0000
,  // measure 38
0010
0001
1000
1000
0001
0010
0001
0000
,  // measure 39
0100
0000
0010
0001
0010
1000
0010
0001
,  // measure 40
0110
1010
0110
0001
,  // measure 41
0100
0100
0010
0001
0010
1000
0001
0000
,  // measure 42
0101
1010
0101
0010
,  // measure 43
1000
0001
0010
0000
1000
0010
0000
0011
0000
1100
0000
0001
1000
0000
0101
0000
,  // measure 44
1000
0000
0001
0100
0001
0010
0100
0010
,  // measure 45
0001
0000
1000
0010
0001
0010
0100
0010
,  // measure 46
1000
0000
0100
0010
0001
0010
0100
0000
,  // measure 47
1100
1001
0101
1001
,  // measure 48
1100
0000
0001
0010
1000
0010
0100
0000
,  // measure 49
1000
0010
0001
0010
0100
0010
1000
0000
,  // measure 50
0001
0010
0100
0010
0001
0000
1000
0100
,  // measure 51
0010
0100
1000
0100
0010
0000
0000
0000
,  // measure 52
0011
0000
0100
1000
0001
1000
0001
0100
,  // measure 53
0100
0010
0100
0001
0000
0001
0010
1000
,  // measure 54
0010
0100
1000
0001
0100
1000
0100
0010
,  // measure 55
1000
0000
0001
1000
0001
0000
0010
0000
,  // measure 56
1100
0000
0010
1000
0100
1000
0010
0100
,  // measure 57
0001
1000
1000
0001
0000
0001
0010
0100
,  // measure 58
1000
0100
0001
0100
1000
0010
0100
0001
,  // measure 59
0011
1001
0011
1001
,  // measure 60
0001
0010
0100
0010
0001
0001
1000
0100
,  // measure 61
0010
0100
1000
1000
0000
0001
0100
0001
,  // measure 62
1000
0010
0100
0001
0001
0000
1000
0010
,  // measure 63
0001
1000
0100
0001
0000
0001
1000
0001
,  // measure 64
1000
0010
1000
0001
0010
0100
1000
0001
,  // measure 65
1000
0100
0010
0001
1000
0001
0100
0010
,  // measure 66
1000
0000
0000
1100
0000
0000
0011
0000
,  // measure 67
1001
0010
0100
0010
,  // measure 68
1000
0100
0000
0010
0000
0100
1000
0000
,  // measure 69
0001
0100
0001
0000
0010
0000
0001
0000
,  // measure 70
2000
0010
0000
0010
0000
0000
0001
0000
,  // measure 71
3020
0100
1000
0001
,  // measure 72
0230
0001
0000
0001
0001
0000
0010
0000
,  // measure 73
0001
1000
0001
0010
,  // measure 74
0302
0000
0000
0010
0000
0000
1000
0000
,  // measure 75
0013
0100
1000
0100
0010
0001
0010
0100
,  // measure 76
2000
0010
0000
0001
0001
0000
0100
0000
,  // measure 77
0010
3010
0100
0000
0001
1000
0000
0001
,  // measure 78
1000
0001
0010
0000
0100
1000
0000
0100
,  // measure 79
0010
0011
1001
1100
,  // measure 80
0010
0001
0100
0000
0020
0100
0000
0000
,  // measure 81
1030
0100
1000
0000
0001
0010
0001
1000
,  // measure 82
0200
1000
0000
0010
0010
0000
0301
0100
,  // measure 83
2000
0000
3020
0230
0302
2003
3002
0023
,  // measure 84
0230
0300
1000
0100
0010
0100
1000
0000
,  // measure 85
1001
0000
0100
0010
0001
0010
0100
0000
,  // measure 86
0011
0000
0001
0100
0010
0100
0001
0000
,  // measure 87
1000
0010
0001
0010
0000
1000
0001
1000
,  // measure 88
0100
0010
0000
0011
0000
0100
1000
0001
,  // measure 89
1000
0010
0100
0100
0000
0010
1000
0000
,  // measure 90
0101
0000
0001
0010
0100
0000
1000
0100
,  // measure 91
0001
0001
0000
0100
0110
0010
0001
0000
,  // measure 92
0110
0000
0001
0100
0010
0100
0001
0000
,  // measure 93
1010
0000
0010
1000
0100
1000
0010
0000
,  // measure 94
0101
0000
1000
0100
0010
0100
1000
0000
,  // measure 95
0001
0010
0000
0010
0010
0100
1000
0001
,  // measure 96
1001
0000
0100
0001
0100
0010
1000
0100
,  // measure 97
0010
0000
0010
0001
0010
0100
1000
0001
,  // measure 98
0100
0010
0100
0010
1000
0001
1000
0001
,  // measure 99
0001
1000
0001
0000
1001
0000
0000
0000
,  // measure 100
1100
0010
0001
0000
1100
0000
0010
0100
,  // measure 101
1000
0100
0010
0001
0000
0001
1000
0001
,  // measure 102
0100
0010
1000
0000
0101
0000
0010
1000
,  // measure 103
0100
1000
0010
1000
0001
0000
0011
0000
,  // measure 104
0101
0010
1000
0000
0101
0000
0010
1000
,  // measure 105
1000
0010
0100
0001
0100
0010
1000
0100
,  // measure 106
0001
0100
1000
0100
0010
0001
1000
0001
,  // measure 107
0101
0110
1010
1001
,  // measure 108
1010
0000
0100
0001
0001
1000
0001
0001
,  // measure 109
0100
0010
1000
0100
0000
0010
0100
1000
,  // measure 110
0001
0010
0001
1000
0100
0010
0100
1000
,  // measure 111
0001
0101
1000
1010
,  // measure 112
1100
0010
0001
0010
0100
0000
0010
0100
,  // measure 113
1000
0100
0010
0001
0000
0001
1000
0001
,  // measure 114
0100
0100
0010
0010
1000
0001
1000
0100
,  // measure 115
0002
0203
2300
3000
,  // measure 116
0001
0010
0001
0010
1000
0010
1000
0100
,  // measure 117
1000
0010
1000
0010
0001
1000
0001
0000
,  // measure 118
1000
0010
1000
0010
0001
0010
0001
0100
,  // measure 119
0001
0010
0001
0010
1000
0001
1000
0000
,  // measure 120
0001
0100
1000
0010
1000
0100
0001
1000
,  // measure 121
0100
0001
0010
0001
0100
1000
0001
0000
,  // measure 122
1000
0000
0000
0000
,  // measure 123
0000
0000
0000
0000
,  // measure 124
0000
0000
0000
0000
,  // measure 125
0000
0001
0101
1001
,  // measure 126
1100
0000
0010
0001
1000
0100
0010
0001
,  // measure 127
1000
0000
0001
0100
0010
1000
0001
0100
,  // measure 128
0010
0000
1000
0100
0001
0100
0010
0100
,  // measure 129
1000
0000
0001
0010
1000
0010
0100
0010
,  // measure 130
0001
0000
1000
0010
0001
0010
0100
0001
,  // measure 131
1000
0000
0001
0100
1000
0100
0010
1000
,  // measure 132
0001
0000
1000
0100
0010
0001
0100
0001
,  // measure 133
0010
0100
1000
0100
0010
0001
1000
0001
,  // measure 134
1000
0000
0010
1000
0010
0001
1000
0100
,  // measure 135
0010
0000
1000
0100
0010
0001
0010
1000
,  // measure 136
0010
0000
0100
1000
0100
0010
0001
1000
,  // measure 137
0001
0100
0001
0010
0000
0100
1000
0100
,  // measure 138
0010
0000
0100
1000
0001
0010
0100
0010
,  // measure 139
0001
0000
0001
0010
0100
1000
0001
0000
,  // measure 140
0100
0001
0010
1000
0010
0001
0100
0000
,  // measure 141
0100
0001
0010
1000
0010
0001
0100
0000
,  // measure 142
0100
0001
0010
1000
0010
0001
0100
0000
,  // measure 143
0100
0001
0010
1000
0010
0001
0100
0000
,  // measure 144
0200
0000
0000
0000
,  // measure 145
0000
0000
0000
0000
,  // measure 146
0000
0300
0000
0000
0000
0000
0000
0000
0000
0000
0000
0000
0000
0000
0000
0000
;

//---------------dance-single - ----------------
#NOTES:
     dance-single:
     :
     Easy:
     10:
     0.829,0.847,0.307,0.080,0.018: // measure 1
0000
0000
0000
0000
,  // measure 2
0000
0000
0000
0000
,  // measure 3
0000
0000
0000
0000
,  // measure 4
0000
0000
0000
0000
,  // measure 5
1000
0000
1000
0100
0010
0100
1000
0000
,  // measure 6
0100
0000
0100
0010
0001
0010
0100
0000
,  // measure 7
0010
0000
0010
0001
0010
0100
1000
0000
,  // measure 8
0001
1000
0001
1000
0001
1000
0001
0000
,  // measure 9
1000
0000
1000
0100
0010
0100
1000
0000
,  // measure 10
0100
0000
0100
0010
0001
0010
0100
0000
,  // measure 11
0010
0000
0010
0001
0010
0100
1000
0000
,  // measure 12
0001
0000
0000
1000
0000
0000
1001
0000
,  // measure 13
0101
0000
0001
0100
1000
0100
0001
0000
,  // measure 14
0011
0000
0001
0010
1000
0010
0001
0000
,  // measure 15
0101
0000
0001
0100
1000
0100
0001
0000
,  // measure 16
0010
0001
0000
1100
0000
0011
0000
0000
,  // measure 17
1010
0000
1000
0010
0001
0010
1000
0000
,  // measure 18
1100
0000
1000
0100
0001
0100
1000
0000
,  // measure 19
1010
0000
1000
0010
0001
0010
1000
0000
,  // measure 20
0001
0010
0100
1000
0001
0010
0100
1000
,  // measure 21
0001
0100
0001
0000
1000
0010
1000
0000
,  // measure 22
0001
0011
1001
0000
,  // measure 23
1000
0100
1000
0000
0001
0010
0001
0000
,  // measure 24
1000
1010
1001
0000
,  // measure 25
0001
0010
0100
0000
0100
0010
0001
0000
,  // measure 26
1000
0000
1000
0100
0010
0001
0010
0100
,  // measure 27
1000
0001
1000
0001
1000
0000
1000
0010
,  // measure 28
0001
0010
1000
0100
,  // measure 29
1100
0000
0000
1000
0001
0000
0100
0000
,  // measure 30
0110
0000
0000
0001
0100
0010
0100
0000
,  // measure 31
0110
0000
0000
1000
0100
0010
0100
1000
,  // measure 32
0100
0110
0010
0011
,  // measure 33
0001
0010
0001
0010
0000
0100
1000
0000
,  // measure 34
1000
0000
0010
0000
1000
0010
1000
0000
,  // measure 35
0001
0000
0000
0100
0001
0000
0000
0000
,  // measure 36
0220
0000
0000
0330
,  // measure 37
0001
0000
0001
0010
0100
0010
0001
0000
,  // measure 38
0010
0000
0010
0100
1000
0100
0010
0000
,  // measure 39
0100
0000
0100
1000
0100
0010
0001
0010
,  // measure 40
0100
1100
0011
0000
,  // measure 41
1000
0000
1000
0010
0100
0010
1000
0000
,  // measure 42
0001
1001
0010
1001
,  // measure 43
1000
0100
0001
0000
0100
1000
0000
0001
0000
0100
0000
1000
0100
0000
0001
0000
,  // measure 44
0010
0000
0000
0010
0001
0010
0000
0100
,  // measure 45
1000
0000
0000
1000
0010
1000
0000
0001
,  // measure 46
0100
0001
0000
0010
0100
0010
0100
0010
,  // measure 47
0001
1001
1000
1100
,  // measure 48
0110
0000
0100
1000
0001
0000
0101
0000
,  // measure 49
1010
0000
1000
0100
0010
0000
0011
0000
,  // measure 50
1100
1000
0100
1000
0100
0000
0010
0001
,  // measure 51
0010
0001
0010
0001
0011
0000
0000
0000
,  // measure 52
1001
0000
0001
0100
0010
0100
0001
0100
,  // measure 53
0010
0100
0001
0010
0000
0100
1000
0000
,  // measure 54
0100
1000
0010
1000
0100
1000
0010
1000
,  // measure 55
0100
0000
1000
0100
0010
0000
0100
0000
,  // measure 56
1000
0010
1000
0100
1000
0000
0010
0100
,  // measure 57
1000
0100
0010
0100
1000
0000
0100
0001
,  // measure 58
0100
0001
0010
0100
0010
0000
0001
0010
,  // measure 59
0100
0010
0001
1000
,  // measure 60
0010
1000
0010
1000
0001
0010
0001
0010
,  // measure 61
0100
0000
0100
1000
0100
0000
0010
0000
,  // measure 62
0100
1000
0100
1000
0001
0100
0001
0100
,  // measure 63
0010
1000
0000
1000
0001
0000
1000
0000
,  // measure 64
0001
0010
0100
0010
0001
0000
1001
0000
,  // measure 65
0001
0100
0010
0100
0001
0000
1001
0000
,  // measure 66
0100
0000
0000
0100
0000
0000
0100
0000
,  // measure 67
0000
0010
0110
0110
,  // measure 68
1000
0100
0000
0100
1000
0000
0001
0000
,  // measure 69
1000
0010
0000
0010
1000
0000
0000
0000
,  // measure 70
0002
0000
0000
0000
,  // measure 71
0013
0100
1000
0001
,  // measure 72
0200
0000
0000
0000
,  // measure 73
0000
0000
0000
0000
,  // measure 74
0310
0000
0000
1000
0000
0000
0001
0000
,  // measure 75
1000
0100
1000
0100
1000
0100
1000
0100
,  // measure 76
2000
0000
0000
0000
,  // measure 77
0000
0000
3001
0000
0100
0001
0000
0000
,  // measure 78
0010
0000
0100
1000
0100
0000
0010
0000
,  // measure 79
0001
1000
0000
0001
1000
0000
0010
0000
,  // measure 80
0100
0001
0020
0000
,  // measure 81
0130
1000
0001
1000
,  // measure 82
0002
0000
0000
0103
,  // measure 83
0020
0000
0000
0000
,  // measure 84
1030
0000
1000
0100
0001
0100
1000
0100
,  // measure 85
0010
0000
0010
0001
1000
0001
0010
0001
,  // measure 86
0100
0000
0100
0010
0001
0010
0100
0010
,  // measure 87
1000
0100
0010
0001
0000
0001
0010
0100
,  // measure 88
1000
0000
1000
0100
0000
0000
0100
0000
,  // measure 89
0010
0001
0100
0001
0000
0010
0100
1000
,  // measure 90
0001
0000
0001
0100
0001
0000
0010
0100
,  // measure 91
1000
0100
0000
0100
0010
0001
1000
0000
,  // measure 92
0001
0000
0001
0100
0010
0100
0001
0000
,  // measure 93
1000
0000
1000
0010
0100
0010
1000
0000
,  // measure 94
0001
0000
0001
0010
0100
0000
0100
0010
,  // measure 95
0001
1000
0001
0100
,  // measure 96
0010
1000
0000
1000
0100
0000
0010
0100
,  // measure 97
1000
0000
0100
0000
0010
0000
0001
0010
,  // measure 98
0100
0000
0010
0000
0001
0000
1000
0100
,  // measure 99
0010
0001
1001
0000
,  // measure 100
1000
0010
1000
0010
0100
0000
0100
0000
,  // measure 101
0001
0100
0001
0100
0000
0010
1000
0000
,  // measure 102
0001
0010
0100
0010
0001
0000
1000
0001
,  // measure 103
1000
0000
0001
1000
0001
0000
0100
0000
,  // measure 104
0010
0000
1000
0100
0010
0100
1000
0001
,  // measure 105
1000
0000
0001
0010
0100
0010
0001
1000
,  // measure 106
0001
0100
0010
1000
,  // measure 107
0001
0010
0100
0010
0001
0000
1001
0000
,  // measure 108
1000
0000
1000
0010
0100
0000
0100
0010
,  // measure 109
1000
0001
1000
0100
0000
0100
1000
0000
,  // measure 110
0001
0100
0001
0010
0100
0000
0100
0010
,  // measure 111
0001
0000
0001
1000
0001
0000
1000
0000
,  // measure 112
0010
0000
0010
0100
0001
0000
0001
0100
,  // measure 113
0010
1000
0100
0010
0000
0010
0100
1000
,  // measure 114
0001
0010
0100
1000
0001
1000
0001
0100
,  // measure 115
0020
0030
0200
0300
,  // measure 116
0001
0010
0001
0010
1000
0010
1000
0010
,  // measure 117
0001
0100
1000
0100
0001
0000
0000
0000
,  // measure 118
1000
0100
1000
0100
0001
0100
0001
0100
,  // measure 119
1000
0010
0001
0010
1000
0000
0000
0000
,  // measure 120
0001
0010
1000
0010
0001
0100
1000
0100
,  // measure 121
0001
0010
1000
0010
0001
0000
1000
0000
,  // measure 122
0001
0000
0000
0000
,  // measure 123
0000
0000
0000
0000
,  // measure 124
0000
0000
0000
0000
,  // measure 125
0000
1000
0100
0010
,  // measure 126
0001
0000
0001
0010
0100
0010
0001
0000
,  // measure 127
0010
0000
0010
0100
1000
0100
0010
0000
,  // measure 128
0100
0000
0100
1000
0100
0010
0001
0000
,  // measure 129
1000
0001
0000
1000
0000
0001
1000
0000
,  // measure 130
1000
0000
1000
0100
0010
0100
1000
0000
,  // measure 131
0100
0000
0100
0010
0001
0010
0100
0000
,  // measure 132
0010
0000
0010
0001
0010
0100
1000
0000
,  // measure 133
0001
0010
0100
1000
0000
1000
0001
0000
,  // measure 134
1000
0000
1000
0010
0100
0010
1000
0010
,  // measure 135
0100
0000
0100
0001
0010
0001
0100
0001
,  // measure 136
0010
0000
0010
0100
1000
0100
0010
0000
,  // measure 137
0001
0010
0000
0001
0000
1000
0000
1000
,  // measure 138
0001
0000
0001
0100
0010
0100
0001
0100
,  // measure 139
0010
0000
0010
1000
0100
1000
0010
1000
,  // measure 140
1100
0000
0100
0010
0001
0010
0100
0000
,  // measure 141
1100
0000
0100
0010
0001
0010
0100
0000
,  // measure 142
1100
0000
0100
0010
0001
0010
0100
0000
,  // measure 143
1100
0000
0100
0010
0001
0010
0100
0000
,  // measure 144
0200
0000
0000
0000
,  // measure 145
0000
0000
0000
0000
,  // measure 146
0000
0300
0000
0000
0000
0000
0000
0000
0000
0000
0000
0000
0000
0000
0000
0000
;

//---------------dance-single - ----------------
#NOTES:
     dance-single:
     :
     Medium:
     10:
     0.907,0.953,0.277,0.066,0.018: // measure 1
0000
0000
0000
0000
,  // measure 2
0000
0000
0000
0000
,  // measure 3
0000
0000
0000
0000
,  // measure 4
0000
0000
0000
0000
,  // measure 5
0001
0010
0100
1000
0100
0010
0001
0000
,  // measure 6
1000
0100
0010
0001
0010
0100
1000
0000
,  // measure 7
0001
0010
0100
1000
0100
0010
0001
0000
,  // measure 8
1000
0010
0001
0010
1000
0010
0001
0010
,  // measure 9
1000
0100
0010
0001
0010
0100
1000
0000
,  // measure 10
0001
0010
0100
1000
0100
0010
0001
0000
,  // measure 11
1000
0100
0010
0001
0010
0100
1000
0000
,  // measure 12
0001
0000
0000
1000
0000
0000
1001
0000
,  // measure 13
1001
0000
1000
0010
0001
0010
0100
0010
,  // measure 14
1000
0000
1000
0100
0010
0100
0001
0100
,  // measure 15
0010
0000
0010
0100
1000
0001
0010
0000
,  // measure 16
0010
0001
0000
1001
0000
0101
0000
0000
,  // measure 17
1001
0000
0001
0100
1000
0100
0010
0100
,  // measure 18
0001
0000
0001
0010
0100
0010
1000
0010
,  // measure 19
0100
0000
0100
0010
0001
1000
0100
0000
,  // measure 20
1000
1000
0001
1000
0001
0001
1000
0001
,  // measure 21
1000
0100
0010
0100
1000
0000
0001
0010
,  // measure 22
0100
0011
1001
0000
,  // measure 23
0001
0100
0010
0100
0001
0000
1000
0010
,  // measure 24
0100
1010
1001
0000
,  // measure 25
1000
0000
1000
0010
0100
0001
0100
0010
,  // measure 26
1000
0000
0001
0100
0010
1000
0010
0100
,  // measure 27
0001
0010
0001
0100
0001
0010
0001
0100
,  // measure 28
0001
0101
0100
0110
,  // measure 29
1010
0000
0000
1000
0100
1000
0100
0000
,  // measure 30
1100
0000
0000
0010
0001
0010
0001
0000
,  // measure 31
0011
0000
0000
0001
1000
0001
1000
0001
,  // measure 32
0010
0110
0011
0110
,  // measure 33
0100
1000
0100
1000
0000
1000
0001
0000
,  // measure 34
1000
0000
0001
0100
0001
0100
0010
0100
,  // measure 35
0001
0000
0000
1001
0000
0000
1000
0000
,  // measure 36
0022
0000
0000
0033
,  // measure 37
1000
0100
0010
0100
1000
0100
0010
0000
,  // measure 38
0001
0010
0100
0010
0001
1000
0001
0000
,  // measure 39
1000
0000
0001
0100
1000
0100
0001
0100
,  // measure 40
0010
1010
0101
1000
,  // measure 41
0001
0100
0010
0100
0001
0010
0100
0000
,  // measure 42
1000
0000
0100
0010
0001
0010
0100
0000
,  // measure 43
1000
0100
1000
0000
0100
0010
0000
0110
0000
0010
0000
0001
0010
0000
0001
0000
,  // measure 44
1000
0000
1000
0010
0001
0010
0100
0000
,  // measure 45
0001
0000
0001
0010
1000
0010
0100
0000
,  // measure 46
0010
0000
0001
0010
0100
1000
0100
0000
,  // measure 47
0010
0011
0100
1100
,  // measure 48
0001
0010
0100
1000
0100
0000
0010
0000
,  // measure 49
0001
0010
0100
1000
0100
0000
0010
0000
,  // measure 50
0001
0100
1000
0100
0001
0100
1000
0100
,  // measure 51
0001
0010
0100
1000
0100
0000
0000
0000
,  // measure 52
0010
0000
0001
1000
0001
1000
0001
0100
,  // measure 53
1000
0100
0010
0100
0000
0100
0001
0000
,  // measure 54
1000
0001
1000
0001
0010
1000
0010
0001
,  // measure 55
0010
0000
0100
0010
0100
0000
0010
0000
,  // measure 56
0001
0100
0010
1000
0001
0100
0010
1000
,  // measure 57
0010
0100
0001
0010
0000
0010
0100
0000
,  // measure 58
1000
0100
1000
0001
0100
0001
0010
0100
,  // measure 59
1000
1001
0001
1001
,  // measure 60
0001
0100
1000
0100
0110
0000
1000
0100
,  // measure 61
0010
0001
0000
1001
0000
0001
0100
0000
,  // measure 62
0001
0100
1000
0100
0110
0000
1000
0100
,  // measure 63
0001
0100
1000
0100
0000
0100
0010
0000
,  // measure 64
0001
0010
0100
1000
0010
0000
1000
0100
,  // measure 65
0010
0001
0100
0001
1000
0000
0001
0000
,  // measure 66
1000
0000
0000
1100
0000
0000
1001
0000
,  // measure 67
0001
0100
0001
1000
,  // measure 68
0100
0010
0000
0010
0100
0000
1000
0000
,  // measure 69
0001
0000
0010
0001
0010
0000
0100
0000
,  // measure 70
0020
0000
0000
0000
,  // measure 71
0031
1000
0010
1000
,  // measure 72
0200
0000
0000
0000
,  // measure 73
0000
0000
0000
0000
,  // measure 74
0310
0000
0010
0001
0000
0001
0100
0000
,  // measure 75
0010
0100
0010
1000
0010
0100
0010
1000
,  // measure 76
0002
0000
0000
0000
,  // measure 77
0000
0000
0013
0100
0010
0100
1000
0000
,  // measure 78
0010
0000
0100
0001
0100
0000
0010
0000
,  // measure 79
1000
0100
0010
0000
0100
0010
0001
0000
,  // measure 80
0100
0001
2000
0000
,  // measure 81
3010
0100
0001
0100
,  // measure 82
0020
0000
0000
0130
,  // measure 83
0002
1000
1000
1000
,  // measure 84
1003
0000
1000
0100
0010
0001
0010
0100
,  // measure 85
1000
0000
0001
0010
0100
1000
0100
0010
,  // measure 86
0001
0000
1000
0100
0010
0001
0010
0100
,  // measure 87
1000
0100
0001
0100
1000
0010
0001
0010
,  // measure 88
1000
0000
1000
0010
0100
0001
0100
0010
,  // measure 89
1000
0000
0001
0100
0010
1000
0010
0100
,  // measure 90
0001
0000
1000
0010
0100
0001
0100
0010
,  // measure 91
1000
0100
0000
0010
0001
0010
0001
0000
,  // measure 92
0011
0000
0001
0010
0100
1000
0100
0010
,  // measure 93
0001
0000
1000
0100
0010
0001
0010
0100
,  // measure 94
1000
0000
0001
0010
0100
1000
0100
0010
,  // measure 95
0001
0100
0001
1000
0000
1000
0001
0100
,  // measure 96
0001
0000
0001
0100
0010
1000
0010
0100
,  // measure 97
0001
0000
1000
0010
0100
0001
0100
0010
,  // measure 98
1000
0100
0010
0001
,  // measure 99
1000
0001
1000
0000
1001
0000
0000
0000
,  // measure 100
1000
0100
0010
0100
1000
0100
0010
0001
,  // measure 101
1000
0000
0001
0101
0000
0100
0001
0000
,  // measure 102
0010
1000
0100
1000
0010
0000
0100
0001
,  // measure 103
0010
0100
0000
0100
1100
0000
0010
0000
,  // measure 104
0100
0000
1000
0010
0001
1000
0100
0001
,  // measure 105
0010
0000
0001
0010
1000
0000
0010
0001
,  // measure 106
0010
0100
1000
0001
0100
0000
0100
0010
,  // measure 107
0100
0001
0100
0010
0100
0000
0110
0000
,  // measure 108
0001
0010
0100
0010
0001
0010
0100
1000
,  // measure 109
0001
0000
1000
0010
0000
0010
1000
0000
,  // measure 110
0100
0001
0010
0001
0100
0000
0010
1000
,  // measure 111
0100
0010
0000
0010
0001
0000
0000
0000
,  // measure 112
0010
0000
0001
0100
1000
0001
0010
1000
,  // measure 113
0100
0000
1000
0100
0001
0000
0100
1000
,  // measure 114
0100
0010
0001
1000
0010
0000
0010
0100
,  // measure 115
0010
1000
0010
0100
0010
0000
0000
0000
,  // measure 116
0001
0010
0001
0010
1000
0010
1000
0010
,  // measure 117
0100
1000
0001
0100
1000
0100
0010
0000
,  // measure 118
1000
0010
1000
0010
0001
0010
0001
0010
,  // measure 119
0100
0001
1000
0100
0001
0100
0010
0000
,  // measure 120
0001
0100
1000
0001
0010
1000
0001
0100
,  // measure 121
1000
0001
0010
1000
0001
0000
0010
0000
,  // measure 122
0110
0000
0000
0000
,  // measure 123
0000
0000
0000
0000
,  // measure 124
0000
0000
0000
0000
,  // measure 125
0000
1000
1100
0001
,  // measure 126
1000
0100
0010
0001
0010
0100
1000
0000
,  // measure 127
0001
0010
0100
1000
0100
0010
0001
0000
,  // measure 128
1000
0100
0010
0001
0010
0100
1000
0000
,  // measure 129
0001
0100
1000
0100
0000
0010
1000
1000
,  // measure 130
0001
0010
0100
1000
0100
0010
0001
0000
,  // measure 131
1000
0100
0010
0001
0010
0100
1000
0000
,  // measure 132
0001
0010
0100
1000
0100
0010
0001
0000
,  // measure 133
1000
0001
0001
1000
0000
0001
1000
1000
,  // measure 134
0001
0010
0100
1000
1000
0100
0010
0001
,  // measure 135
1000
0000
0001
0010
0100
1000
1000
0100
,  // measure 136
0010
0001
0001
1000
0100
0010
0001
0000
,  // measure 137
0001
0001
1000
1000
0000
0001
0010
0100
,  // measure 138
1000
1000
0100
0010
0001
0010
0100
1000
,  // measure 139
0001
0001
0010
0100
1000
0100
0010
0001
,  // measure 140
1000
0100
0010
0001
0010
0100
1000
0000
,  // measure 141
1000
0100
0010
0001
0010
0100
1000
0000
,  // measure 142
1000
0100
0010
0001
0010
0100
1000
0000
,  // measure 143
1000
0100
0010
0001
0010
0100
1000
0000
,  // measure 144
0200
0000
0000
0000
,  // measure 145
0000
0000
0000
0000
,  // measure 146
0000
0300
0000
0000
0000
0000
0000
0000
0000
0000
0000
0000
0000
0000
0000
0000
;
