#TITLE:ELEMENTAL EUPHORIA;
#SUBTITLE:;
#ARTIST:RYGON;
#TITLETRANSLIT:;
#SUBTITLETRANSLIT:;
#ARTISTTRANSLIT:;
#GENRE:;
#CREDIT:xRGTMx;
#BANNER:EE-bn.png;
#BACKGROUND:EE-bg.png;
#LYRICSPATH:;
#CDTITLE:;
#MUSIC:Elemental Euphoria.mp3;
#OFFSET:-10.920;
#SAMPLESTART:29.080;
#SAMPLELENGTH:14.560;
#SELECTABLE:YES;
#BPMS:0.000=66.000
,4.000=132.000
,152.000=66.000
,168.000=132.000
,200.000=66.000
;
#STOPS:28.000=1.818,
88.000=1.818,
148.000=1.818
;
#BGCHANGES:;
#KEYSOUNDS:;
#ATTACKS:;

//---------------dance-single - xRGTMx----------------
#NOTES:
     dance-single:
     :
     Hard:
     8:
     0.449,0.452,0.220,0.497,0.191,298.000,27.000,61.000,0.000,0.000,0.000,0.449,0.452,0.220,0.497,0.191,298.000,27.000,61.000,0.000,0.000,0.000: // measure 0
0000
0000
0000
0000
,  // measure 1
2001
0001
0001
3002
,  // measure 2
0100
0203
0010
0320
,  // measure 3
0100
0100
0230
0001
,  // measure 4
0302
0010
0203
0310
,  // measure 5
1001
0000
1000
0001
0100
0010
0100
0000
,  // measure 6
0110
0000
0010
1000
0100
0010
0001
0000
,  // measure 7
2002
3003
0000
0000
0000
0000
0000
1000
0000
0001
1000
0000
1001
0000
0000
0000
,  // measure 8
2000
0010
0000
3020
0000
0130
0010
1000
,  // measure 9
0001
0010
0100
0001
1000
0010
0001
0100
,  // measure 10
0020
0000
0100
0230
0000
0000
0001
0000
,  // measure 11
0000
0301
0010
0100
1000
0010
0001
0010
,  // measure 12
0100
1000
0001
0020
0000
0000
2030
0000
,  // measure 13
3001
0010
1000
0002
0000
0000
0203
0000
,  // measure 14
2300
3001
0002
1003
,  // measure 15
1000
0000
0000
0000
1100
0000
0000
0100
0000
0010
0001
0000
0011
0000
0000
0000
,  // measure 16
0002
0100
0000
0203
0000
0310
0100
0001
,  // measure 17
1000
0100
0001
1000
0010
0100
1000
0001
,  // measure 18
0100
0000
1000
0200
0000
0000
0001
0000
,  // measure 19
0000
0301
0010
1000
0001
1000
0010
0001
,  // measure 20
0100
0010
1000
2200
0000
0000
3300
0100
,  // measure 21
0010
0001
0100
0220
0000
0000
0300
0000
,  // measure 22
2030
3000
0000
0000
0000
0000
0000
1000
0000
1000
0100
0000
0110
0000
0000
0000
,  // measure 23
0010
0001
2000
0000
3010
0100
0010
0002
,  // measure 24
0000
0013
1000
0200
0000
1300
0001
1000
,  // measure 25
0010
0100
2000
0000
3100
0001
0010
0200
,  // measure 26
0000
0010
0000
0310
0001
1000
0010
0100
,  // measure 27
0001
0100
2000
0000
3100
0001
1000
0200
,  // measure 28
0000
0310
0001
2001
0000
3001
0100
1000
,  // measure 29
0001
0010
0200
0000
0310
0001
1000
0200
,  // measure 30
0000
0000
0301
0000
0000
0000
0000
0001
0000
0001
0010
0000
0110
0000
0000
0000
,  // measure 31
0100
1000
0002
0000
0103
0001
0010
0200
,  // measure 32
0000
0010
0310
0002
0000
1003
1000
0001
,  // measure 33
0100
1000
0200
0000
0310
1000
0100
0002
,  // measure 34
0000
0103
0000
0100
1000
0001
0100
0010
,  // measure 35
0100
0100
0020
0000
1030
1000
0001
0020
,  // measure 36
0000
0130
0100
0020
0000
0031
0001
1000
,  // measure 37
0020
0030
0000
0000
0000
0000
0000
0100
0000
0001
1000
0000
1001
0000
0000
0000
,  // measure 38
2000
0020
0000
0000
3000
0000
0000
0000
0030
0010
0100
0001
0010
0100
1000
0001
,  // measure 39
0200
0000
0000
0002
0000
0000
0000
0000
0303
0001
0100
0010
1000
0001
1000
0100
,  // measure 40
0020
0000
0000
0230
0000
0000
0010
0000
0320
0000
0000
0032
0000
0000
1000
0000
,  // measure 41
2003
0000
0000
0000
0000
0000
0000
0000
3000
1000
0010
0001
1000
0100
0001
0010
,  // measure 42
0100
0000
1000
0000
0010
0000
0000
0110
0000
0000
0101
0000
0000
1001
0000
0000
,  // measure 43
2100
0000
0000
0100
0000
3100
0000
0000
0210
0000
0000
0010
0000
0310
0000
0000
,  // measure 44
0001
0000
0100
0000
0010
0000
1000
0000
0000
0000
1010
0000
0000
1001
0000
0000
,  // measure 45
0102
0000
0000
0100
0000
0103
0000
0000
0210
0000
0000
0010
0000
0310
0000
0000
,  // measure 46
1001
0000
0000
1000
0000
0001
0000
0000
0011
0000
0000
0010
0000
0100
0000
0000
,  // measure 47
1100
0000
0000
1000
0000
0001
0000
0000
0101
0000
0000
0100
0000
0010
0000
0000
,  // measure 48
1000
0001
1000
0001
0100
0010
0100
0010
,  // measure 49
1000
0000
0100
0000
0010
0000
0001
0010
0000
0010
0100
0000
1000
0000
0001
0000
,  // measure 50
2002
0000
3003
0000
;

//---------------dance-single - xRGTMx----------------
#NOTES:
     dance-single:
     :
     Medium:
     6:
     0.323,0.288,0.090,0.521,0.000,203.000,11.000,64.000,0.000,0.000,0.000,0.323,0.288,0.090,0.521,0.000,203.000,11.000,64.000,0.000,0.000,0.000:
0000
0000
0000
0000
,
2000
0000
3000
0000
,
0020
0230
0302
2003
,
3200
0000
0300
0000
,
0020
0230
2300
3002
,
1003
0000
1000
0000
1000
0100
1000
0000
,
0001
0000
0001
0000
0001
0100
0001
0000
,
0200
0300
0000
0000
0000
0000
0000
0000
0010
0000
0000
0000
1001
0000
0000
0000
,
2000
0100
3200
0320
,
0130
1000
0001
0100
,
0020
0100
0230
0302
,
1003
0100
0010
0001
,
0200
0010
0302
2003
,
3001
0010
0100
1000
,
0020
0100
0230
0010
,
0320
1000
2030
0001
,
3002
0010
0100
1000
,
1003
0100
1000
0000
0001
0100
0001
0000
,
2000
0100
0010
3001
,
1000
0010
1000
0000
0001
0010
0001
0000
,
1001
1000
0001
0100
,
1001
0001
1000
0100
,
2002
3003
0000
0000
0100
0000
1001
0000
,
1000
0001
2000
0000
0100
0000
3200
0000
,
0010
1000
2300
3001
,
0001
1000
0002
0000
0100
0000
0203
0000
,
0010
0001
0302
1003
,
1000
0001
2000
0000
0010
0000
3020
0000
,
0100
1000
2030
3001
,
0001
1000
0002
0000
0010
0000
0023
0000
,
0100
0001
0032
1003
,
1000
0001
2000
0000
0100
0000
0001
0000
,
3002
0100
0010
1003
,
0001
1000
0002
0000
0100
0000
1000
0000
,
2003
0100
0010
3001
,
1001
0100
0010
0010
,
1001
0100
0010
0010
,
2002
3003
0000
0000
0000
0000
0000
0000
0100
0000
0000
0000
1001
0000
0000
0000
,
0020
0000
0000
0000
0031
0001
0100
0100
,
0020
0000
0000
0000
1030
1000
0100
0100
,
0020
0000
0032
0000
,
2003
0000
0000
0000
3001
1000
1001
1001
,
0002
0203
0010
0010
,
0320
1000
2030
0001
,
3002
0023
0100
0100
,
0230
1000
2300
0001
,
3002
0203
0320
2030
,
0100
0010
0001
3001
,
1000
0001
1000
0000
0010
0000
0010
0000
,
1000
0001
1000
0000
0010
0000
0010
0000
,
0200
0000
0300
0000
;

//---------------dance-single - xRGTMx----------------
#NOTES:
     dance-single:
     :
     Easy:
     2:
     0.130,0.123,0.081,0.033,0.000,98.000,10.000,4.000,0.000,0.000,0.000,0.130,0.123,0.081,0.033,0.000,98.000,10.000,4.000,0.000,0.000,0.000:
0000
0000
0000
0000
,
1000
0000
0000
0000
,
1000
0000
0000
0000
,
0001
0000
0000
0000
,
0001
0000
0000
0000
,
1001
0000
0100
0000
,
1001
0000
0010
0000
,
1001
0000
0000
0001
,
1000
0000
1000
0000
,
0001
0001
0000
0001
,
0100
0000
0100
0000
,
0010
0010
0000
0010
,
0100
0000
0001
0000
,
1000
0000
0100
0100
,
0010
0000
0100
0000
,
1000
0000
0001
0000
,
1001
0000
0000
1000
,
0001
0000
0001
0000
,
1001
0000
0000
0001
,
1000
0000
1000
0000
,
0010
0000
0010
0000
,
0100
0000
0100
0000
,
1001
0000
0000
0000
,
1000
0000
1000
0000
,
0100
0010
0000
0000
,
0001
0000
0001
0000
,
0100
0010
0000
0000
,
1000
0000
1000
0000
,
0010
0100
0000
0000
,
0001
0000
0001
0000
,
0010
0100
0000
0000
,
1000
0001
0000
0000
,
1001
0000
0100
0000
,
0001
1000
0000
0000
,
1001
0000
0100
0000
,
1000
1000
1000
0000
,
0001
0001
0001
0000
,
1001
0000
0000
0000
,
1000
0000
1000
0000
,
0100
0000
0100
0000
,
0010
0000
0010
0000
,
0001
0000
0001
0000
,
2000
0000
3000
0000
,
1000
0001
0000
0000
,
0002
0000
0003
0000
,
0001
1000
0000
0000
,
1000
0100
0000
0000
,
0100
0010
0000
0000
,
0010
0010
0010
0000
,
0001
0001
0001
0000
,
2002
0000
3003
0000
;

//---------------dance-single - xRGTMx----------------
#NOTES:
     dance-single:
     :
     Beginner:
     1:
     0.097,0.082,0.081,0.016,0.000,71.000,10.000,2.000,0.000,0.000,0.000,0.097,0.082,0.081,0.016,0.000,71.000,10.000,2.000,0.000,0.000,0.000:
0000
0000
0000
0000
,
1000
0000
0000
0000
,
0000
0000
0000
0000
,
0001
0000
0000
0000
,
0000
0000
0000
0000
,
1001
0000
0000
0000
,
0110
0000
0000
0000
,
1001
0000
0000
0000
,
1000
0000
1000
0000
,
0001
0000
0000
0000
,
0001
0000
0001
0000
,
1000
0000
0000
0000
,
0010
0000
0010
0000
,
0100
0000
0000
0000
,
0100
0000
0100
0000
,
0010
0000
0000
0000
,
1000
0000
1000
0000
,
0100
0000
0000
0000
,
0100
0000
0100
0000
,
0010
0000
0000
0000
,
0010
0000
0010
0000
,
0001
0000
0000
0000
,
1001
0000
0000
0000
,
1000
0000
0001
0000
,
1000
0000
0000
0000
,
1000
0000
0001
0000
,
1000
0000
0000
0000
,
0001
0000
1000
0000
,
0001
0000
0000
0000
,
0001
0000
1000
0000
,
0001
0000
0000
0000
,
0100
0000
0010
0000
,
0100
0000
0000
0000
,
0010
0000
0100
0000
,
0010
0000
0000
0000
,
1000
0000
0001
0000
,
0100
0000
0010
0000
,
1001
0000
0000
0000
,
1000
0000
1000
0000
,
0001
0000
0001
0000
,
0100
0000
0100
0000
,
0010
0000
0010
0000
,
1000
1000
0000
0000
,
1001
0000
0000
0000
,
0001
0001
0000
0000
,
1001
0000
0000
0000
,
0100
0100
0000
0000
,
0110
0000
0000
0000
,
0010
0010
0000
0000
,
0110
0000
0000
0000
,
2002
0000
3003
0000
;

//---------------dance-double - xRGTMx----------------
#NOTES:
     dance-double:
     :
     Hard:
     9:
     0.515,0.494,0.505,0.391,0.358,333.000,62.000,48.000,0.000,0.000,0.000,0.515,0.494,0.505,0.391,0.358,333.000,62.000,48.000,0.000,0.000,0.000:
00000000
00000000
00000000
00000000
,
01020000
01000000
01000000
02030000
,
00001000
03002000
00010000
00023000
,
00000100
00000100
00000100
00030200
,
00000010
00000320
00000001
00000031
,
00001001
00000000
00000001
00000100
00001000
01000000
00010000
00000000
,
10010000
00000000
10000000
01000000
00010000
00000100
00001000
00000000
,
00022000
00033000
00000000
00000000
00000000
00000000
00000000
00001000
00000000
01000000
00010000
00000000
10010000
00000000
00000000
00000000
,
10000000
00200000
00000000
02300000
00000000
03010000
00100000
00001000
,
00000010
00000001
00000100
00001000
00010000
00100000
10000000
01000000
,
00020000
00000000
01030000
20000000
00000000
00000000
30010000
00000000
,
00000000
01000000
00010000
00100000
00001000
00000010
00000001
00000100
,
00010000
00001000
00000100
00020000
00000000
00000000
00031000
00000000
,
00010000
01000000
10000000
00200000
00000000
00000000
00310000
00000000
,
00200000
10000000
20300000
00010000
,
30010000
00000000
00000000
00000000
00110000
00000000
00000000
00100000
00000000
00001000
00010000
00000000
00011000
00000000
00000000
00000000
,
00010000
00000200
00000000
00000320
00000000
00000130
00001000
00000010
,
00000001
00001000
00010000
00100000
10000000
01000000
00010000
01000000
,
20000000
00000000
30010000
02000000
00000000
00000000
00001000
00000000
,
03000000
00001000
01000000
00001000
00100000
00000100
00010000
00000010
,
00000100
00000001
00000010
00000021
00000000
00000030
00000000
00001100
,
00000100
00010000
01000000
21000000
00000000
00000000
30010000
00000000
,
20020000
30030000
00000000
00000000
00000000
00000000
00000000
01100000
00000000
00100000
01000000
00000000
01100000
00000000
00000000
00000000
,
01000000
00000000
00001000
00000000
00011000
00000000
00000000
00000000
00010000
00000100
00010000
00001000
00010000
00000000
00000020
00000000
,
00000000
00000000
00000130
00000000
00000001
00000000
00000011
00000000
00000000
00000010
00000100
00010000
00001000
00010000
00000000
00010000
,
00001000
00000000
01000000
00000000
01010000
00000000
00000000
00000000
01000000
00010000
01000000
00100000
01000000
00000000
00200000
00000000
,
00000000
00000000
10300000
00000000
11000000
00000000
00000000
01100000
00000000
01000000
00100000
00010000
01000000
00001000
00000000
00000000
,
00010000
00000000
00000100
00000000
00010100
00000000
00000000
00000000
00000100
00000010
00000001
00001000
00000010
00000000
00002000
00000000
,
00000000
00000000
00003100
00000000
00001100
00000000
00011000
00000000
00000000
00001000
00100000
00010000
01000000
10000000
00000000
10000000
,
01000000
00000000
00010000
00000000
00110000
00000000
00000000
00000000
00100000
01000000
00010000
01000000
10000000
00000000
00020000
00000000
,
00000000
00030000
00100000
00000000
00101000
00000000
00000000
00011000
00000000
00010000
00000100
00001000
00000100
00000010
00000000
00000000
,
00000010
00000000
00000001
00000000
00000101
00000000
00000000
00000000
00000100
00000010
00001000
00000010
00001000
00000000
00000200
00000000
,
00000000
00000000
00010300
00000000
00001000
00000000
01001000
00000000
00000000
01000000
00010000
01000000
00100000
01000000
00000000
01000000
,
00100000
00000000
10000000
00000000
11000000
00000000
00000000
00000000
01000000
00100000
00010000
00100000
00001000
00000000
00020000
00000000
,
00000000
00000000
00030100
00000000
00001100
00000000
00000000
00000110
00000000
00000010
00000001
00000100
00000010
00000100
00000000
00000000
,
00000001
00000000
00000101
00000000
00001010
00000000
00000000
00000000
00000010
00001000
00000100
00010000
00001000
00000000
00020000
00000000
,
00000000
00000000
00031000
00000000
01001000
00000000
01010000
00000000
00000000
01000000
00100000
01000000
00010000
01000000
10000000
01000000
,
00200000
00300000
00000000
00000000
00000000
00000000
00000000
01100000
00000000
01000000
00010000
00000000
00210000
00000000
00000000
00000000
,
00001000
00002000
00000000
00000000
00000000
00000000
00000000
00300000
00000000
00013000
00001000
00010000
00000100
00000010
00000001
00000100
,
00000020
00000000
00000000
00002000
00000000
00000000
00000030
00000000
00000000
00003010
00001000
00000100
00000010
00000001
00000100
00001000
,
00020000
00000000
00000000
00230000
00000000
00000000
20300000
00000000
32000000
00000000
00000000
03200000
00000000
00000000
00301000
00000000
,
00021000
00000000
00000000
00000000
00000000
00000000
00000000
00000000
00030000
00000000
00000000
00000000
00000000
00000000
00000000
00000000
00000000
00000000
00010000
00000000
00000100
00000000
00000010
00000100
00000000
00000100
00000010
00000000
00001001
00000000
00000000
00000000
,
00000001
00000000
00000100
00000000
00000010
00000000
00000000
00001010
00000000
00000000
00011000
00000000
00000000
00110000
00000000
00000000
,
01200000
00000000
00000000
01000000
00000000
01300000
00000000
00000000
21000000
00000000
00000000
01000000
00000000
31000000
00000000
00000000
,
00100000
00000000
00010000
00000000
01000000
00000000
00001000
00000000
00000000
00000000
00010100
00000000
00000000
00011000
00000000
00000000
,
00201000
00000000
00000000
00010000
00000000
00310000
00000000
00000000
01020000
00000000
00000000
01000000
00000000
01030000
00000000
00000000
,
01100000
00000000
00000000
01010000
00000000
01010000
00000000
00000000
00110000
00000000
00000000
00010010
00000000
00010010
00000000
00000000
,
00000110
00000000
00000000
00000101
00000000
00000101
00000000
00000000
00001001
00000000
00000000
00001100
00000000
00001100
00000000
00000000
,
00010100
00010000
00000100
00010000
00001000
01000000
00100000
10000000
,
01000000
00000000
00100000
00000000
00110000
00000000
00100000
00001000
00000000
00010000
00000010
00000000
00000110
00000000
00000100
00000000
,
00002002
00000000
00003003
00000000
;

//---------------dance-double - xRGTMx----------------
#NOTES:
     dance-double:
     :
     Medium:
     7:
     0.367,0.329,0.318,0.440,0.065,222.000,39.000,54.000,0.000,0.000,0.000,0.367,0.329,0.318,0.440,0.065,222.000,39.000,54.000,0.000,0.000,0.000:
00000000
00000000
00000000
00000000
,
00011000
00010000
00010000
00010000
,
00000100
00000100
00000010
00000010
,
00000001
00000001
00000001
00000001
,
00000100
00000100
00000010
00000010
,
00001010
00000000
00001000
00000000
00000100
00010000
00000100
00000000
,
00010100
00000000
00010000
00000000
00001000
01000000
00001000
00000000
,
00200000
00300000
00000000
00000000
00000000
00000000
00000000
01000000
00000000
01000000
00000000
00000000
10010000
00000000
00000000
00000000
,
10000000
00000000
00100000
02000000
00000000
00000000
03010000
00000000
,
00010000
00100000
00001000
00010000
,
00000100
00000000
00000020
00000001
00000000
00000000
00000031
00000000
,
00000001
00000000
00000100
00000000
00000010
00000100
00000010
00000000
,
00001000
00000100
00011000
01001000
,
01000000
00010000
10010000
11000000
,
00200000
00010000
00320000
01000000
,
02030000
00000000
00000000
00000000
03100000
00000000
00000000
00100000
00000000
00100000
00000000
00000000
01010000
00000000
00000000
00000000
,
02000000
00100000
03200000
01000000
,
02300000
03020000
00230000
00302000
,
00023000
00000100
00030200
00000010
,
00000320
00000032
00000203
00000310
,
00000110
00000000
00000100
00000000
00000001
00001000
00000001
00000000
,
00001100
00000000
00000100
00000000
00010000
00001000
00010000
00000000
,
02000000
03000000
00000000
00000000
00000000
00000000
00000000
00100000
00000000
00100000
00000000
00000000
00110000
00000000
00000000
00000000
,
00100000
00001000
00020000
00000000
00000100
00000000
00030200
00000000
,
00000320
00000031
00000101
00001001
,
00001000
00000100
00020000
00000000
00001000
00000000
00032000
00000000
,
02003000
03100000
01100000
10010000
,
10000000
00010000
20000000
00000000
32000000
00000000
00100000
00000000
,
03200000
00310000
00110000
00011000
,
00010000
00000100
00000020
00000000
00000032
00000000
00000100
00000000
,
00000203
00000000
00000000
00000000
00000310
00000000
00000100
00000010
00000000
00000010
00000000
00000000
00001010
00000000
00000000
00000000
,
00001000
00000100
00020000
00000000
00032000
00000000
02003000
00000000
,
03200000
10300000
11000000
01010000
,
00010000
00100000
02000000
00000000
23000000
00000000
30020000
00000000
,
02030000
03001000
00011000
00010100
,
00000100
00000010
00000100
00000000
00001100
00000000
00011000
00000000
,
01000000
00010000
01000000
00000000
01010000
00000000
10010000
00000000
,
02000000
03000000
00000000
00000000
00000000
00000000
00000000
00100000
00000000
00100000
00000000
00000000
10010000
00000000
00000000
00000000
,
20000000
00000000
00000000
00000000
30000000
01000000
00100000
00001000
,
00020000
00000000
00000000
00030000
00000100
00000010
00000001
00000100
,
00000020
00000000
00000000
00000100
00000000
00000000
00000000
00000000
00000230
00000000
00000000
00000001
00000000
00000000
00000000
00000000
,
00000302
00000000
00000000
00000000
00000000
00000000
00000000
00000000
00000013
00000000
00000100
00000000
00001000
00000001
00001000
00000001
,
00000100
00000001
00000100
00000000
00000110
00000000
00001010
00000000
,
00020100
00000100
00001000
00031000
,
00001000
00100000
00001000
00100000
00000000
00000000
01000000
00000000
,
21000000
30010000
02010000
03001000
,
00021000
00030100
00002100
00003010
,
00000210
00000301
00000021
00000130
,
00001000
00000100
00001000
00000000
00000001
00000100
00000001
00000000
,
00000200
00000000
00000000
00000000
00000310
00000000
00000000
00000100
00000000
00000100
00000000
00000000
00000110
00000000
00000000
00000000
,
00002002
00000000
00003003
00000000
;

//---------------dance-double - xRGTMx----------------
#NOTES:
     dance-double:
     :
     Easy:
     4:
     0.285,0.247,0.130,0.391,0.000,181.000,16.000,48.000,0.000,0.000,0.000,0.285,0.247,0.130,0.391,0.000,181.000,16.000,48.000,0.000,0.000,0.000:
00000000
00000000
00000000
00000000
,
00100000
00000000
00000000
00000000
,
01000000
00000000
00000000
00000000
,
00010000
00000000
00010000
00000000
,
00100000
00000000
00100000
00000000
,
00001000
00001000
00010000
00010000
,
00000100
00000100
00001000
00001000
,
00000020
00000030
00000000
00000000
00000000
00000000
00000000
00000000
00000010
00000000
00000000
00000000
00001001
00000000
00000000
00000000
,
00000010
00000001
00000100
00001000
,
00020000
00001000
00032000
00010000
,
00013000
01000000
10000000
00100000
,
02000000
00010000
03020000
00100000
,
00130000
00010000
01000000
00001000
,
00010000
00000100
00000010
00000001
,
00000200
00000010
00000320
00000100
,
00000130
00000001
00000011
00001100
,
00000100
00010000
00001000
01000000
,
00200000
10000000
20300000
01000000
,
31000000
00100000
00010000
01000000
,
00002000
00010000
00023000
00000100
,
00030100
00000010
00000001
00001001
,
00001000
00000100
00010000
00011000
,
00002000
00003000
00000000
00000000
00000000
00000000
00000000
00000000
01000000
00000000
00000000
00000000
01010000
00000000
00000000
00000000
,
00010000
00100000
01000000
10000000
,
00200000
02300000
03020000
00230000
,
00301000
00010000
00000100
00000010
,
00000002
00000203
00000320
00000230
,
00000301
00000010
00001000
00010000
,
02000000
23000000
30200000
02300000
,
03001000
00010000
00000100
00000010
,
00000001
00000100
00000110
00001001
,
00001000
00000001
00001000
00000100
,
00020000
00001000
00032000
00010000
,
00013000
01000000
10000000
00010000
,
02000000
00100000
03200000
01000000
,
01300000
00010000
00100000
01000000
,
10000000
00010000
01000000
00001000
,
00020000
00030000
00000000
00000000
00000000
00000000
00000100
00000000
00000000
00000110
00000000
00000000
,
00000020
00000000
00000032
00000100
,
00000203
00000000
00000320
00001000
,
00002030
00003200
00020300
00032000
,
02003000
00000000
00100000
03100000
,
00100000
10000000
01000000
00100000
,
01200000
01000000
02300000
03200000
,
00310000
01000000
00001000
00010000
,
00020100
00030200
00001000
00002300
,
00003010
00000100
00000001
00000010
,
00000210
00000310
00000021
00000001
,
00000031
00000100
00000010
00001000
,
00000100
00001100
00001000
00001010
,
00000220
00000000
00000330
00000000
;
