#TITLE:Dance Partay;
#SUBTITLE:;
#ARTIST:DKC Crew;
#TITLETRANSLIT:;
#SUBTITLETRANSLIT:;
#ARTISTTRANSLIT:;
#CREDIT:;
#BANNER:Dance Partay.png;
#BACKGROUND:Dance Partay-bg.png;
#LYRICSPATH:;
#CDTITLE:./CDTitles/DanceDanceRevolution II.png;
#MUSIC:Dance Partay.ogg;
#OFFSET:0.000;
#SAMPLESTART:44.415;
#SAMPLELENGTH:15.000;
#SELECTABLE:YES;
#BPMS:0.000=135.000;
#STOPS:;
#BGCHANGES:0.000=Dance Partay.png=1.000=0=0=1,
99999=-nosongbg-=1.000=0=0=0 // don't automatically add -songbackground-
;

//---------------dance-single - ----------------
#NOTES:
     dance-single:
     :
     Beginner:
     1:
     0.085,0.164,0.019,0.000,0.000:
0000
0000
0000
0000
,
0000
0000
0000
0000
,
0000
0000
0000
0000
,
0000
0000
0000
0000
,
0000
0000
0000
0000
,
0000
0000
0000
0000
,
0000
0000
0000
0000
,
0000
0000
0000
0000
,
0000
0000
0000
0000
,
0001
0000
0000
0000
,
0001
0000
0000
0000
,
1000
0000
0000
0000
,
0001
0000
0000
0000
,
0000
0000
0000
0000
,
0001
0000
0000
0000
,
0000
0000
0000
0000
,
0001
0000
0000
0000
,
1000
0000
0000
0000
,
0100
0100
0000
0000
,
0010
0000
0000
0000
,
0001
0000
0000
0000
,
0001
0000
0000
0000
,
0000
0000
0000
0000
,
0000
1000
0000
0000
,
0001
0000
1000
0000
,
1001
0000
1000
0000
,
0001
0000
0000
0000
,
0000
1000
0000
0001
,
0000
0000
0000
0000
,
1000
0000
0001
0000
,
1000
0000
0100
0000
,
1000
0000
1001
0000
,
1000
0000
1000
0000
,
0100
0000
0100
0000
,
1000
0000
0000
0000
,
1000
0000
0000
0001
,
0000
0000
1000
0000
,
0100
0000
0100
0000
,
0010
0000
0010
0000
,
1000
0000
0000
0000
,
1000
0000
0000
0000
,
0001
0000
0000
0000
,
1000
0000
0000
0000
,
0100
0000
0000
0000
,
1000
0000
0000
0000
,
0001
0000
0000
0000
,
0010
0000
0000
0000
,
0100
0000
0000
0000
,
0010
0000
0010
0000
,
0100
0000
0000
1000
,
0000
0000
0001
0000
,
1000
0000
0000
0000
,
0100
0000
0000
0000
,
1000
0000
0000
0000
,
0100
0000
0000
0000
,
1000
0000
0000
0000
,
0001
0000
1000
0000
;

//---------------dance-single - ----------------
#NOTES:
     dance-single:
     :
     Easy:
     2:
     0.168,0.220,0.000,0.000,0.000:
0000
0000
0000
0000
,
0000
0000
0000
0000
,
0000
0000
0000
0000
,
0000
0000
0000
0000
,
0000
0000
0000
0000
,
0000
0000
0000
0000
,
0000
0000
0000
0000
,
0000
0000
0000
0000
,
0000
0000
0000
0000
,
1000
0001
1000
0000
,
0100
0000
1000
0100
,
0000
0000
0001
1000
,
0000
0000
0100
0010
,
0000
0000
1000
0100
,
0000
0000
1000
0001
,
0000
0000
1000
0100
,
0000
0000
1000
0010
,
0000
0000
1000
0001
,
1000
0000
0100
0010
,
0000
0000
1000
0001
,
0000
0000
1000
0100
,
0000
0000
1000
0000
,
0000
0000
1000
0001
,
0000
0000
0010
0100
,
0000
0000
1000
0000
,
1000
0001
1000
0000
,
0100
0010
0100
0100
,
0000
0000
1000
1000
,
0000
0001
1000
0001
,
1000
0100
1000
0100
,
0000
0000
0010
0100
,
0000
0000
1000
0100
,
0000
0000
1000
0001
,
1000
0100
1000
0001
,
0000
1000
0100
1000
,
0000
0001
1000
0001
,
1000
0100
1000
0100
,
0010
0000
1000
0100
,
1000
0000
0100
1000
,
0000
0000
1000
0100
,
1000
0100
0001
0100
,
0000
1000
0000
1000
,
0000
0000
1000
0100
,
0001
0100
1000
0000
,
1000
0001
1000
0100
,
0000
1000
0001
1000
,
0100
1000
0000
0000
,
0001
1000
0010
0100
,
0001
1000
0100
0010
,
0000
0000
1000
0001
,
0000
0000
1000
0100
,
0000
0000
0001
1000
,
0000
0000
0010
0100
,
0000
0000
1000
0001
,
0000
0000
0100
0010
,
0000
0000
1000
0001
,
0000
1000
0000
1000
;

//---------------dance-single - ----------------
#NOTES:
     dance-single:
     :
     Medium:
     4:
     0.252,0.304,0.165,0.000,0.000:
0000
0000
0000
0000
,
0000
0000
0000
0000
,
0000
0000
0000
0000
,
0000
0000
0000
0000
,
0000
0000
0000
0000
,
0000
0000
0000
0000
,
0000
0000
0000
0000
,
0000
0000
0000
0000
,
0000
0000
0000
0000
,
1000
0001
1000
0100
,
0000
1000
0001
1000
,
0000
0100
0010
0100
,
0000
1000
0001
1000
,
0000
0100
0010
0100
,
0000
1000
0001
1000
,
0000
0100
1000
0100
,
0010
0100
1000
0100
,
0000
1000
0001
1001
,
0100
0010
0100
1100
,
0100
0000
1000
0100
,
1000
0100
0001
0100
,
0000
1000
0100
0000
,
1000
0100
0010
0001
,
1000
0100
0001
0100
,
1000
0000
1000
0000
,
1000
0100
1000
1100
,
0001
0100
0001
0101
,
0100
0010
0100
0110
,
1000
0001
1000
1001
,
0100
0010
0100
0110
,
1000
0001
1000
1001
,
0100
0010
0100
0110
,
1000
1000
1000
1001
,
0001
0001
0001
1001
,
0100
0100
0100
0110
,
1000
1000
1000
1001
,
0001
1000
0001
0001
,
1000
0100
1000
0100
,
0010
0100
0010
0110
,
1000
0001
1000
0100
,
1100
0001
1001
0010
,
0100
0000
0000
0000
,
1000
0000
0001
0000
,
1000
0000
0100
0000
,
1000
0000
0100
0000
,
1000
0000
0001
0000
,
1000
0000
0100
0000
,
1000
0000
0001
1000
,
0001
0010
0001
1000
,
0001
0010
0001
1000
,
0100
0000
1000
0100
,
1000
0001
1000
0100
,
1000
0010
1000
0000
,
0100
0001
0100
0010
,
0100
1000
0100
0010
,
0100
1000
0100
0010
,
0100
0100
0100
0100
,
0110
0000
0000
0000
;

//---------------dance-single - ----------------
#NOTES:
     dance-single:
     :
     Hard:
     7:
     0.448,0.478,0.291,0.019,0.097:
0000
0000
0000
0000
,
0000
0000
0000
0000
,
0000
0000
0000
0000
,
0000
0000
0000
0000
,
0000
0000
0000
0000
,
0000
0000
0000
0000
,
0000
0000
0000
0000
,
0000
0000
0000
0000
,
0000
0000
0000
0000
,
0000
0000
1000
0001
1000
0100
1100
0000
,
0000
0000
1000
0100
1000
0010
0110
0000
,
0000
0000
0001
1000
0001
0100
0101
0000
,
0000
0000
0100
1000
0100
0010
0110
0000
,
0000
0000
1000
0100
0001
0100
1000
0000
,
0001
0010
0001
1000
0001
0100
0001
0000
,
0000
0000
1000
0100
1000
0100
0010
0000
,
0100
0010
0100
0010
0100
0010
0100
0000
,
1001
0110
1001
0110
,
1100
0110
0011
0110
,
0000
0000
1000
0010
0001
0010
1000
0000
,
0010
0100
0010
1000
0010
0001
0010
0000
,
0000
0010
0100
0010
1000
0010
1000
0000
,
0001
0010
0100
1000
0100
0010
0001
0000
,
0000
1000
0100
0001
0100
1000
0000
0001
,
0000
0011
0000
0011
0000
0100
1000
0100
,
1000
0000
0000
0100
0010
0000
0001
0000
0010
0000
0001
0000
1000
0000
0000
0000
,
0010
0000
0000
0100
0010
0000
0000
0000
0010
0000
0100
0000
1000
0000
0000
0000
,
0001
0000
0000
0100
0010
0000
0000
0000
0001
0000
0010
0000
0100
0000
0000
0000
,
1000
0000
0000
0100
1000
0000
0000
0000
0010
0000
0001
0000
0100
0000
0000
0000
,
1000
0000
0000
0000
0100
0000
0000
0010
0100
0000
0010
0000
0100
0000
0000
0000
,
1000
0000
0000
0100
0010
0000
0000
0000
0001
0000
0010
0000
0100
0000
0000
0000
,
1000
0000
0000
0100
0010
0000
0000
0000
0010
0000
0100
0000
0010
0000
0000
0000
,
1100
0110
0011
0110
,
1000
0001
1000
0100
1000
0001
1001
0000
,
0100
0010
0100
0001
0100
0010
0110
0000
,
0001
0100
1000
0000
1000
0100
0101
0000
,
1000
0010
0001
0010
1000
0100
0101
0000
,
1000
0000
0100
0010
0100
1000
0100
0000
,
0010
0000
0000
0100
0000
0000
1000
0000
0100
0000
0000
1000
0000
0000
0000
0000
,
0100
0100
0100
0000
1000
0001
1000
0000
,
0100
1000
0100
0010
0100
0001
0100
0000
,
0010
1000
0100
0000
0001
0010
0100
0000
,
0100
0000
0010
0100
0010
0000
1000
0000
0100
0000
1000
0000
0100
0000
0000
0000
,
0001
0010
0001
1000
0001
0001
1001
0000
,
0100
0010
0100
0000
0010
0000
1000
0000
0010
0000
0100
0000
0110
0000
0000
0000
,
0010
0001
0100
0000
1000
0010
0100
0000
,
0001
0000
0100
0010
0100
0000
1000
0000
0100
0000
1000
0000
1001
0000
0000
0000
,
0010
0100
0010
0100
1000
0100
1000
0000
,
0001
0010
0001
0000
0100
0000
0010
0000
0100
0000
0001
0000
0100
0000
0000
0000
,
1000
0000
0000
0000
0100
0000
0000
0010
0100
0000
0010
0000
0100
0000
0000
0000
,
1000
0000
0000
0000
0010
0000
0000
0100
0010
0000
1000
0000
0010
0000
0000
0000
,
1000
0000
0000
0000
0100
0000
0000
0010
0100
0000
1000
0000
0010
0000
0000
0000
,
0100
0000
0000
0000
0010
0000
0000
1000
0001
0000
0100
0000
0010
0000
0000
0000
,
1000
0000
0000
0000
0001
0000
0000
0100
0010
0000
0100
0000
0001
0000
0000
0000
,
1000
0000
0000
0000
0100
0000
0000
0010
0100
0000
0001
0000
0100
0000
0000
0000
,
1000
0000
0000
0000
0100
0000
0000
0010
0100
0000
0010
0000
0100
0000
0000
0000
,
1010
0101
1001
0110
,
2200
0000
0000
0000
,
3300
0000
0000
0000
;
