#TITLE:DOES NOT COMPUTE;
#SUBTITLE:;
#ARTIST:Eleharmonic and Freddie Hatae feat.ALT;
#TITLETRANSLIT:;
#SUBTITLETRANSLIT:;
#ARTISTTRANSLIT:;
#GENRE:;
#CREDIT:;
#BANNER:DOES NOT COMPUTE.png;
#BACKGROUND:DOES NOT COMPUTE-bg.png;
#LYRICSPATH:;
#CDTITLE:;
#MUSIC:DOES NOT COMPUTE.mp3;
#OFFSET:-0.910;
#SAMPLESTART:37.470;
#SAMPLELENGTH:12;
#SELECTABLE:YES;
#BPMS:0=190,212=95,228=190,305=160,309=145,313=105,315=80;
#STOPS:228=0.947
;
#BGCHANGES:;
#ATTACKS:;

//---------------dance-single - ----------------
#NOTES:
     dance-single:
     :
     Hard:
     9:
     0.676,0.692,0.542,0.192,0.074: // measure 1
0000
0000
0000
0000
,  // measure 2
0000
0000
0000
0000
,  // measure 3
0000
0000
0000
0000
,  // measure 4
0000
0000
0000
0000
,  // measure 5
0000
0000
0000
0000
,  // measure 6
1000
0000
0010
0100
0010
0000
0100
0001
,  // measure 7
0010
0100
1000
0100
0010
0000
0100
0010
,  // measure 8
0001
0000
0100
0010
1000
0001
0100
0010
,  // measure 9
0200
0000
0000
0000
0010
0000
0010
0000
0000
0000
0301
0000
1000
0100
1000
0000
,  // measure 10
0010
0000
0100
0010
1000
0000
0100
0010
,  // measure 11
0100
1000
0010
0100
0001
0000
1000
0001
,  // measure 12
0010
0000
0100
1000
0100
0010
0100
1000
,  // measure 13
0020
0230
0302
2003
,  // measure 14
3100
0000
0010
0100
1000
0000
0010
0100
,  // measure 15
0010
0001
0010
1000
0100
0000
0010
0100
,  // measure 16
1000
0000
0010
0100
0001
1000
0100
0010
,  // measure 17
0200
0000
0000
0000
0010
0000
0010
0000
0000
0000
1300
0000
0100
0010
0100
0010
,  // measure 18
0100
0000
1000
0100
0010
0000
0100
1000
,  // measure 19
0010
0100
1000
0100
0010
0000
0100
0000
,  // measure 20
0001
0000
0010
0100
1000
0010
0100
1000
,  // measure 21
0100
0000
0010
0000
0100
0010
0100
0000
0001
0000
0010
0000
0100
0000
1000
0000
,  // measure 22
0010
0100
1000
0100
0001
0000
0010
0100
,  // measure 23
0010
0001
0100
0010
0000
0100
0001
0000
,  // measure 24
0010
0100
1000
0010
0100
0000
0010
1000
,  // measure 25
0001
0010
0100
1000
0000
0100
0010
0000
,  // measure 26
0001
0100
0010
0100
0001
1000
0000
0001
,  // measure 27
0000
0010
0100
0010
0001
0100
0001
0010
,  // measure 28
0011
0000
0001
0100
0010
0000
0000
1000
,  // measure 29
0001
0000
1000
0100
1000
0100
1000
0000
0000
0000
0010
0000
0100
0000
0010
0000
,  // measure 30
1010
0000
1001
0000
0001
0010
0000
0100
,  // measure 31
0000
0010
0001
0000
0100
0010
1000
0001
,  // measure 32
0011
0000
1001
0000
1000
0010
0000
0100
,  // measure 33
0000
0001
0010
0000
0100
0010
0001
0100
,  // measure 34
0001
0010
0100
0010
0001
0000
0100
0110
,  // measure 35
0000
1100
0000
1001
0000
1000
0100
0010
,  // measure 36
0100
0010
0001
0100
0101
0000
0100
0110
,  // measure 37
0000
0010
1010
0000
1000
1001
0000
0000
,  // measure 38
0110
0000
0101
0000
0001
0010
0000
0100
,  // measure 39
0000
0010
0001
0000
0100
0010
1000
0001
,  // measure 40
1001
0000
1100
0000
1000
0010
0000
0100
,  // measure 41
0000
0010
0100
0000
0001
0010
1000
0010
,  // measure 42
0001
0100
0010
1000
0001
0000
0100
0110
,  // measure 43
0000
0101
0000
0011
0000
0010
0100
1000
,  // measure 44
1100
1001
0101
0011
,  // measure 45
0010
0000
0100
0000
1000
0000
0010
0000
1000
0001
1000
0001
1000
0001
1000
0001
,  // measure 46
1000
0010
0001
0000
0001
0100
1000
0000
,  // measure 47
1000
0010
0001
0000
0001
0100
1000
0000
,  // measure 48
1000
0010
0001
0000
0001
0100
1000
0000
,  // measure 49
1000
0010
0001
0010
1000
0001
0100
0000
,  // measure 50
0001
0010
0100
0010
0100
1000
0010
0100
,  // measure 51
1000
0100
0010
1000
0100
0010
0001
1000
,  // measure 52
0010
0100
0001
1000
0001
0010
0100
1000
,  // measure 53
0001
1000
0001
1000
0001
1000
0001
1000
0020
0000
0000
0000
0200
0000
0030
0000
,  // measure 54
0310
1000
0001
0010
0200
0000
0310
0000
,  // measure 55
0001
0000
0100
0000
0010
0000
2000
0000
0000
0000
3001
0200
0000
0000
0000
0000
,  // measure 56
0310
0100
0001
0010
0100
0010
0001
0100
,  // measure 57
0001
1000
0100
0010
0200
0000
0000
0000
,  // measure 58
0300
0000
0110
0000
0101
0000
0001
0011
,  // measure 59
0000
0110
0000
1000
0100
0000
1000
0010
,  // measure 60
0100
0001
0101
0000
0011
0000
0010
0110
,  // measure 61
0000
1100
0000
1000
0010
0000
0100
0001
,  // measure 62
0010
0100
0010
0100
0010
0001
0100
0000
,  // measure 63
0010
0110
0000
1001
0000
1100
0000
1000
,  // measure 64
0010
0100
0010
1000
0001
0010
0011
0000
,  // measure 65
0010
0110
0000
0100
1100
0000
1000
0001
,  // measure 66
1000
0000
1001
0000
0101
0000
0001
0011
,  // measure 67
0000
0110
0000
0010
0001
0000
0100
0010
,  // measure 68
1000
0001
1001
0000
1010
0000
0100
0110
,  // measure 69
0000
0101
0000
0001
1000
0000
1000
0010
,  // measure 70
0100
0001
0010
0100
0010
0001
0100
0000
,  // measure 71
0001
1001
0000
1100
0000
1010
0000
1000
,  // measure 72
0001
0100
0101
0000
0011
0000
0110
0000
,  // measure 73
1100
1010
0101
0110
,  // measure 74
0011
0110
1001
1100
,  // measure 75
0011
0000
0001
0010
0100
0010
0001
0100
,  // measure 76
0010
1000
1001
0110
0020
0000
0230
0000
,  // measure 77
0302
0000
0000
0000
2003
0000
0000
0000
0000
0000
3100
0010
0200
0000
0000
0000
,  // measure 78
0310
0001
0200
0000
0000
0000
0020
0000
,  // measure 79
0300
0000
0000
0000
2000
0000
0030
0000
0000
0000
3001
1000
0020
0000
0000
0000
,  // measure 80
0200
0330
0000
0000
;

//---------------dance-single - ----------------
#NOTES:
     dance-single:
     :
     Medium:
     7:
     0.510,0.554,0.175,0.183,0.000:
0000
0000
0000
0000
,
0000
0000
0000
0000
,
0000
0000
0000
0000
,
0000
0000
0000
0000
,
0000
0000
0000
0000
,
1000
0000
0010
0100
0010
0000
0100
0000
,
0001
0010
0001
0010
0001
0000
0010
0000
,
0100
0000
0010
0100
0010
0000
0100
0000
,
2000
0010
0000
3100
,
1000
0000
0001
1000
0001
0000
0100
0000
,
0010
0100
0010
0100
0010
0000
1000
0000
,
0001
0000
0100
0010
0100
0000
0001
0000
,
2000
3200
0320
0032
,
0103
0000
0010
0100
0010
0000
0100
0000
,
0001
0010
0100
0010
0001
0000
0010
0000
,
0100
0000
1000
0100
1000
0000
0010
0000
,
0200
0010
0000
0301
,
1000
0000
0100
0010
0100
0000
0010
0000
,
0001
0010
0001
1000
0001
0000
1000
0000
,
0010
0000
0100
0010
0100
0000
0001
0000
,
0010
0000
0100
0000
1000
0100
0010
0001
,
0010
0000
0100
0010
0100
0000
1000
0000
,
0010
0000
1000
0010
0000
0100
0001
0000
,
1000
0000
0001
1000
0001
0000
1000
0000
,
0100
0000
0010
0100
0000
0100
1000
0000
,
0010
0100
0010
0000
0100
0010
0000
1000
,
0000
0001
1000
0000
0001
0000
0100
0000
,
0010
0000
0100
0010
0100
0000
0000
0001
,
1000
0001
0000
0000
0000
1000
0100
1000
,
0010
0000
0100
0000
0010
1000
0000
0100
,
0000
0010
0100
0000
1000
0010
1000
0000
,
0010
0000
0100
0000
0001
1000
0000
0001
,
0000
0010
0100
0000
0010
0100
0010
0000
,
0100
0000
1000
0010
0100
0000
0000
0110
,
0000
1001
0000
0110
0000
0010
0100
0000
,
0010
0000
1000
0100
1000
0000
0100
0010
,
0000
0100
1000
0000
0010
0100
0000
0000
,
0010
0000
1000
0000
0100
0010
0000
0100
,
0000
1000
0010
0000
0100
0010
0100
0000
,
0010
0000
1000
0000
0001
0010
0000
0001
,
0000
1000
0100
0000
0010
0100
0010
0000
,
0100
0000
1000
0010
0100
0000
0000
1100
,
0000
0011
0000
1100
0000
1000
0100
0000
,
1000
0100
0010
0001
,
1000
0010
0001
0100
,
1000
0100
0000
0000
0010
0100
0000
0000
,
1000
0010
0000
0000
0100
0010
0000
0000
,
0100
0001
0000
0000
1000
0100
0000
0000
,
0010
0100
0000
0000
1000
0010
0100
0000
,
0010
0100
0010
0000
1000
0010
1000
0000
,
0100
1000
0100
0000
0010
0100
0010
0000
,
0001
0010
0001
0010
0100
1000
0100
1000
,
0001
0010
0100
1000
0001
0010
0100
1000
,
0010
0000
0100
0001
0020
0000
0130
0000
,
0010
0001
0100
0020
0000
0230
0000
0000
,
0301
0010
0001
0000
1000
0010
0100
0000
,
0010
0100
0001
0010
0200
0000
0000
0000
,
0300
0000
1100
0000
1001
0000
0001
0100
,
0000
0010
0000
0100
0001
0000
0010
0100
,
0010
0000
0011
0000
0101
0000
0100
0010
,
0000
0100
0000
0001
1000
0000
0001
0010
,
0100
0000
0010
0000
0001
0100
0001
0000
,
0000
0101
0000
1001
0000
1010
0000
1000
,
0100
1000
0001
0000
0100
0010
0100
0000
,
0001
0010
0000
0100
0010
0000
0001
0100
,
0001
0000
0101
0000
0011
0000
0010
0100
,
0000
0010
0000
0001
0100
0000
0010
1000
,
0010
0000
1100
0000
1001
0000
0001
0100
,
0000
0001
0000
0010
0100
0000
0010
0001
,
0100
0000
0001
0000
0100
0010
1000
0000
,
0000
1001
0000
0101
0000
0011
0000
1000
,
0100
0010
0001
0000
0100
0000
1000
0000
,
0010
0001
0100
1000
,
0010
0001
0100
1000
,
0010
0000
0001
0100
0010
0100
0010
1000
,
0100
1000
0002
0000
0203
0000
0320
0000
,
0230
0000
0302
0000
0000
0013
0200
0000
,
0310
0001
0020
0000
0000
0000
0032
0000
,
0000
0000
2003
0000
0000
3010
0200
0000
,
0020
0330
0000
0000
;

//---------------dance-single - ----------------
#NOTES:
     dance-single:
     :
     Easy:
     4:
     0.359,0.485,0.009,0.245,0.000:
0000
0000
0000
0000
,
0000
0000
0000
0000
,
0000
0000
0000
0000
,
0000
0000
0000
0000
,
0000
0000
0000
0000
,
1000
0010
0100
0000
,
0010
0100
0001
0000
,
1000
0100
0010
0100
,
2000
0100
0000
3010
,
0100
0001
0010
0000
,
0001
0100
0010
0000
,
0100
0010
0100
0001
,
2000
3200
2300
3020
,
0130
0001
0010
0100
,
0010
0001
0100
0010
,
0100
0001
1000
0100
,
0020
0100
0000
0130
,
0010
0001
0100
0001
,
1000
0010
1000
0001
,
0010
0100
0010
0001
,
0200
0000
0320
0000
,
0130
0010
0100
0001
,
0010
0000
0000
0100
0000
0000
0010
0000
,
0001
0100
0010
0100
,
0010
0000
0000
0100
0000
0000
0001
0000
,
0010
0100
0010
0001
,
0100
0010
0100
0001
,
0101
0000
0000
0000
0000
0000
0000
1000
,
0000
0010
0000
0100
,
0010
0100
0001
0010
,
0100
0010
0001
0100
,
0010
0100
0001
0010
,
0100
0010
0001
1000
,
0010
0000
0100
0000
0000
0000
0000
0001
,
0000
0010
0000
0100
0000
0000
0000
0000
,
0010
0000
0100
0000
0001
0000
0000
1000
,
0000
0000
0010
0000
0000
0100
0000
0000
,
0010
0100
0001
0010
,
0100
0010
0001
0100
,
0010
0100
0010
1000
,
0001
0010
0100
0010
,
0001
0000
0100
0000
0010
0000
0000
0100
,
0000
0001
0000
0010
0000
0000
0000
0000
,
0100
0010
0001
0100
,
0010
0100
0001
1000
,
0001
0000
0100
0000
,
0010
0000
0100
0000
,
0001
0000
0010
0000
,
0100
0000
0010
0000
,
0001
0100
0010
0100
,
0001
1000
0100
0010
,
0100
0010
0001
0100
,
0002
0023
0230
2300
,
3010
0100
0002
0013
,
0100
0010
0001
0200
0000
0320
0000
0000
,
0130
0000
0001
0010
0100
0010
0001
0000
,
0100
0000
0010
0100
0002
0000
0000
0000
,
0003
0100
0001
0010
,
0100
0010
0001
0100
,
0010
0100
0001
0010
,
0100
0010
0001
0100
,
0010
0100
0010
1000
,
0000
0001
0000
0010
0000
0100
0000
0000
,
0000
0010
0100
1000
,
0000
0010
0000
0000
0100
0000
0000
0001
,
0000
0010
0100
1000
,
0010
0100
0010
0100
,
0001
0010
0100
1000
,
0100
0010
0100
0010
,
0001
0100
0010
0000
,
0000
0100
0000
0001
0000
1000
0000
0000
,
0000
0001
0010
0100
,
0010
0001
0100
0010
,
0100
0001
0010
0100
,
1000
0010
0100
0010
,
1000
0002
0203
0302
,
0023
0200
0030
0320
,
0230
2000
0300
0002
,
3000
2003
0000
3020
,
0200
0330
0000
0000
;
