#TITLE:D-groove REQ;
#SUBTITLE:;
#ARTIST:D-crew;
#TITLETRANSLIT:;
#SUBTITLETRANSLIT:;
#ARTISTTRANSLIT:;
#CREDIT:DigiMindAxel;
#BANNER:D-groove REQ.png;
#BACKGROUND:D-groove REQ-bg.png;
#LYRICSPATH:D-groove REQ.lrc;
#CDTITLE:pop'n music.png;
#MUSIC:D-groove REQ.mp3;
#OFFSET:-7.645;
#SAMPLESTART:13.491;
#SAMPLELENGTH:12.000;
#SELECTABLE:YES;
#DISPLAYBPM:112.000;
#BPMS:0.000=112.001,189.000=105.000,190.000=95.000,191.000=85.000,192.000=112.000,205.000=110.000,206.000=105.000,207.000=100.000,208.000=95.000,209.000=85.000,209.875=56.000;
#STOPS:;
#BGCHANGES:;

//---------------dance-single - ----------------
#NOTES:
     dance-single:
     :
     Hard:
     8:
     0.556,0.654,0.282,0.275,0.412: // measure 1
1001
0000
0000
0001
0100
0000
0010
0000
1000
0000
0100
0000
0010
0000
0000
0000
,  // measure 2
0001
0000
0000
1000
0010
0000
0100
0000
0001
0000
0010
0000
0100
0000
0000
0000
,  // measure 3
1001
0000
0000
0001
0100
0000
0010
0000
1000
0000
0100
0000
0001
0000
0100
0000
,  // measure 4
2000
0000
0000
0100
0000
0000
3001
0100
0001
0000
0010
0000
0100
0000
1000
0000
,  // measure 5
0102
0000
0000
0100
0000
0000
1003
0100
1000
0000
0001
0000
0200
0000
0000
0000
,  // measure 6
0301
0000
0000
0100
0010
0000
1000
0001
0100
0000
0100
0000
0010
0000
0010
0000
,  // measure 7
1000
0100
1000
0100
1000
0001
0100
0000
0001
0100
0001
1000
0001
1000
0001
0000
,  // measure 8
1000
0001
0000
0001
0100
0000
0010
1000
0100
0000
1000
0000
1000
0000
0001
1000
,  // measure 9
0002
0000
0000
0000
0103
0000
0010
0100
0001
0000
1001
0000
1000
0000
1001
0000
,  // measure 10
0101
0000
0000
0101
0000
0000
1000
0100
1000
0000
0010
0000
0100
0000
0001
0000
,  // measure 11
1100
0000
0000
1100
0000
0000
0001
0100
0001
0000
1000
0000
0001
0000
0100
0000
,  // measure 12
0110
0000
0000
0110
0000
0000
0100
0001
1000
0000
0100
0010
0001
0000
1000
0000
,  // measure 13
0001
0100
0001
0100
0001
1000
0100
0000
1000
0100
1000
0001
1000
0001
1000
0000
,  // measure 14
1100
0000
0000
0110
0000
0000
0001
0010
0100
0000
1000
0000
0001
0000
0100
0000
,  // measure 15
0101
0000
0000
0110
0000
0000
0010
0000
1000
0100
0010
0000
0001
0000
0100
0000
,  // measure 16
0110
0000
0000
0110
0000
0000
0100
0000
0001
0000
0010
0000
0100
0000
1000
0000
,  // measure 17
1001
0000
0020
0000
,  // measure 18
0230
0000
0000
0301
2000
0000
0000
0000
,  // measure 19
0001
0000
3020
0000
,  // measure 20
0230
0000
0000
0301
2000
0000
0100
0000
,  // measure 21
3200
0010
0320
0001
,  // measure 22
0032
0000
0013
0100
2000
0000
3100
0010
,  // measure 23
0001
0000
0100
0001
2000
0000
3100
1000
,  // measure 24
0002
0000
0103
0001
2000
0001
3001
1000
,  // measure 25
0100
1000
0100
1000
0001
0100
0001
0100
0001
1000
0001
1000
0100
0010
0001
0000
,  // measure 26
0100
0001
0100
0001
1000
0100
1000
0100
1000
0001
1000
0001
0010
0100
1000
0000
,  // measure 27
0010
0100
0010
0100
0001
0100
0001
0100
0010
1000
0010
1000
0001
0010
0100
1000
,  // measure 28
0002
0000
0103
0000
0020
0000
1030
0001
1000
0010
0100
0001
0010
0100
1000
0010
,  // measure 29
0200
0001
0000
0302
,  // measure 30
2003
0010
3020
0230
,  // measure 31
0302
0100
0203
0320
,  // measure 32
0230
0000
0302
0000
0203
0000
1300
0100
,  // measure 33
0101
0000
1000
0000
1100
0000
0010
1000
,  // measure 34
1001
0000
0010
0000
0011
0000
0110
0001
,  // measure 35
1001
0000
0100
0000
1100
0000
0010
1000
,  // measure 36
1001
0000
0010
0000
0011
0000
1100
0100
,  // measure 37
0110
0000
0000
0010
0100
0000
0001
0000
0100
0000
1000
0000
0100
0000
0001
0000
,  // measure 38
1000
0000
0010
0100
0010
0000
1000
0000
0100
0000
0001
0000
0100
0000
1000
0000
,  // measure 39
0001
0000
1000
0100
1000
0000
0010
0000
0100
0000
0001
0100
0001
0000
0010
0000
,  // measure 40
0100
0000
1000
0001
1000
0000
0100
0000
0010
0000
0001
0010
0100
0000
1000
0000
,  // measure 41
1001
0000
1000
0010
0100
0000
0001
0000
1000
0000
0001
0010
0100
0000
1000
0000
,  // measure 42
0010
0000
0100
0001
0010
0000
0100
1000
0100
1000
0001
0100
0001
0100
0001
0000
,  // measure 43
1001
0000
0001
0100
0010
0000
1000
0000
0001
0100
0001
0100
0010
1000
0100
0010
,  // measure 44
0001
0100
0001
0100
0001
1000
0100
0010
0100
1000
0001
0100
0001
0100
0010
0000
,  // measure 45
0110
0000
0000
0010
0100
0000
0001
0000
0010
0100
0010
0000
0001
1000
0001
0000
,  // measure 46
0100
0000
0000
0010
0100
0000
0001
0100
0001
0000
1000
0100
1000
0000
0010
0000
,  // measure 47
0100
0000
0000
0010
0100
0000
0001
0100
0001
0000
1000
0100
1000
0000
0010
0100
,  // measure 48
0010
1000
0001
0001
0100
1000
0100
0001
,  // measure 49
1001
0000
0000
0000
0000
0000
0000
0000
1000
0100
1000
0100
0010
0001
0010
0001
,  // measure 50
0100
0010
0100
0010
1000
0000
0000
0000
2100
0000
0010
0000
3020
0000
0100
0000
,  // measure 51
0230
0001
0301
0000
0010
0100
0110
0001
,  // measure 52
2000
0100
3100
0010
0001
1000
0100
0010
,  // measure 53
0110
0000
0000
0000
0001
0000
0000
0000
0100
0000
0000
0000
1000
0100
1000
0000
2200
0000
0000
0000
0000
0000
0000
0000
0000
0000
0000
0000
0000
0000
0000
0000
,  // measure 54
0000
0000
3300
0000
;

//---------------dance-single - ----------------
#NOTES:
     dance-single:
     :
     Medium:
     5:
     0.357,0.388,0.130,0.313,0.000: // measure 1
1001
0000
1000
0000
0010
0100
0010
0000
,  // measure 2
1000
0000
0001
0100
0001
1000
0010
0000
,  // measure 3
1001
0000
0001
0000
0100
0010
0100
0000
,  // measure 4
0002
0000
0000
1003
0100
0010
0001
1000
,  // measure 5
0020
0000
0000
0100
0130
0000
0001
0000
,  // measure 6
2000
0000
0000
3100
0020
0000
0000
0031
,  // measure 7
1000
0100
0010
0100
1000
0100
0010
0001
,  // measure 8
0200
0000
0000
0301
0020
0000
0031
0000
,  // measure 9
2001
0000
0001
0000
3001
0100
0001
1000
,  // measure 10
0020
0000
0000
1030
0100
0010
0001
1000
,  // measure 11
0200
0000
0000
1000
1300
0000
1000
0000
,  // measure 12
0002
0000
0000
0103
0020
0000
0000
1030
,  // measure 13
0100
0010
0001
0010
0100
0010
0001
0010
,  // measure 14
0200
0000
0000
1300
0020
0000
0000
0130
,  // measure 15
0002
1000
1000
1003
,  // measure 16
0020
0000
0000
0000
0230
0000
0000
0301
,  // measure 17
1001
0000
2000
0000
,  // measure 18
3200
0000
0000
0310
0002
0000
0000
0000
,  // measure 19
0000
0000
2003
0000
,  // measure 20
3020
0000
0000
0130
0002
0000
0000
0000
,  // measure 21
0000
1003
0100
0010
,  // measure 22
0001
0010
0100
1000
,  // measure 23
0010
0100
0100
0010
,  // measure 24
0010
0000
0100
0000
0100
0000
0001
1000
,  // measure 25
0001
0010
0100
1000
0001
0010
0100
1000
,  // measure 26
0100
0010
0100
1000
0010
1000
0100
0010
,  // measure 27
0001
0010
0100
0010
0001
0100
0010
0100
,  // measure 28
0001
0010
0100
1000
0001
0100
1000
0100
,  // measure 29
0002
0000
0000
0103
,  // measure 30
0020
0000
1030
0100
,  // measure 31
0020
0000
0031
0010
,  // measure 32
0200
0000
1300
0001
,  // measure 33
1001
0000
0110
0000
,  // measure 34
1001
0000
0110
0000
,  // measure 35
1100
0000
0011
0000
,  // measure 36
1001
0000
1000
0000
0001
0000
0001
1000
,  // measure 37
0001
0000
0100
0010
1000
0100
0010
0001
,  // measure 38
1000
0100
1000
0001
0100
0001
1000
0100
,  // measure 39
0001
0100
1000
0001
1000
0010
0001
0010
,  // measure 40
1000
0100
0010
0100
1000
0001
0010
0100
,  // measure 41
1001
0001
0001
0010
0100
1000
1000
0100
,  // measure 42
0010
0001
0001
0100
1000
0100
0001
1000
,  // measure 43
1001
0001
0010
0100
1000
0100
0001
0100
,  // measure 44
1000
0010
1000
0010
0100
0001
0100
0001
,  // measure 45
1001
0100
0010
0001
0010
0100
1000
0010
,  // measure 46
0100
0010
1000
0100
0010
0001
0010
0100
,  // measure 47
1000
0010
0100
0010
1000
0100
1000
0001
,  // measure 48
0010
0001
1000
1000
0001
0001
0010
0100
,  // measure 49
2002
0000
0000
0000
,  // measure 50
0000
3003
0201
0320
,  // measure 51
2030
3200
0320
0032
,  // measure 52
2003
3020
0230
0302
,  // measure 53
0023
0130
2002
0000
,  // measure 54
0000
0000
3003
0000
;

//---------------dance-single - ----------------
#NOTES:
     dance-single:
     :
     Easy:
     3:
     0.190,0.225,0.076,0.221,0.000: // measure 1
2000
0001
0000
3001
,  // measure 2
0100
0001
1000
0100
,  // measure 3
0020
0000
0000
0030
,  // measure 4
0002
0000
1003
0100
,  // measure 5
0020
0000
0031
0100
,  // measure 6
0020
0000
2030
0000
,  // measure 7
3020
0000
0000
0130
,  // measure 8
0020
0000
1030
0100
,  // measure 9
0010
0001
1000
0001
,  // measure 10
2000
0000
3001
0100
,  // measure 11
0020
0000
0130
0001
,  // measure 12
0200
0000
0320
0000
,  // measure 13
2030
0000
0000
3001
,  // measure 14
0200
0000
0320
0000
,  // measure 15
0130
0002
0000
1003
,  // measure 16
0002
0000
1003
0000
,  // measure 17
1001
0000
0010
0000
,  // measure 18
0010
0000
0110
0000
,  // measure 19
0000
0000
0100
0000
,  // measure 20
0100
0000
0110
0000
,  // measure 21
0001
0000
1000
0000
,  // measure 22
0001
0000
1000
0000
,  // measure 23
0001
1000
0000
0100
,  // measure 24
0000
0010
0000
0001
,  // measure 25
0100
0010
0100
0010
,  // measure 26
1000
0100
1000
0100
,  // measure 27
0010
0001
0010
0001
,  // measure 28
1000
0010
0100
0001
,  // measure 29
2000
0000
0000
0000
,  // measure 30
3002
0000
0000
0000
,  // measure 31
2003
0000
0000
0000
,  // measure 32
3002
0000
0000
0003
,  // measure 33
1001
0000
1000
0000
,  // measure 34
1001
0000
0001
0000
,  // measure 35
1001
0000
0100
0000
,  // measure 36
0110
0000
0010
0000
,  // measure 37
1001
0000
1000
0000
,  // measure 38
0001
0000
1000
0000
,  // measure 39
0100
0000
0010
0000
,  // measure 40
0001
0000
1000
0000
,  // measure 41
0010
0100
0010
0100
,  // measure 42
0010
0000
1000
0001
,  // measure 43
1000
0100
0010
0001
,  // measure 44
0100
0010
0100
0001
,  // measure 45
2000
0000
3002
0000
,  // measure 46
2003
3010
0100
0010
,  // measure 47
2000
0000
3002
0000
,  // measure 48
2003
3010
0100
0010
,  // measure 49
0110
0000
0000
0000
,  // measure 50
0000
0000
1000
0001
,  // measure 51
1000
0100
0010
0001
,  // measure 52
1000
0010
0100
0001
,  // measure 53
1000
0001
2002
0000
,  // measure 54
0000
0000
3003
0000
;

//---------------dance-single - ----------------
#NOTES:
     dance-single:
     :
     Beginner:
     1:
     0.081,0.100,0.092,0.000,0.000: // measure 1
1001
0000
0000
0000
,  // measure 2
0001
0000
0000
0000
,  // measure 3
1000
0000
0000
0000
,  // measure 4
0001
0000
0000
0000
,  // measure 5
0110
0000
0000
0000
,  // measure 6
1000
0000
0000
0000
,  // measure 7
0110
0000
0000
0000
,  // measure 8
0001
0000
0000
0000
,  // measure 9
1000
0000
0000
0000
,  // measure 10
1001
0000
0000
0000
,  // measure 11
0001
0000
0000
0000
,  // measure 12
1000
0000
0000
0000
,  // measure 13
0001
0000
0000
0000
,  // measure 14
0100
0000
0000
0000
,  // measure 15
0010
0000
0000
0000
,  // measure 16
1000
0000
0000
0000
,  // measure 17
1001
0000
0000
0000
,  // measure 18
0001
0000
1001
0000
,  // measure 19
0000
0000
0000
0000
,  // measure 20
1000
0000
1001
0000
,  // measure 21
0000
0000
0001
0000
,  // measure 22
0000
0000
0001
0000
,  // measure 23
0000
1000
0000
1000
,  // measure 24
0000
1000
0000
1000
,  // measure 25
0001
0000
0000
0000
,  // measure 26
0100
0000
0000
0000
,  // measure 27
0010
0000
0000
0000
,  // measure 28
1000
0000
0001
0000
,  // measure 29
1000
0000
0000
0000
,  // measure 30
1000
0000
0000
0000
,  // measure 31
1000
0000
0000
0000
,  // measure 32
1000
0000
0000
0000
,  // measure 33
1001
0000
0000
0000
,  // measure 34
0001
0000
0000
0000
,  // measure 35
0001
0000
0000
0000
,  // measure 36
0001
0000
0000
0000
,  // measure 37
0100
0000
0000
0000
,  // measure 38
0010
0000
0000
0000
,  // measure 39
0100
0000
0000
0000
,  // measure 40
0001
0000
0000
0000
,  // measure 41
1001
0000
0000
0000
,  // measure 42
1000
0000
0000
0000
,  // measure 43
1001
0000
0000
0000
,  // measure 44
0001
0000
0000
0000
,  // measure 45
0100
0000
0010
0000
,  // measure 46
0100
0000
0000
0000
,  // measure 47
0010
0000
0100
0000
,  // measure 48
0010
0000
0000
0000
,  // measure 49
1001
0000
0000
0000
,  // measure 50
0000
0000
1000
0000
,  // measure 51
0001
0000
1000
0000
,  // measure 52
0100
0000
0010
0000
,  // measure 53
0001
0000
1001
0000
;
