#TITLE:BRILLIANT 2U;
#SUBTITLE:;
#ARTIST:NAOKI;
#TITLETRANSLIT:;
#SUBTITLETRANSLIT:;
#ARTISTTRANSLIT:;
#CREDIT:;
#BANNER:BRILLIANT 2U.png;
#BACKGROUND:BRILLIANT 2U-bg.png;
#LYRICSPATH:BRILLIANT 2U.lrc;
#CDTITLE:./CDTITLES/DANCE DANCE REVOLUTION 2NDMIX.PNG;
#MUSIC:BRILLIANT 2U.mp3;
#OFFSET:-0.261;
#SAMPLESTART:25.830;
#SAMPLELENGTH:15.000;
#SELECTABLE:YES;
#DISPLAYBPM:150.000;
#BPMS:0.000=150.000;
#STOPS:;
#BGCHANGES:;

//---------------dance-double - ----------------
#NOTES:
     dance-double:
     :
     Challenge:
     8:
     0.438,0.418,0.239,0.095,0.131:
00000000
00000000
00000000
00000000
,
00000000
00000000
00000000
00000000
,
00000000
00000000
00000000
00000000
,
00000000
00000000
00000000
00000000
,
00000000
00000000
00000000
00000000
,
00000000
00000000
00000000
00000000
,
00010000
00100000
10000000
00000000
01100000
00000000
00010000
00000000
,
00001000
00000100
00000001
00000000
00000110
00000000
00001000
00000000
,
00010000
00000000
00000000
01000000
00000000
00000000
10000000
00000000
00000000
00100000
00000000
00000000
00010000
00000000
00000000
00000000
,
01100000
00000000
10010000
00000000
10000000
01000000
00010000
00000000
,
00001000
00000000
00000000
00000010
00000000
00000000
00000001
00000000
00000000
00000100
00000000
00000000
00001000
00000000
00000000
00000000
,
00000110
00000000
00001001
00000000
00000001
00000010
00001000
00000000
,
00010000
00000000
00000000
01000000
00000000
00000000
10000000
00000000
00000000
00100000
00000000
00000000
00010000
00000000
00000000
00000000
,
00100000
10000000
01000000
00000000
01010000
00000000
11000000
00000000
,
00100000
00001000
00010000
00000000
00010000
01000000
00010000
00000000
,
00001000
00000010
00001000
00010000
00001000
00000100
00000001
00000000
,
00000010
00000000
00000000
00001000
00000000
00000000
00010000
00000000
00000000
00001000
00000000
00000000
00000010
00000000
00000001
00000000
,
00000200
00001000
00000010
00000301
,
00000000
00000000
00000010
00000000
00000000
00000100
00000000
00000000
00001000
00000000
00000000
00000000
00010000
00000000
01000000
00000000
,
00200000
10000000
01000000
00310000
,
00000000
00000000
00100000
00000000
00000000
00001000
00000000
00000000
00010000
00000000
00000000
00000000
00001000
00000000
00100000
00000000
,
02000000
10000000
00100000
03010000
,
00000000
00000000
10000000
00000000
00000000
01000000
00000000
00000000
00010000
00000000
00000000
00000000
00001000
00000000
00000100
00000000
,
00000020
00000001
00000100
00001030
,
00000010
00001000
00000100
00000000
00010100
00000000
00001000
00000000
,
00010000
01000000
10000000
00000000
00110000
00000000
11000000
00000000
,
00100000
01000000
00010000
00000000
01001000
00000000
00010000
00000000
,
00001000
00000100
00000010
00000000
00001001
00000000
00000110
00000000
,
00000010
00001000
00000100
00000000
00010100
00000000
00001000
00000000
,
00100000
00001000
00010000
00000000
00101000
00000000
00110000
00000000
,
10000000
00100000
01000000
00000000
01001000
00000000
00010000
00000000
,
00001000
00000100
00000001
00000000
00000001
00000100
00001000
00000000
,
00000010
00000000
00000000
00010000
00000000
00000000
00001000
00000000
00000000
00010000
00000000
00000000
01000000
00000000
10000000
00000000
,
00200000
00010000
01000000
10300000
,
00010000
00000000
00000000
01000000
00000000
00000000
00001000
00000000
00000000
00010000
00000000
00000000
01000000
00000000
00010000
00000000
,
02000000
10000000
00100000
03010000
,
00100000
00000000
00000000
00001000
00000000
00000000
00010000
00000000
00000000
00100000
00000000
00000000
00010000
00000000
00001000
00000000
,
00000200
00000001
00000010
00001300
,
00000001
00000010
00000100
00000000
00000100
00001000
00010000
00000000
,
00001000
00010000
01000000
00000000
01000000
00100000
10000000
00000000
,
10000000
00000000
00000000
00100000
00000000
00000000
00001000
00000000
00000000
01000000
00000000
00000000
10000000
00000000
01000000
00000000
,
00010000
00100000
00001000
00000000
00010000
00000010
00001000
00000000
,
00000000
00000000
00000100
00000000
00000000
00010000
00000000
00000000
00001000
00000000
00000000
00000000
00000100
00000000
00000001
00000000
,
00000010
00001000
00010000
00000000
00000010
00001000
00010000
00000000
,
00000000
00000000
01000000
00000000
00000000
10000000
00000000
00000000
00100000
00000000
00000000
00000000
00010000
00000000
00001000
00000000
,
00010000
00100000
10000000
00000000
00010000
01000000
10000000
00000000
,
00000000
00000000
00100000
00000000
00000000
00010000
00000000
00000000
00001000
00000000
00000000
00000000
00010000
00000000
01000000
00000000
,
01100000
00010000
00001000
00000110
,
00000002
00000100
00000000
00000100
00000000
00000103
00000000
00000100
,
00001000
00010000
00000000
01000000
00010000
00001000
00010000
01000000
,
10000000
00000000
00000000
00000000
;

//---------------dance-single - ----------------
#NOTES:
     dance-single:
     :
     Hard:
     8:
     0.604,0.590,0.477,0.060,0.394:
0000
0000
0000
0000
,
0000
0000
0000
0000
,
0000
0000
0000
0000
,
0000
0000
0000
0000
,
1000
0000
1100
1000
0001
0000
0011
0001
,
0100
0000
0110
0010
1000
0000
1010
1000
,
0100
0000
1100
1000
0001
0000
1001
0001
,
0010
0000
0001
0000
0100
0000
0010
0000
1000
0000
0001
0000
1000
0010
0100
0001
,
1000
0000
0000
0010
0000
0000
1000
0000
0000
0100
0000
0000
0010
0000
0000
0000
,
0001
0000
0000
0000
1001
0000
0000
0000
1000
0000
0100
0000
1000
0001
1000
0000
,
1001
0000
0101
0000
1001
1000
0010
0000
,
0100
0000
0001
0000
0010
0000
0100
0000
1000
0000
0001
0010
0000
0000
0001
0000
,
0100
0000
0000
0010
0000
0000
1000
0000
0000
0100
0000
0000
1000
0000
0000
0000
,
0001
0000
1000
0000
0010
0000
0000
0000
0100
0001
0000
1000
0001
0000
0000
0000
,
1001
0000
1010
0000
0110
0000
0100
0001
,
1000
0100
1000
0000
0001
0000
0010
0000
0100
0000
1000
0000
0010
0000
0100
0000
,
0001
0000
0000
1000
0000
0000
0100
0000
0000
0001
0000
0000
0100
0000
1000
0000
,
1001
0000
1010
0000
0110
0000
0100
0001
,
0010
0000
0000
0100
0000
0000
1000
0000
0000
0010
0000
0000
1000
0000
0100
0000
,
0110
0000
0011
0000
0101
0000
0100
0010
,
1000
0000
0000
0010
0000
0000
0100
0000
0000
0001
0000
0000
1000
0000
0100
0000
,
0110
0000
0011
0000
0101
0000
0100
0010
,
1000
0000
0000
0100
0000
0000
1000
0000
0000
0001
0000
0000
0010
0000
0001
0000
,
0100
0001
0100
0000
0010
0000
1000
0000
0100
0000
0010
0000
0001
1000
0001
1000
,
0001
0000
1000
0000
0100
1000
0000
0001
0000
0010
0000
0000
0001
0100
0000
0100
,
0001
0000
0100
0000
0010
1000
0000
0200
0000
0000
0010
0000
0310
0000
0000
0000
,
0100
0000
1000
0000
0001
0010
0000
0001
0000
0100
0000
0000
0010
1000
0000
1000
,
0100
0000
1000
0000
0001
0010
0000
0010
0001
0000
0001
0000
1000
0000
1000
0000
,
0010
0000
1000
0000
0100
1000
0000
0001
0000
0010
0000
0000
0001
1000
0000
1000
,
0001
0000
0100
0000
0010
1000
0000
0200
0000
0000
0010
0000
0310
0000
0000
0000
,
0100
0000
0010
0000
0001
1000
0000
0001
0000
0100
0000
0000
0110
0000
0000
0000
,
0010
0000
1000
0000
0001
0000
0010
0000
0001
0000
1000
0000
0010
1000
0100
0010
,
0001
0000
0000
0100
0000
0000
0001
0000
0000
0010
0000
0000
0100
0000
0000
0000
,
1000
0000
0000
0000
1001
0000
0000
0000
0001
0000
0010
0000
0001
1000
0001
0000
,
1001
0000
1010
0000
1001
0001
0100
0000
,
0010
0000
1000
0000
0100
0000
0010
0000
0001
0000
1000
0100
0000
0000
1000
0000
,
0010
0000
0000
0100
0000
0000
0001
0000
0000
0010
0000
0000
0001
0000
0000
0000
,
1000
0000
0001
0000
0100
0000
0000
0000
0010
1000
0000
0001
1000
0000
0000
0000
,
1001
0000
0101
0000
0110
0000
0010
1000
,
0001
0010
0001
0000
1000
0000
0100
0000
0010
0000
0001
0000
0100
0000
0010
0000
,
1000
0000
0000
0001
0000
0000
0010
0000
0000
1000
0000
0000
0010
0000
0001
0000
,
1001
0000
0101
0000
0110
0000
0010
1000
,
0100
0000
0000
0010
0000
0000
0001
0000
0000
0100
0000
0000
0001
0000
0010
0000
,
0110
0000
1100
0000
1010
0000
0010
0100
,
0001
0000
0000
0100
0000
0000
0010
0000
0000
1000
0000
0000
0001
0000
0010
0000
,
0110
0000
1100
0000
1010
0010
0100
0000
,
0001
0000
0100
0000
0010
0000
0000
0000
1000
0001
0000
1000
0001
0000
0000
0000
,
1000
0000
0100
0000
0010
0000
0000
0000
0001
0000
0100
0000
0010
1000
0010
0000
,
0100
0001
0020
0000
0130
0000
1000
0001
,
0010
0001
0000
0100
0010
1000
0010
0100
,
2002
0000
0000
0000
,
0000
0000
0000
0000
,
3003
0000
0000
0000
;

//---------------dance-single - ----------------
#NOTES:
     dance-single:
     :
     Beginner:
     1:
     0.109,0.149,0.012,0.000,0.000:
0000
0000
0000
0000
,
0000
0000
0000
0000
,
0000
0000
0000
0000
,
0000
0000
0000
0000
,
1000
0000
0000
0000
,
0001
0000
0000
0000
,
0010
0000
0000
0000
,
0100
0000
0100
0000
,
0100
0000
0000
0000
,
1000
0000
0000
0000
,
0010
0000
0000
0000
,
0100
0000
0100
0000
,
0100
0000
0000
0000
,
0001
0000
0000
0000
,
1000
0000
0000
0000
,
0010
0000
0010
0000
,
0010
0000
0000
0000
,
1000
0000
1000
0000
,
1000
0000
0000
0000
,
0001
0000
0001
0000
,
0001
0000
0000
0000
,
0100
0000
0100
0000
,
0100
0000
0000
0000
,
0010
0000
0010
0000
,
0010
0000
0000
0000
,
1000
0000
0000
0000
,
0001
0000
0000
0000
,
0100
0000
0100
0000
,
0100
0000
0000
0000
,
0010
0000
0000
0000
,
1000
0000
0000
0000
,
0001
0000
0001
0000
,
0001
0000
0000
0000
,
1000
0000
0000
0000
,
0100
0000
0000
0000
,
0010
0000
0010
0000
,
0010
0000
0000
0000
,
0001
0000
0000
0000
,
1000
0000
0000
0000
,
0010
0000
0010
0000
,
0010
0000
0000
0000
,
1000
0000
1000
0000
,
1000
0000
0000
0000
,
0001
0000
0001
0000
,
0001
0000
0000
0000
,
0100
0000
0100
0000
,
0100
0000
0000
0000
,
0010
0000
0010
0000
,
0010
0000
0000
0000
,
1000
0000
1000
0000
,
1001
0000
0000
0000
;

//---------------dance-single - ----------------
#NOTES:
     dance-single:
     :
     Easy:
     4:
     0.324,0.328,0.215,0.000,0.000: // measure 1
0000
0000
0000
0000
,  // measure 2
0000
0000
0000
0000
,  // measure 3
0000
0000
0000
0000
,  // measure 4
0000
0000
0000
0000
,  // measure 5
1000
0001
0010
0010
,  // measure 6
0001
1000
0100
0100
,  // measure 7
1000
0010
0100
0100
,  // measure 8
0001
1000
0001
0001
,  // measure 9
1000
0010
0100
0001
,  // measure 10
0000
1000
0100
1000
,  // measure 11
1001
0001
0010
0001
,  // measure 12
0100
0100
0010
0010
,  // measure 13
1000
0100
1000
0001
,  // measure 14
0010
0001
0100
0100
,  // measure 15
0110
0010
1000
0001
,  // measure 16
0010
0010
0001
0001
,  // measure 17
0100
0010
1000
0010
,  // measure 18
0110
0100
0101
0001
,  // measure 19
1000
0100
1000
0001
,  // measure 20
1001
1000
1010
0010
,  // measure 21
0100
0001
0010
1000
,  // measure 22
1010
0010
0011
0001
,  // measure 23
0100
0010
1000
0001
,  // measure 24
1000
1000
0001
0001
,  // measure 25
1000
0010
0100
0000
,  // measure 26
0001
0010
0100
0000
,  // measure 27
1000
0001
0010
0000
,  // measure 28
0001
0100
0010
0000
,  // measure 29
1000
0100
0001
0000
,  // measure 30
1000
0010
0001
0000
,  // measure 31
1000
0010
0100
0000
,  // measure 32
0001
0010
0100
1000
,  // measure 33
1001
1000
0010
0100
,  // measure 34
0000
0001
0010
0100
,  // measure 35
1100
0100
0010
0001
,  // measure 36
1000
1000
0001
0001
,  // measure 37
1000
0010
0100
0001
,  // measure 38
0010
0100
1000
0001
,  // measure 39
1001
1000
0010
1000
,  // measure 40
0001
0001
1000
1000
,  // measure 41
0100
1000
0010
0100
,  // measure 42
0101
0001
0011
0010
,  // measure 43
0100
1000
0001
0010
,  // measure 44
0011
0001
0101
0100
,  // measure 45
0010
1000
0100
1000
,  // measure 46
1001
1000
1010
0010
,  // measure 47
0100
0001
0010
0010
,  // measure 48
0100
1000
0001
0001
,  // measure 49
1000
0000
0000
0000
,  // measure 50
0001
0000
1000
0001
,  // measure 51
1001
0000
0000
0000
;

//---------------dance-single - ----------------
#NOTES:
     dance-single:
     :
     Medium:
     5:
     0.442,0.418,0.489,0.036,0.000:
0000
0000
0000
0000
,
0000
0000
0000
0000
,
0000
0000
0000
0000
,
0000
0000
0000
0000
,
1000
1100
0001
0101
,
1000
1010
0001
0011
,
1000
1001
0010
0110
,
0100
0001
0100
0000
0010
1000
0010
0000
,
1000
0100
0010
0001
,
1000
0000
1010
0000
0010
0100
0010
0000
,
0110
0101
0110
0010
,
1000
0001
0010
0000
0001
1000
0010
0000
,
1000
0010
0100
0001
,
1000
0100
1000
0000
0001
0100
0001
0000
,
1001
0110
1001
0010
,
1000
0100
1000
0000
0001
0100
0001
0000
,
1000
0010
0100
0001
,
1100
0000
0101
0000
1100
0000
1000
0100
,
0001
0100
1000
0010
,
0011
0000
1010
0000
0011
0000
0001
0010
,
0100
0010
0001
1000
,
1001
0000
0110
0000
1001
0000
1000
0100
,
0010
0001
1000
0010
,
0100
0001
0100
0000
0010
1000
0010
0000
,
1000
0000
0100
0000
1000
0001
0000
1000
,
0001
0010
0200
0300
,
1000
0000
0100
0000
0010
0001
0000
0010
,
0001
0100
0020
0030
,
1000
0000
0010
0000
0100
0001
0000
0100
,
0001
1000
0200
0300
,
0010
0000
0001
0000
1000
0010
0000
1000
,
0001
0000
1000
0000
0010
0100
0001
0100
,
0001
0010
0100
1000
,
0001
0000
0101
0000
0100
0010
0100
0000
,
0110
1010
0110
0100
,
0001
1000
0100
0000
1000
0001
0100
0000
,
0001
0100
0010
1000
,
0001
0010
0001
0000
1000
0010
1000
0000
,
1001
0110
1001
0100
,
0001
0010
0001
0000
1000
0010
1000
0000
,
0001
0100
0010
1000
,
0011
0000
1010
0000
0011
0000
0001
0010
,
1000
0010
0001
0100
,
1100
0000
0101
0000
1100
0000
1000
0100
,
0001
0100
1000
0010
,
1010
0110
1010
1000
,
0001
0010
0001
0000
0011
0000
0110
0000
,
0100
1000
0100
0000
0010
0000
0001
0000
,
1000
1000
0000
0000
0000
0000
0000
0001
,
0001
0001
0000
1000
1000
1000
1000
1000
,
1001
0000
0000
0000
;
