#TITLE:Yellow Sunrise;
#SUBTITLE:;
#ARTIST:xac;
#TITLETRANSLIT:;
#SUBTITLETRANSLIT:;
#ARTISTTRANSLIT:;
#GENRE:;
#CREDIT:;
#BANNER:bn.png;
#BACKGROUND:bg.png;
#LYRICSPATH:;
#CDTITLE:;
#MUSIC:38 - Yellow Sunrise.mp3;
#OFFSET:-0.055;
#SAMPLESTART:35.160;
#SAMPLELENGTH:12.000;
#SELECTABLE:YES;
#BPMS:0.000=174.000
;
#STOPS:
;
#BGCHANGES:;
#KEYSOUNDS:;
#ATTACKS:;

//---------------dance-single - Blank----------------
#NOTES:
     dance-single:
     :
     Hard:
     8:
     0.514,0.559,0.034,0.143,0.051,406.000,4.000,17.000,0.000,0.000,0.000,0.514,0.559,0.034,0.143,0.051,406.000,4.000,17.000,0.000,0.000,0.000: // measure 0
0000
0000
0000
0000
,  // measure 1
0000
0000
0000
0000
,  // measure 2
0000
0000
0000
0000
,  // measure 3
0000
0000
0000
0000
,  // measure 4
0000
0000
0000
0000
,  // measure 5
0000
0000
0000
0000
,  // measure 6
0000
0000
0000
0000
,  // measure 7
0000
0000
0000
0000
,  // measure 8
0010
0100
0001
0000
0001
0100
0000
0100
,  // measure 9
1000
0000
1000
0100
0000
0100
0010
1000
,  // measure 10
0100
0010
0100
0000
0010
0001
0000
0001
,  // measure 11
0100
0000
0100
0010
0000
0010
1000
0001
,  // measure 12
1000
0010
1000
0000
0010
0100
0000
0100
,  // measure 13
0001
0000
0001
0010
0000
0010
1000
0010
,  // measure 14
0001
1000
0001
0000
0010
0100
0000
0100
,  // measure 15
1000
0000
1000
0010
0000
0010
0001
0010
,  // measure 16
0100
0001
1000
0000
1000
0100
0000
0010
,  // measure 17
0100
0000
0100
0010
0000
0010
0001
1000
,  // measure 18
0100
1000
0001
0000
0001
0100
0000
0100
,  // measure 19
0010
0000
0010
0100
0000
0010
1000
0001
,  // measure 20
0010
0100
1000
0000
1000
0010
0000
0100
,  // measure 21
0001
0000
1000
0100
0000
1000
0001
0100
,  // measure 22
1000
0100
0010
0000
0010
0001
0000
0001
,  // measure 23
0010
0000
0010
1000
0000
1000
0001
1000
,  // measure 24
2002
0000
0000
0000
,  // measure 25
0000
0000
3003
0000
0010
0100
0001
1000
,  // measure 26
0100
1000
0010
0100
0000
0100
0000
0100
,  // measure 27
0010
1000
0001
0010
1000
0010
0001
0100
,  // measure 28
0002
0000
0003
1000
0002
0000
0003
0010
,  // measure 29
0001
0000
0001
0100
0000
0100
0010
0100
,  // measure 30
0001
0000
0000
0001
0000
0000
1000
0000
0000
0000
0001
0000
0000
0000
0100
0000
,  // measure 31
1000
0100
0001
0010
1000
0010
0001
1000
,  // measure 32
0001
0000
0000
0100
0000
0000
0010
0000
1000
0000
0000
0100
0000
0000
1000
0000
,  // measure 33
0002
0000
0000
0020
0000
0000
0033
0000
,  // measure 34
0001
0010
0100
1000
0100
0010
0001
0010
,  // measure 35
0100
1000
0001
1000
0001
0100
0010
1000
,  // measure 36
0100
0000
0100
0010
0000
0010
0001
0100
,  // measure 37
0010
1000
1000
0100
,  // measure 38
0010
0001
0010
0200
0000
0310
0001
1000
,  // measure 39
0001
0200
0000
0310
1000
0001
0010
0100
,  // measure 40
0010
0001
0100
0010
1000
0001
0100
0010
,  // measure 41
1000
0001
0100
0010
1000
0100
0010
0001
,  // measure 42
1000
0000
0001
0000
0100
0001
0100
0000
,  // measure 43
0010
0000
1000
0000
0010
0100
0010
0000
,  // measure 44
0100
0000
0001
0000
1000
0100
1000
0000
,  // measure 45
0010
0000
0100
0001
0000
0001
0010
0000
,  // measure 46
0100
0000
1000
0000
0100
0010
0001
0000
,  // measure 47
0100
0000
0010
0000
1000
0010
0100
0000
,  // measure 48
0001
0000
1000
0000
0100
0010
0001
0000
,  // measure 49
2002
0000
0000
3003
,  // measure 50
0001
0000
0000
0001
0000
0000
0000
0000
,  // measure 51
0000
0000
0000
0000
0000
0000
0000
0000
0100
0000
0000
0100
0000
0000
0010
0000
,  // measure 52
1000
0000
0000
0100
0000
0000
1000
0000
0010
0000
0000
0000
0000
0000
0000
0000
,  // measure 53
0000
0000
0000
0000
0100
0010
0100
0001
,  // measure 54
0000
0001
0000
1000
1000
0000
0000
0000
,  // measure 55
0000
0000
0000
0000
0000
0000
0000
0000
0100
0000
0000
0010
0000
0000
0100
0000
,  // measure 56
1000
0000
1000
0010
0000
0100
0001
1000
,  // measure 57
0002
0000
0000
2003
0000
0000
3100
0000
,  // measure 58
1100
0000
0000
0100
0000
0000
0010
0000
0100
0000
0000
0000
0000
0000
0000
0000
,  // measure 59
0000
0000
0000
0000
0000
0000
0000
0000
0100
0000
0000
0010
0000
0000
0001
0000
,  // measure 60
1000
0000
0000
0000
,  // measure 61
0001
0000
0000
0010
0000
0000
0100
0000
,  // measure 62
0010
0000
0000
0001
0000
0000
0000
0000
,  // measure 63
0100
0100
0100
0020
,  // measure 64
1030
0010
0200
0000
0310
1000
0002
0000
,  // measure 65
0013
0001
0200
0000
0310
0000
1001
0000
,  // measure 66
0001
0100
0001
0010
0000
0010
0000
0010
,  // measure 67
0100
1000
0100
1000
0010
0100
0001
0000
,  // measure 68
1000
0000
0001
0100
0000
0100
0000
0100
,  // measure 69
0010
1000
0010
1000
0100
1000
0010
1000
,  // measure 70
0001
0000
0001
0000
0001
0100
1000
0100
,  // measure 71
0010
1000
0000
0010
0000
1000
0010
1000
,  // measure 72
1000
0000
0000
0100
0000
0000
1000
0000
0010
0000
0000
0100
0000
0000
0001
0000
,  // measure 73
0010
0000
0000
0100
0000
0000
1000
0000
0010
0000
0000
0100
0000
0000
0010
0000
,  // measure 74
0100
0010
1000
0001
0100
0010
1000
0001
,  // measure 75
0100
0010
1000
0001
0100
0010
1000
0001
,  // measure 76
1000
0000
0010
0100
0000
0010
0000
1000
,  // measure 77
0000
0001
0000
0010
0000
0100
0010
0000
,  // measure 78
0001
0010
0001
0100
0001
0010
0100
0010
,  // measure 79
0001
0100
1000
0100
0010
1000
0001
0010
,  // measure 80
0100
0010
0001
0010
0100
1000
0010
1000
,  // measure 81
0001
0010
0100
0010
0001
1000
0001
0100
,  // measure 82
0002
0010
0000
0010
0000
0010
0000
0013
;

//---------------dance-single - Blank----------------
#NOTES:
     dance-single:
     :
     Medium:
     6:
     0.372,0.489,0.042,0.110,0.000,291.000,5.000,13.000,0.000,0.000,0.000,0.372,0.489,0.042,0.110,0.000,291.000,5.000,13.000,0.000,0.000,0.000:
0000
0000
0000
0000
,
0000
0000
0000
0000
,
0000
0000
0000
0000
,
0000
0000
0000
0000
,
0000
0000
0000
0000
,
0000
0000
0000
0000
,
0000
0000
0000
0000
,
0000
0000
0000
0000
,
0001
1000
0001
0000
0000
0100
0000
0000
,
0010
0000
0000
1000
0000
0000
0010
0000
,
0100
0000
0010
0000
1000
0010
1000
0000
,
0001
0010
0001
1000
,
0010
0100
0010
0000
0100
0000
0001
0000
,
1000
0100
1000
0001
,
0100
1000
0100
0000
0010
0000
1000
0000
,
0001
0010
0001
0100
,
0010
1000
0001
0000
0010
0000
0100
0000
,
0010
0001
1000
0100
,
1000
0010
0100
0000
0001
0000
1000
0000
,
0100
0000
1000
0100
0000
0100
0010
0001
,
1000
0001
0100
0010
,
0100
0000
0010
1000
0000
1000
0100
0010
,
0001
1000
0001
0100
,
0001
0000
0010
0100
0000
0100
1000
0001
,
2000
0000
0000
0000
,
3000
0000
0010
0010
,
0100
0000
0110
0000
0010
1000
0010
0000
,
0100
0000
0101
0000
0001
0100
0010
0000
,
2000
0000
0000
3001
2000
0000
0000
3001
,
1000
0001
0010
0100
,
1000
0010
0100
0000
0010
0000
0110
0000
,
0100
0001
0010
0000
0100
0000
0010
0000
,
0002
0013
0020
0130
,
0200
1300
2000
3001
,
0001
1000
0001
0000
0100
0000
0010
0000
,
1000
0010
0100
0000
0010
1000
0001
0000
,
0010
0100
1000
0001
,
0100
1000
0100
0010
,
0100
0010
0100
0010
0000
0100
0010
1000
,
0001
1000
0000
1000
0001
0100
0001
0100
,
0020
0000
0000
0000
,
0000
0000
0000
0030
,
0100
0000
0010
0000
1000
0010
1000
0000
,
0001
0000
0010
0000
0100
1000
0100
0000
,
1000
0000
0001
0000
0100
0001
0100
0000
,
0010
0000
0010
0100
0000
0010
0100
0000
,
0010
0000
1000
0000
1000
0001
0100
0000
,
0010
0000
1000
0000
0100
0010
0001
0000
,
0001
0000
0100
0000
1000
0100
0010
0000
,
0200
0000
0000
0000
,
0310
0000
0000
0010
0000
0000
0000
0000
,
0000
0000
0100
0000
,
0001
0000
1000
0000
,
0000
0000
0000
0000
1000
0100
1000
0100
,
0000
1000
0000
0100
0100
0000
0000
0000
,
0000
0000
0010
0000
,
0001
0000
0000
1000
0000
0000
0001
0100
,
0001
0000
0000
0100
0000
0000
0010
0000
,
0110
0000
0000
0000
,
0000
0000
0010
0000
,
0010
0000
0000
0000
,
1000
0000
0000
0001
0000
0000
0100
0000
,
0000
0000
0000
0010
0000
0000
0000
0000
,
0000
0000
0000
0000
,
2002
0000
0000
0000
,
3003
0000
0000
0002
,
0013
0000
0001
0000
0001
0100
0010
0000
,
0100
0000
1000
0000
1000
0100
0001
0000
,
0010
0000
0100
0000
1000
0010
0100
0000
,
0010
0000
0001
0000
0001
0010
1000
0000
,
1000
0000
0010
0000
0100
0010
1000
0000
,
0001
0000
0010
0000
0100
0010
0100
0000
,
0100
0000
0010
0000
0001
1000
0100
0000
,
1000
0000
0010
0000
0100
0010
1000
0000
,
0001
1000
0001
0000
0100
0000
0010
0000
,
0100
0001
0100
0000
1000
0000
0100
0000
,
0010
1000
0100
0000
1000
0000
0001
0000
,
0010
0100
1000
0000
0001
0000
0100
0000
,
0010
1000
0000
1000
0100
0000
0100
0010
,
0000
0010
0001
0000
1000
0000
0001
0000
,
0001
0100
1000
0100
,
0010
1000
0001
0010
,
0200
0000
0000
0000
,
0300
0000
0000
0000
;

//---------------dance-single - Blank----------------
#NOTES:
     dance-single:
     :
     Easy:
     4:
     0.274,0.280,0.025,0.067,0.000,217.000,3.000,8.000,0.000,0.000,0.000,0.274,0.280,0.025,0.067,0.000,217.000,3.000,8.000,0.000,0.000,0.000:
0000
0000
0000
0000
,
0000
0000
0000
0000
,
0000
0000
0000
0000
,
0000
0000
0000
0000
,
0000
0000
0000
0000
,
0000
0000
0000
0000
,
0000
0000
0000
0000
,
0000
0000
0000
0000
,
1000
0000
0000
0000
,
0001
0000
0000
0000
,
1000
0001
0100
0001
,
0010
0001
0100
0100
,
0010
1000
0100
1000
,
0010
0010
0100
0100
,
0010
1000
0001
0010
,
0100
0100
0010
0010
,
0001
1000
0010
0100
,
0001
0001
1000
1000
,
0001
0100
0010
1000
,
0100
0100
1000
1000
,
0100
0010
0001
0010
,
0001
0001
0100
0100
,
0010
1000
0001
0010
,
0001
0001
0100
0100
,
0220
0000
0000
0000
,
0330
0000
0010
0000
,
0100
0010
0000
1000
,
0001
0010
0000
0001
,
0100
0010
0000
0100
,
0010
1000
0001
0010
,
0100
0010
0000
0010
,
1000
0100
0000
1000
,
0010
0100
0001
0010
,
0200
0000
0000
0300
,
0010
0001
0010
0001
,
0010
0001
0010
0001
,
0100
1000
0100
0010
,
1000
0001
0010
1000
,
0010
0010
0001
0001
,
0100
0100
0010
0010
,
0100
0001
1000
0010
,
1000
0100
0010
0001
,
1000
0000
0001
0000
,
0100
0010
1000
0010
,
0100
0000
0010
0000
,
1000
0001
0010
0010
,
0001
0000
0100
0000
,
1000
0100
0010
1000
,
0001
0000
1000
0000
,
0200
0000
0000
0300
,
0010
0000
0000
0000
,
0000
0000
0000
0000
,
0001
0000
0000
0000
,
0000
0000
0000
0000
,
1000
0000
0000
0000
,
0000
0000
0010
0000
,
0010
0000
0000
0000
,
0200
0000
0000
0300
,
0110
0000
0000
0000
,
0000
0000
0000
0000
,
0010
0000
0000
0000
,
1000
0000
0000
0000
,
0001
0000
0000
0000
,
0001
0001
0001
0001
,
2002
0000
0000
0000
,
0000
0000
0000
3000
,
0103
0001
0100
1000
,
0100
0010
1000
0010
,
0100
0010
1000
0001
,
0010
0100
0010
0001
,
1000
0001
0100
0001
,
0010
0010
0001
0001
,
0100
1000
0100
0010
,
1000
0001
0010
0001
,
0100
0010
0100
0010
,
0100
0010
0100
0010
,
0100
0010
1000
0001
,
0010
0001
1000
0100
,
1000
1000
0001
0001
,
0100
0100
0010
0010
,
0100
0010
1000
0001
,
0010
0100
1000
0100
,
0020
0000
0000
0000
,
0030
0000
0000
0000
;

//---------------dance-single - Blank----------------
#NOTES:
     dance-single:
     :
     Beginner:
     1:
     0.084,0.138,0.017,0.000,0.000,68.000,2.000,0.000,0.000,0.000,0.000,0.084,0.138,0.017,0.000,0.000,68.000,2.000,0.000,0.000,0.000,0.000:
0000
0000
0000
0000
,
0000
0000
0000
0000
,
0000
0000
0000
0000
,
0000
0000
0000
0000
,
0000
0000
0000
0000
,
0000
0000
0000
0000
,
0000
0000
0000
0000
,
0000
0000
0000
0000
,
1001
0000
0000
0000
,
0000
0000
0000
0000
,
0010
0000
0000
0000
,
0000
0000
0000
0000
,
1000
0000
0000
0000
,
0000
0000
0000
0000
,
0001
0000
0000
0000
,
0000
0000
0000
0000
,
1000
0000
0000
0000
,
0000
0000
0000
0000
,
0100
0000
0000
0000
,
0000
0000
0000
0000
,
1000
0000
0000
0000
,
0000
0000
0000
0000
,
0001
0000
0000
0000
,
0000
0000
0000
0000
,
0100
0000
0000
0000
,
0000
0000
0010
0000
,
0010
0000
0000
0000
,
1000
0000
1000
0000
,
1000
0000
0000
0000
,
0001
0000
0000
0000
,
0001
0000
0000
0000
,
0100
0000
0100
0000
,
0100
0000
0000
0000
,
1000
0000
0000
0000
,
0010
0000
0000
0000
,
0010
0000
0000
0000
,
0010
0000
0000
0000
,
0100
0000
0000
0000
,
0001
0000
0000
0001
,
0000
0000
1000
1000
,
1000
0000
0000
0000
,
0000
0000
0000
0000
,
0010
0000
0000
0000
,
0100
0000
0000
0000
,
0001
0000
0000
0000
,
1000
0000
1000
0000
,
1000
0000
0000
0000
,
0010
0000
0000
0000
,
0010
0000
0000
0000
,
0100
0000
0000
0000
,
0001
0000
0000
0000
,
0000
0000
0000
0000
,
1000
0000
0000
0000
,
0000
0000
0000
0000
,
0010
0000
0000
0000
,
0000
0000
0000
0000
,
0100
0000
0000
0000
,
0010
0000
0000
0000
,
1000
0000
0000
0000
,
0000
0000
0000
0000
,
0001
0000
0000
0000
,
0000
0000
0000
0000
,
0100
0000
0000
0000
,
0000
0000
0000
0000
,
0010
0000
0000
0000
,
0000
0000
0000
0001
,
0001
0000
0000
0000
,
1000
0000
1000
0000
,
0010
0000
0000
0000
,
0100
0000
0100
0000
,
0001
0000
0000
0000
,
1000
0000
0000
0000
,
0001
0000
0000
0000
,
0010
0000
0000
0000
,
0001
0000
0000
0000
,
0100
0000
0000
0000
,
0010
0000
0000
0000
,
1000
0000
0000
0000
,
0100
0000
0000
0010
,
0000
0000
0001
0001
,
1000
0000
0000
0000
,
0000
0000
0000
0000
,
1001
0000
0000
0000
;
