#TITLE:Wanna;
#SUBTITLE:;
#ARTIST:Kara;
#TITLETRANSLIT:;
#SUBTITLETRANSLIT:;
#ARTISTTRANSLIT:;
#CREDIT:;
#BANNER:[Week 6] - Wanna-bn.png;
#BACKGROUND:[Week 6] - Wanna-bg.png;
#LYRICSPATH:;
#CDTITLE:;
#MUSIC:[Week 6] - Wanna.ogg;
#OFFSET:-0.065;
#SAMPLESTART:37.297;
#SAMPLELENGTH:7.000;
#SELECTABLE:YES;
#BPMS:0.000=161.000;
#STOPS:;
#BGCHANGES:0.000=[Week 6] - Wanna.avi=1.000=1=0=1,
99999=-nosongbg-=1.000=0=0=0 // don't automatically add -songbackground-
;

//---------------dance-single - Koizumi/TaroNuke----------------
#NOTES:
     dance-single:
     Koizumi/TaroNuke:
     Challenge:
     9:
     0.642,0.784,0.327,0.288,0.000: // measure 1
0000
0000
0000
0000
,  // measure 2
0000
0000
0000
0000
,  // measure 3
2002
0000
0000
0000
,  // measure 4
0000
0000
3003
0000
,  // measure 5
1001
1000
0100
0001
0100
0010
0022
0033
,  // measure 6
1001
0001
0100
1000
0100
0010
2020
3030
,  // measure 7
1001
1000
0010
0001
0010
0100
0202
0303
,  // measure 8
1001
0001
0010
1000
0010
0100
2200
3300
,  // measure 9
0000
0010
0010
0010
0010
0010
0010
0000
,  // measure 10
0000
0000
0001
0010
0100
1000
0001
0001
,  // measure 11
0000
1000
0100
0010
0001
0001
1000
2000
,  // measure 12
0000
3010
0000
0000
0000
0000
0000
1100
,  // measure 13
0000
0011
0000
1001
0000
0220
0000
0330
,  // measure 14
0000
0000
0001
0100
0010
1000
0001
0001
,  // measure 15
0000
1000
0010
0100
0001
0001
1000
2000
,  // measure 16
0000
3100
0000
0000
0000
0100
0010
0100
,  // measure 17
0000
0020
0000
0000
0000
0030
0000
0000
,  // measure 18
1010
1000
0001
1001
1000
0001
0101
0000
,  // measure 19
0011
0001
1000
1001
0001
1000
1100
0000
,  // measure 20
1000
0100
0001
0100
1000
0100
0001
0100
,  // measure 21
0000
2002
0000
0000
3003
0000
0000
0000
,  // measure 22
1010
1000
0010
0110
0100
0001
0101
0000
,  // measure 23
0011
0001
0010
0110
0100
1000
1100
0000
,  // measure 24
0001
0100
1000
0100
0001
0100
1000
0100
,  // measure 25
0000
2002
0000
0000
3003
0000
0000
0000
,  // measure 26
1000
0100
0001
0100
0010
0001
0100
0010
,  // measure 27
1000
0000
0000
0000
,  // measure 28
0001
0100
1000
0100
0010
1000
0100
0010
,  // measure 29
0001
0000
1000
0100
0010
0001
0100
0010
,  // measure 30
1000
0100
0001
0100
0010
0001
0100
0010
,  // measure 31
1000
0100
0001
0100
0010
0001
0100
0010
,  // measure 32
1000
0100
0001
0100
0010
0001
0100
0010
,  // measure 33
2000
0000
3000
0000
,  // measure 34
1000
0001
0001
0100
0001
0001
1000
0001
,  // measure 35
0010
0001
0001
1000
0001
0001
0100
0001
,  // measure 36
0100
0010
0010
0001
0010
0010
0100
0010
,  // measure 37
1000
0010
0010
0100
0010
0010
0001
0010
,  // measure 38
1000
0001
0001
0100
0001
0001
1000
0001
,  // measure 39
0010
0001
0001
1000
0001
0001
0100
0001
,  // measure 40
0010
0100
0100
1000
0100
0100
0010
0100
,  // measure 41
0001
0100
0100
0010
0100
0100
1000
0001
,  // measure 42
1000
0100
0010
0001
2000
0002
0000
3003
,  // measure 43
0001
0010
0100
1000
0002
2000
0000
3003
,  // measure 44
1000
0100
0010
0001
1000
0001
0000
1100
,  // measure 45
0000
0011
0000
0110
0000
0000
0000
0000
,  // measure 46
1000
0010
0100
0001
2000
0002
0000
3003
,  // measure 47
0001
0100
0010
1000
0002
2000
0000
3003
,  // measure 48
1000
0010
0100
0001
1000
0001
0000
1100
,  // measure 49
0000
0011
0000
1001
0000
0000
0000
0000
,  // measure 50
0000
0001
0001
0001
0001
0001
0001
0000
,  // measure 51
0001
0100
1000
0100
0010
1000
0100
0010
,  // measure 52
0001
0000
0000
0000
,  // measure 53
1000
0100
0001
0100
0010
0001
0100
0010
,  // measure 54
1000
0000
0001
0100
0010
1000
0100
0010
,  // measure 55
0001
0100
1000
0100
0010
1000
0100
0010
,  // measure 56
0001
0100
1000
0100
0010
1000
0100
0010
,  // measure 57
0001
0100
1000
0100
0010
1000
0100
0010
,  // measure 58
0002
0000
0003
0000
,  // measure 59
0001
1000
1000
0100
1000
1000
0001
1000
,  // measure 60
0010
1000
1000
0001
1000
1000
0100
1000
,  // measure 61
0010
0100
0100
1000
0100
0100
0010
0100
,  // measure 62
0001
0100
0100
0010
0100
0100
1000
0100
,  // measure 63
0001
1000
1000
0100
1000
1000
0001
1000
,  // measure 64
0010
1000
1000
0001
1000
1000
0100
1000
,  // measure 65
0100
0010
0010
0001
0010
0010
0100
0010
,  // measure 66
1000
0010
0010
0100
0010
0010
0001
0010
;

//---------------dance-single - TaroNuke----------------
#NOTES:
     dance-single:
     TaroNuke:
     Easy:
     4:
     0.255,0.422,0.228,0.208,0.000:
0000
0000
0000
0000
,
0000
0000
0000
0000
,
0000
0000
0000
0000
,
0000
0000
0000
0000
,
0000
0000
0001
0000
0101
0000
0002
0003
,
0000
0000
1000
0000
1010
0000
2000
3000
,
0000
0000
0100
0000
0110
0000
0200
0300
,
0000
1000
0010
0001
,
0000
0000
0000
0000
,
0000
0000
1000
0000
1000
0000
0000
0100
,
0000
0000
0001
0000
0001
0000
0000
0010
,
0000
0000
0000
0000
0000
0000
0000
1010
,
0000
0000
0000
0101
0000
0000
0000
0000
,
0000
0000
1000
0000
1000
0000
0000
0100
,
0000
0000
0001
0000
0001
0000
0000
0010
,
0000
0000
0000
0000
0000
0000
0000
1000
,
0000
0001
0000
0000
0000
0000
0000
0000
,
1010
0000
0000
0000
,
0101
0000
0000
0000
,
1000
0000
0100
0000
,
1000
0000
0010
0000
,
1010
0000
0000
0000
,
0101
0000
0000
0000
,
1000
0000
0100
0000
,
1000
0000
0010
0000
,
1000
1000
1000
1000
,
1001
0000
0000
0000
,
0001
0001
0001
0001
,
1001
0000
0000
0000
,
1000
1000
1001
0000
,
0001
0001
1001
0000
,
1000
1000
0100
0100
,
0022
0000
0000
0033
,
0001
0000
0010
0000
,
0001
0000
0100
0000
,
1000
0000
0100
0000
,
1000
0000
0010
0000
,
0001
0000
0010
0000
,
0001
0000
0100
0000
,
1000
0000
0100
0000
,
1000
0000
0010
0000
,
1000
0100
2000
0000
,
3001
0010
0002
0000
,
1003
0010
2000
3000
,
0202
0303
2002
3003
,
1000
0100
2000
0000
,
3001
0010
0002
0000
,
1003
0010
2000
3000
,
0202
0303
2002
3003
,
0000
0000
0000
0000
,
1000
1000
1000
1000
,
1001
0000
0000
0000
,
0001
0001
0001
0001
,
1001
0000
0000
0000
,
1000
1000
1001
0000
,
0001
0001
1001
0000
,
1000
1000
0100
0100
,
0022
0000
0000
0033
,
0001
0000
0010
0000
,
0001
0000
0100
0000
,
1000
0000
0100
0000
,
1000
0000
0010
0000
,
0001
0000
0010
0000
,
0001
0000
0100
0000
,
1000
0000
0100
0000
,
1000
0000
0010
0000
;

//---------------dance-single - TaroNuke----------------
#NOTES:
     dance-single:
     TaroNuke:
     Medium:
     6:
     0.391,0.489,0.139,0.149,0.000:
0000
0000
0000
0000
,
0000
0000
0000
0000
,
0000
0000
0000
0000
,
0000
0000
0000
0000
,
0001
0100
1000
0000
,
1000
0100
0001
0000
,
0001
0010
1000
0000
,
1000
0010
0001
0000
,
0000
0000
0000
0000
,
1000
0100
1000
0000
0100
0000
0010
0000
,
0001
0010
0001
0000
0010
0000
0100
0000
,
1000
0100
1000
0000
0100
0000
0010
0000
,
0101
0000
1010
0000
,
1000
0100
1000
0000
0100
0000
0010
0000
,
0001
0010
0001
0000
0010
0000
0100
0000
,
1000
0100
1000
0000
0100
0000
0010
0000
,
0101
0000
1010
0000
,
0100
0010
0100
0000
0010
0100
0010
0000
,
0100
0010
0100
0000
0010
0100
0010
0000
,
2000
3200
0302
0203
,
2300
3001
0000
0000
,
0100
0010
0100
0000
0010
0100
0010
0000
,
0100
0010
0100
0000
0010
0100
0010
0000
,
0002
0203
2300
3200
,
0302
2003
3010
0000
,
1000
0100
1000
0000
0001
0100
0001
0000
,
1001
0000
0000
0000
,
0001
0010
0001
0000
1000
0010
1000
0000
,
1001
0000
0000
0000
,
1000
0100
1000
0000
0001
0100
0001
0000
,
1000
0010
1000
0000
0001
0010
0001
0000
,
1000
0100
1000
0000
0001
0010
0001
0000
,
2002
0000
0000
3003
0000
0000
0000
0000
,
1000
0100
1000
0100
,
0010
0001
0010
0001
,
1000
0010
1000
0010
,
0100
0001
0100
0001
,
1000
0100
0001
0001
,
0001
0100
1000
1000
,
1000
0010
0001
0001
,
0001
0010
1000
0001
,
1000
0000
0100
0000
0010
0001
0000
0000
,
1000
0000
0010
0000
0100
0001
0000
0000
,
1000
0000
0100
0000
0010
0001
0000
0011
,
0000
0101
0000
1001
0000
0000
0000
0000
,
0001
0000
0010
0000
0100
1000
0000
0000
,
0001
0000
0100
0000
0010
1000
0000
0000
,
0001
0000
0010
0000
0100
1000
0000
1100
,
0000
1010
0000
1001
0000
0000
0000
0000
,
0000
0000
0000
0000
,
1000
0100
1000
0100
1000
0100
1000
0100
,
1000
0000
0000
0000
,
0001
0100
0001
0100
0001
0100
0001
0100
,
0001
0000
0000
0000
,
1000
0100
1000
0000
0001
0100
0001
0000
,
1000
0010
1000
0000
0001
0010
0001
0000
,
1000
0100
1000
0000
0001
0010
0001
0000
,
2002
0000
0000
3003
0000
0000
0000
0000
,
1000
0100
1000
0100
,
0010
0001
0010
0001
,
1000
0010
1000
0010
,
0100
0001
0100
0001
,
1000
0100
0001
0001
,
0001
0100
1000
1000
,
1000
0010
0001
0001
,
0001
0010
1000
0001
;

//---------------dance-single - TaroNuke----------------
#NOTES:
     dance-single:
     TaroNuke:
     Hard:
     8:
     0.510,0.555,0.278,0.268,0.000:
0000
0000
0000
0000
,
0000
0000
0000
0000
,
2002
0000
0000
3003
,
0000
0000
0000
0000
,
0000
1000
0100
0010
0001
0010
0200
0300
,
0000
1000
0010
0100
0001
0100
0020
0030
,
0000
1000
0100
0010
0001
0010
0200
0300
,
0000
1000
0010
0100
0001
0100
0020
0030
,
0000
1000
0001
1000
0001
1000
0001
0000
,
0000
0000
1000
0100
1000
0010
0100
0001
,
0000
0001
0010
0100
1000
0010
0100
0001
,
0000
0011
0000
0000
0000
0000
0000
1010
,
0000
1001
0000
0101
0000
2002
3003
0000
,
0000
0000
0001
0100
0001
0010
0100
1000
,
0000
1000
0010
0100
0001
0010
0100
1000
,
0000
1010
0000
0000
0000
1000
0010
0100
,
0000
1001
0000
0000
0000
0000
0000
0000
,
1010
0000
0000
0101
0000
0000
1001
0000
,
1010
0000
0000
0101
0000
0000
1001
0000
,
0001
0010
0001
0010
0100
1000
0010
0100
,
0000
1001
0000
0000
0000
0000
0000
0000
,
0011
0000
0000
1100
0000
0000
1001
0000
,
0011
0000
0000
1100
0000
0000
1001
0000
,
1000
0010
1000
0010
0100
0001
0010
0100
,
0000
1001
0000
0000
0000
0000
0000
0000
,
1000
0100
0000
0001
0100
0001
0200
0000
,
1300
0000
0000
0000
,
0001
0100
0000
1000
0100
1000
0200
0000
,
0301
0000
1000
0100
0010
0001
0100
0010
,
1000
0100
0000
0001
0100
0001
0000
0010
,
0001
0010
0000
1000
0010
1000
0000
0100
,
1000
0100
0000
0010
0001
0100
0010
1000
,
0200
0000
0300
0000
,
1000
0000
0000
0100
0000
0000
0010
0000
,
0001
0000
0000
0010
0000
0000
0100
0000
,
1000
0000
0000
0010
0000
0000
0100
0000
,
0001
0000
0000
0100
0000
0000
0010
0000
,
1000
1000
0100
0010
0001
0010
0200
0300
,
1000
1000
0010
0100
0001
0100
0020
0030
,
1000
1000
0100
0010
0001
0010
0200
0300
,
1000
1000
0010
0100
0001
0100
0020
0030
,
1000
0001
1000
0001
0200
0310
0000
0000
,
1000
0001
1000
0001
0020
0130
0000
0000
,
1000
0001
1000
0001
0200
0310
0000
1010
,
0000
0101
0000
1001
0000
0000
0000
0000
,
1000
0010
0100
0001
0010
0010
0000
0000
,
0001
0010
0100
1000
0010
0010
0000
0000
,
1000
0010
0100
0001
0010
0010
0000
0110
,
0000
1001
0000
0220
0000
0330
0000
0000
,
0000
0001
0100
0001
1000
0001
0100
0000
,
0001
0100
0000
1000
0100
1000
0200
0000
,
0301
0000
0000
0000
,
1000
0100
0000
0001
0100
0001
0200
0000
,
1300
0000
0001
0100
0010
1000
0100
0010
,
0001
0100
0000
1000
0100
1000
0000
0010
,
1000
0010
0000
0001
0010
0001
0000
0100
,
0001
0100
0000
0010
1000
0100
0010
0001
,
0200
0000
0300
0000
,
0001
0000
0000
0010
0000
0000
0100
0000
,
1000
0000
0000
0100
0000
0000
0010
0000
,
0001
0000
0000
0100
0000
0000
0010
0000
,
1000
0000
0000
0010
0000
0000
0100
0000
,
0001
0001
0010
0100
1000
0100
0020
0030
,
0001
0001
0100
0010
1000
0010
0200
0300
,
0001
0001
0010
0100
1000
0100
0020
0030
,
0001
0001
0100
0010
1000
0010
0200
0300
;

//---------------dance-single - TaroNuke----------------
#NOTES:
     dance-single:
     TaroNuke:
     Beginner:
     3:
     0.201,0.325,0.149,0.089,0.000:
0000
0000
0000
0000
,
0000
0000
0000
0000
,
0000
0000
0000
0000
,
0000
0000
0000
0000
,
0001
0000
0001
0000
,
1000
0000
1000
0000
,
0100
0000
0100
0000
,
0010
0000
0020
0030
,
0000
0000
0000
0000
,
1000
0000
1000
0000
,
0001
0000
0001
0000
,
0100
0000
0100
0000
,
1001
0000
0110
0000
,
1000
0000
1000
0000
,
0001
0000
0001
0000
,
0100
0000
0000
0000
,
1001
1001
1001
0000
,
0110
0000
0000
0000
,
1001
0000
0000
0000
,
1000
0000
0100
0000
,
1000
0000
0000
0000
,
1001
0000
0000
0000
,
0110
0000
0000
0000
,
0001
0000
0100
0000
,
0001
0000
0000
0000
,
1000
1000
1000
1000
,
1000
0000
0000
0000
,
0001
0001
0001
0001
,
0001
0000
0000
0000
,
1000
1000
1000
0000
,
0001
0001
0001
0000
,
1000
0000
0100
0000
,
2002
0000
3003
0000
,
0001
0000
0010
0000
,
0001
0000
0100
0000
,
1000
0000
0100
0000
,
1000
0000
0010
0000
,
0001
0000
0010
0000
,
0001
0000
0100
0000
,
1000
0000
0100
0000
,
1000
0000
0010
0000
,
1000
0000
2000
0000
,
3001
0000
0002
0000
,
1003
0000
0000
0000
,
0101
0000
1001
0000
,
0010
0000
0020
0000
,
0130
0000
0200
0000
,
0310
0000
0000
0000
,
1100
0000
1001
0000
,
0000
0000
0000
0000
,
1000
1000
1000
1000
,
1000
0000
0000
0000
,
0001
0001
0001
0001
,
0001
0000
0000
0000
,
1000
1000
1000
0000
,
0001
0001
0001
0000
,
1000
0000
0100
0000
,
2002
0000
3003
0000
,
0001
0000
0010
0000
,
0001
0000
0100
0000
,
1000
0000
0100
0000
,
1000
0000
0010
0000
,
0001
0000
0010
0000
,
0001
0000
0100
0000
,
1000
0000
0100
0000
,
1000
0000
0010
0000
;
