#TITLE:UNBELIEVABLE (Sparky remix);
#SUBTITLE:Short Song;
#ARTIST:jun feat. Sarah-Jane;
#TITLETRANSLIT:;
#SUBTITLETRANSLIT:;
#ARTISTTRANSLIT:;
#CREDIT:;
#BANNER:UNBELIEVABLE (Sparky remix).png;
#BACKGROUND:UNBELIEVABLE (Sparky remix)-bg.png;
#LYRICSPATH:;
#CDTITLE:./CDTITLES/DanceDanceRevolution II.png;
#MUSIC:UNBELIEVABLE (Sparky remix).ogg;
#OFFSET:0.000;
#SAMPLESTART:45.240;
#SAMPLELENGTH:14.980;
#SELECTABLE:YES;
#DISPLAYBPM:87.000:175.000;
#BPMS:0.000=175.006,260.000=87.485,276.000=174.946;
#STOPS:;
#BGCHANGES:;

//---------------dance-single - ----------------
#NOTES:
     dance-single:
     :
     Hard:
     9:
     0.660,0.868,0.472,0.105,0.131:
0000
0000
0000
0000
,
0000
0000
0000
0000
,
0000
0000
0000
0000
,
0000
0000
0000
0000
,
0000
0000
0000
0000
,
1100
0000
0101
0000
1000
0100
0010
0100
,
1000
0010
0001
0010
1000
0100
0010
0001
,
0011
0000
1010
0000
1100
0000
0001
0100
,
0202
0000
0000
0000
0303
0000
0000
0000
0100
0000
0000
0010
0000
0000
1000
0000
,
0001
0100
0010
1000
0000
0001
0010
0100
,
1000
0010
0100
0001
0000
1000
0100
0010
,
0001
1000
0010
0200
0000
1000
0000
0310
,
0000
1000
0100
0010
0011
0000
1010
0000
,
0001
0010
0100
1000
0000
0010
0100
0001
,
1000
0100
0010
0001
0000
0100
0010
1000
,
0001
1000
0100
0020
0000
0031
0100
0010
,
1000
0000
0000
0001
0000
0000
0100
0000
0010
0000
0010
0000
0010
0000
0000
0000
,
0100
0001
1000
0010
0000
1000
0100
0010
,
0100
1000
0001
0100
0000
0010
0100
0001
,
0010
0100
1000
0020
0000
0001
0000
1030
,
0000
0100
0010
0001
0101
0000
1100
0000
,
0010
0001
1000
0100
0000
0010
0001
0100
,
0010
1000
0001
0100
0000
0010
1000
0100
,
0010
0001
0100
0020
0000
1030
0100
0010
,
0001
0000
1000
0100
0001
0000
0101
0000
,
0100
1000
0010
0100
0001
1000
0010
0100
,
0001
0010
0100
0010
1000
0010
0100
0010
,
0001
0100
0010
1000
0100
0010
0001
1000
,
0010
0100
1000
0100
0001
0100
0010
0000
,
1000
0010
0100
0001
1000
0100
0010
0100
,
1000
0010
0100
0010
0001
0010
0100
0010
,
1000
0100
0010
0001
0100
0010
1000
0001
,
0100
0000
0000
0100
0000
0000
0100
0000
0020
0000
0000
0000
1030
0000
0000
0000
,
0001
0000
0100
0000
1000
0010
0001
0010
,
1000
0000
0000
1000
0100
0000
0000
0100
0010
0000
0000
0010
0001
0000
0000
0000
,
1000
0000
0001
0100
1000
0000
0100
0000
,
0001
0010
1000
0010
0001
0000
0100
0000
,
1000
0000
0010
0000
0001
0100
1000
0100
,
0001
0000
0000
0001
0010
0000
0000
0010
0100
0000
0000
0100
1000
0000
0000
0000
,
0001
0100
0010
1000
1100
0000
0101
0000
,
1000
0010
0100
0001
0011
0000
1010
0000
,
0001
0000
0010
0000
1000
0100
0001
0100
,
1000
0000
0000
1000
0010
0000
0000
0010
0100
0000
0000
0100
0001
0000
0000
0000
,
1000
0000
0001
0010
1000
0000
0010
0000
,
0001
0100
1000
0100
0001
0000
0010
0000
,
1000
0000
0100
0000
0001
0010
1000
0010
,
0001
0000
0000
0001
0100
0000
0000
0100
0010
0000
0000
0010
1000
0000
0000
0000
,
0001
0000
0000
0001
0100
0000
0010
0000
1000
0000
1000
0000
0001
0010
0001
0000
,
2002
0000
0000
3003
,
1100
0000
0101
0000
1000
0010
0100
0001
,
1000
0100
0010
0001
0010
1000
0010
0001
,
0100
0000
0101
0000
1100
0000
0001
0100
,
0000
0100
0100
0100
0101
0000
1010
0000
,
0101
0000
1100
0000
0001
0100
0010
1000
,
0001
0010
0100
1000
0010
0001
0010
1000
,
0100
0000
0011
0000
1010
0000
0100
0001
,
1000
0100
0001
0100
1100
0000
0101
0000
,
1010
0000
0011
0000
1000
0100
0010
0001
,
1000
0100
0010
0001
0100
1000
0100
0001
,
0010
0000
1100
0000
0101
0000
1000
0010
,
0000
0010
0010
0010
0011
0000
1010
0000
,
0101
0000
1100
0000
0001
0100
0010
1000
,
0001
0100
0010
1000
0100
0001
0100
1000
,
0010
0000
0011
0000
1010
0000
0001
0100
,
0220
0000
0330
0000
0001
0100
0010
1000
,
0001
0000
0000
0001
0101
0000
1000
0010
0000
0010
1000
0000
1001
0000
0001
0001
,
0100
0000
0100
0000
0110
0000
0001
0100
0000
0100
0001
0000
1001
0000
1000
1100
,
0010
0000
0000
0010
0011
0000
1000
0010
0000
0010
1000
0000
1001
0000
0010
0001
,
1000
0000
0100
0000
1100
0000
0010
0000
0100
0001
0010
0100
1100
0000
0101
0000
,
1000
0000
1000
0000
1001
0000
0010
0001
,
0000
0001
0010
0000
0011
0000
1000
1000
,
0010
0000
0010
0000
1010
0000
0001
1000
,
0000
1000
0001
0000
1010
0000
0011
0000
,
1000
0010
0100
0001
1000
0100
0010
0001
,
0100
0010
1000
0001
0010
0001
1000
0100
,
1000
0010
0001
0010
1000
0100
0001
0100
,
2000
0000
3000
0000
;

//---------------dance-single - ----------------
#NOTES:
     dance-single:
     :
     Medium:
     7:
     0.563,0.570,0.428,0.227,0.009:
0000
0000
0000
0000
,
0000
0000
0000
0000
,
0000
0000
0000
0000
,
0000
0000
0000
0000
,
0000
0000
0000
0000
,
1000
0000
1000
0000
0001
0100
0001
0000
,
1000
0010
1000
0000
0001
0010
0001
0000
,
1100
0000
1100
0000
0101
0000
1000
0010
,
0200
0000
0001
1300
,
0001
0010
0100
0010
0000
0001
0000
0010
,
1000
0010
0100
0010
0000
1000
0000
0010
,
0001
0010
0100
0010
0000
0001
0000
1000
,
0000
0001
0100
0010
1000
0000
1001
0000
,
0001
0100
0010
0100
0000
1000
0000
0100
,
1000
0100
0010
0100
0000
0001
0000
0100
,
0001
0100
0010
0000
1000
0100
0010
0000
,
0001
0000
0000
0100
0000
0000
0001
0000
1000
0000
0000
0000
1010
0000
0000
0000
,
0001
0100
0010
1000
0000
0001
0000
0100
,
0010
1000
0100
0010
0000
0001
0000
0100
,
0010
0100
0001
1000
0000
0100
0000
0001
,
0000
0010
0000
0001
0100
0000
1001
0000
,
1000
0100
0010
0001
0000
0100
0000
0010
,
1000
0010
0100
0001
0000
0010
0000
0001
,
0200
0320
2030
3002
,
0103
0000
0010
1000
0001
0000
1001
0000
,
1000
0100
1000
0000
0001
0100
0001
0000
,
1000
0100
0010
0001
0010
0100
1000
0000
,
0001
0010
0001
0000
1000
0010
1000
0000
,
0001
0010
0100
1000
0100
0010
0001
0000
,
1000
0010
1000
0000
0001
0010
0001
0000
,
1000
0010
0100
0001
0100
0010
1000
0000
,
0001
0100
0001
0000
1000
0100
1000
0000
,
0001
0000
0000
0100
0000
0000
0010
0000
1000
0000
0000
0000
0101
0000
0000
0000
,
1000
0000
1010
0000
0001
0100
0010
0100
,
0002
0203
0320
2030
,
3100
0000
0010
0001
0000
0001
0010
0000
,
0100
1000
0100
1000
0001
0000
0000
0000
,
0001
0000
0101
0000
1000
0010
0100
0010
,
2000
3020
0230
0302
,
1003
0010
1010
0011
,
0001
0100
0101
1100
,
0001
0100
0010
0000
0100
0001
1000
0010
,
0200
0302
2003
3200
,
0310
0000
0001
0100
0000
0100
0001
0000
,
1000
0010
1000
0010
0100
0000
1001
0000
,
0010
0001
0100
0000
0010
1000
0100
0000
,
2000
3200
0320
0032
,
0103
0000
0010
1000
0100
0000
0001
0000
,
0220
0000
0000
0330
,
1010
0000
0011
0000
1000
0100
0001
0000
,
0100
1000
0100
0000
1000
0010
1000
0000
,
1001
1001
0110
0110
,
1000
0100
0010
0001
0100
0000
0101
0000
,
1100
0000
0101
0000
1000
0010
0001
0000
,
0010
1000
0010
0000
1000
0100
1000
0000
,
0110
0110
1001
1001
,
0010
0001
0100
0010
1000
0100
0010
0000
,
0101
0101
1100
1100
,
1000
0010
0100
0001
0010
0100
1000
0000
,
0101
0000
1100
0000
0001
0100
0010
0000
,
1000
0100
0010
0001
0100
0000
1001
0000
,
1010
1010
0011
0011
,
1000
0100
0010
0100
1000
0010
0100
0000
,
0101
1100
1010
0011
,
2002
0000
0000
3003
,
1000
0100
0010
0001
1000
0100
0001
0100
,
1000
0010
0100
0001
0010
1000
0010
0000
,
0001
0100
0010
1000
0001
0010
1000
0010
,
0001
0100
0010
1000
0100
0001
0100
0000
,
1000
0100
0001
0100
,
1000
0010
0001
0010
,
1000
0100
0001
0100
,
1000
0010
0001
0000
,
0010
0000
1000
0100
,
0011
0011
0101
0101
,
0001
0100
0010
1000
0001
0010
0100
1000
,
0002
0000
0000
0003
;

//---------------dance-single - ----------------
#NOTES:
     dance-single:
     :
     Easy:
     5:
     0.405,0.469,0.253,0.236,0.000: // measure 1
0000
0000
0000
0000
,  // measure 2
0000
0000
0000
0000
,  // measure 3
0000
0000
0000
0000
,  // measure 4
0000
0000
0000
0000
,  // measure 5
0000
0000
0000
0000
,  // measure 6
1000
1000
0001
0001
,  // measure 7
0100
0010
1000
0001
,  // measure 8
1000
0000
0100
0000
0010
0000
0001
0010
,  // measure 9
0002
0000
0000
0003
,  // measure 10
1000
0000
0000
0010
0000
0000
1000
0000
,  // measure 11
0001
0000
0000
0010
0000
0000
0001
0000
,  // measure 12
0100
0000
0000
0010
0000
1000
0000
0100
,  // measure 13
0000
0010
0101
1100
,  // measure 14
0001
0000
0000
0010
0000
0000
0001
0000
,  // measure 15
1000
0000
0000
0010
0000
0000
1000
0000
,  // measure 16
0002
0000
0000
0103
0000
0000
0010
0000
,  // measure 17
1000
0100
0022
0033
,  // measure 18
1000
0000
0000
0100
0000
0000
1000
0000
,  // measure 19
0001
0000
0000
0100
0000
0000
0001
0000
,  // measure 20
1000
0000
0000
0010
0000
0100
0000
0001
,  // measure 21
0000
1000
0011
1010
,  // measure 22
0001
0000
0000
0100
0000
0000
0001
0000
,  // measure 23
1000
0000
0000
0100
0000
0000
1000
0000
,  // measure 24
1001
0000
0110
0000
,  // measure 25
0100
0001
0100
0001
0100
0000
0000
0000
,  // measure 26
0001
0201
0310
2010
,  // measure 27
3100
0010
0001
0101
,  // measure 28
0010
1000
0100
0001
,  // measure 29
0100
1000
0010
0001
,  // measure 30
1000
2010
3100
0102
,  // measure 31
0013
0100
1000
1010
,  // measure 32
0001
0100
0010
1000
,  // measure 33
0001
0000
0010
0100
0010
0000
0000
0000
,  // measure 34
0001
0100
0010
1000
,  // measure 35
0002
0023
0230
1300
,  // measure 36
0010
0000
0000
0100
0000
0000
0001
0000
,  // measure 37
1000
0000
0010
1000
0010
0000
0000
0000
,  // measure 38
1000
0100
0010
0001
,  // measure 39
2000
3020
0230
0301
,  // measure 40
0100
0000
0000
0010
0000
0000
1000
0000
,  // measure 41
0001
0000
0100
0001
0100
0000
0000
0000
,  // measure 42
0001
0010
0100
1000
,  // measure 43
0002
0203
0320
1030
,  // measure 44
0100
0000
0000
0010
0000
0000
0001
0000
,  // measure 45
0100
0000
0001
0100
0001
0000
0000
0000
,  // measure 46
1000
0010
0100
0001
,  // measure 47
2000
3200
0320
0032
,  // measure 48
1003
0010
0001
0100
,  // measure 49
2002
0000
0000
3003
,  // measure 50
0010
0000
0010
0000
0001
0100
0001
0000
,  // measure 51
1000
0010
1000
0100
,  // measure 52
0001
0001
1000
1000
,  // measure 53
0001
1000
0110
1001
,  // measure 54
0100
0000
0100
0000
1000
0010
1000
0000
,  // measure 55
0001
0100
0001
0010
,  // measure 56
1000
1000
0001
0001
,  // measure 57
1000
1000
0011
1010
,  // measure 58
0001
0000
0100
0000
0010
1000
0010
0000
,  // measure 59
0100
0001
0010
0100
,  // measure 60
0001
0001
1000
1000
,  // measure 61
0010
0100
0010
0000
1001
0000
0110
0000
,  // measure 62
1000
0000
1000
0000
0010
0100
0010
0000
,  // measure 63
0100
0001
0010
0100
,  // measure 64
0001
0100
1000
0010
,  // measure 65
2002
0000
0000
3003
,  // measure 66
1000
0000
0101
0000
0100
0100
0010
0010
,  // measure 67
1000
0000
1001
0000
0010
0001
0011
0000
,  // measure 68
1000
0000
0010
0000
0001
0001
0100
0100
,  // measure 69
0010
0000
1001
0000
0100
1000
1100
0000
,  // measure 70
0001
0000
0101
0000
,  // measure 71
1000
0010
0100
0010
,  // measure 72
1000
0000
0000
0001
0000
0000
0100
0000
,  // measure 73
0010
0000
1001
0000
,  // measure 74
1000
0100
0010
0001
,  // measure 75
0100
0010
1000
0001
,  // measure 76
0010
0001
0010
0000
0100
1000
0100
0000
,  // measure 77
2002
0000
0000
3003
;
