#TITLE:ペテン師が笑う頃に;
#SUBTITLE:;
#ARTIST:ぴずやの独房 feat.灯油;
#TITLETRANSLIT:Petenshi ga Warau Koro Ni;
#SUBTITLETRANSLIT:;
#ARTISTTRANSLIT:Pizuya's Cell feat. KEROSENE;
#GENRE:GOSHIP;
#CREDIT:AznPunk07/Frozen_Heat/GuardianFrozen;
#MENUCOLOR:#ffffff;
#METERTYPE:DDR;
#BANNER:Petenshi ga Warau Koro Ni-bn.png;
#BACKGROUND:Petenshi ga Warau Koro Ni-bg.png;
#LYRICSPATH:Petenshi ga Warau Koro Ni.lrc;
#CDTITLE:!cdtitle.png;
#MUSIC:Petenshi ga Warau Koro Ni.mp3;
#OFFSET:-0.133;
#SAMPLESTART:16.940;
#SAMPLELENGTH:15.580;
#SELECTABLE:YES;
#LISTSORT:;
#BPMS:0.000=214.020,228.000=107.010,288.000=214.010;
#STOPS:;
#BGCHANGES:;
#ATTACKS:;

//---------------dance-single - ----------------
#NOTES:
     dance-single:
     :
     Challenge:
     9:
     0.739,0.985,0.547,0.133,0.813: // measure 1
0000
0000
0000
0000
,  // measure 2
1000
0000
0100
1000
0000
0010
0100
0001
,  // measure 3
0100
0000
0010
1000
0000
1000
0100
0010
,  // measure 4
0001
0000
0100
0010
0000
0100
0001
1000
,  // measure 5
0100
0000
0010
0100
0000
0100
1000
0001
,  // measure 6
0100
0000
0010
1000
0000
0001
0010
0001
,  // measure 7
1000
0000
1000
0010
0000
0010
1000
0001
,  // measure 8
0100
0100
0010
0010
,  // measure 9
1000
1000
0001
0001
,  // measure 10
0010
0010
0100
0100
,  // measure 11
0010
0010
0001
0001
,  // measure 12
1002
1003
0010
0010
,  // measure 13
0100
0100
0001
0001
,  // measure 14
0100
0100
0010
0010
,  // measure 15
1000
0000
0100
1000
0000
0100
1000
0000
0100
1000
0000
0000
,  // measure 16
0010
0000
1000
0100
0000
0000
0010
0000
0100
1000
0000
0000
,  // measure 17
0010
0000
0100
0001
0000
0000
0010
0000
0001
0100
0000
0000
,  // measure 18
0001
0000
1000
0100
0000
0000
0001
0000
0100
1000
0000
0000
,  // measure 19
0001
0000
0100
0010
0000
0000
0001
0000
0010
0100
0000
0000
,  // measure 20
1000
0000
0100
0010
0000
0000
1000
0000
0010
0100
0000
0000
,  // measure 21
1000
0000
0001
0010
0000
0000
1000
0000
0010
0001
0000
0000
,  // measure 22
0100
0000
0001
1000
0000
0000
0100
0000
1000
0001
0000
0000
,  // measure 23
0100
1010
0100
1010
,  // measure 24
0001
0000
0010
0100
0000
0000
0001
0000
0100
0010
0000
0000
,  // measure 25
0001
0000
1000
0010
0000
0000
0001
0000
0010
1000
0000
0000
,  // measure 26
0100
0000
1000
0010
0000
0000
0100
0000
0010
1000
0000
0000
,  // measure 27
0100
0000
0010
0001
0000
0000
0100
0000
0001
0010
0000
0000
,  // measure 28
1000
0000
0010
0001
0000
0000
1000
0000
0001
0010
0000
0000
,  // measure 29
1000
0000
0001
0100
0000
0000
1000
0000
0100
0001
0000
0000
,  // measure 30
0010
0000
0100
1000
0000
0000
0010
0000
1000
0100
0000
0000
,  // measure 31
0010
0101
0010
0101
,  // measure 32
0011
0000
0010
0001
0000
0001
1000
0000
1000
0010
0000
0000
,  // measure 33
0110
0000
0100
0001
0000
0001
1000
0000
0000
0000
0000
0000
,  // measure 34
1100
0000
0100
1000
0000
1000
0001
0000
0001
0100
0000
0000
,  // measure 35
0110
0000
0010
1000
0000
1000
0100
0000
0000
0000
0000
0000
,  // measure 36
0011
0000
0010
0001
0000
0001
1000
0000
1000
0001
0000
0000
,  // measure 37
0101
0000
0100
0010
0000
0010
1000
0000
0000
0000
0000
0000
,  // measure 38
1001
0000
0001
0010
0000
0010
0100
0000
0100
1000
0000
1000
,  // measure 39
0001
0000
0001
0100
0000
0100
0010
0000
0000
0000
0000
0000
,  // measure 40
0001
0000
0001
0000
0000
0001
0100
0000
0001
0100
0000
0010
,  // measure 41
1000
0000
0100
0000
0000
0100
0000
0000
1000
0100
0000
1000
,  // measure 42
0100
0000
1100
0000
0000
0010
0001
0000
0001
0100
0000
0001
,  // measure 43
0100
0000
0010
1000
0000
1001
0000
0000
0101
0000
0000
0000
,  // measure 44
1000
0000
1000
0000
0000
1000
0100
0000
1000
0100
0000
0010
,  // measure 45
0100
0000
1000
0000
0000
1001
0000
0000
0001
0010
0000
0001
,  // measure 46
0100
0000
0001
1000
0000
1000
0010
0000
0100
0010
0000
0010
,  // measure 47
0100
0000
0101
0000
0000
0011
0000
0000
1001
0000
0000
0000
,  // measure 48
0110
0000
0110
0000
0000
0010
0001
0000
1000
0100
0000
0001
,  // measure 49
0010
0000
0011
0000
0000
1001
0000
0000
0010
1000
0000
0010
,  // measure 50
0100
0000
0100
0001
0000
0010
1000
0000
1000
0100
0000
0010
,  // measure 51
0001
0000
1000
0001
0000
0101
0000
0000
1100
0000
0000
0000
,  // measure 52
1001
0000
1001
0000
0000
1000
0100
0000
0001
0100
0000
1000
,  // measure 53
0010
0000
1000
0100
0000
1001
0000
0000
0010
1000
0000
1000
,  // measure 54
0100
0000
0010
0101
0000
0000
1000
0000
0100
1010
0000
0000
,  // measure 55
0010
0000
0010
0100
0000
0100
0001
0000
0001
1000
0000
1000
,  // measure 56
0200
0000
0000
0000
,  // measure 57
0310
0001
1000
0010
,  // measure 58
0100
0001
0100
0001
0010
1000
0010
0100
,  // measure 59
1000
0010
1000
0010
0100
0001
0100
0010
,  // measure 60
1000
0001
1000
0001
0010
0100
0010
0001
,  // measure 61
1000
0001
1000
0001
0100
0010
1000
0001
,  // measure 62
0010
0100
0010
0100
1000
0010
0001
0010
,  // measure 63
0100
0001
0100
0001
1000
0010
0100
0001
,  // measure 64
0010
0010
0100
0100
1000
1000
0001
0001
,  // measure 65
0100
0010
0100
1000
0100
0010
0100
0001
,  // measure 66
0200
0310
0002
0013
,  // measure 67
2000
0000
0000
0010
0000
0000
3010
0000
0100
0000
0000
0001
0000
0000
0010
0000
0000
0100
1000
0000
0100
0010
0000
0000
,  // measure 68
0002
0103
0020
1030
,  // measure 69
0200
0000
0000
0001
0000
0000
0301
0000
0010
0000
0000
0001
0100
0000
0001
0000
0000
0010
0100
0000
1000
0000
0000
0100
,  // measure 70
2000
3001
0200
0301
,  // measure 71
0020
0000
0000
0000
0000
0001
0030
0000
0001
0000
0000
0100
0000
0000
0001
0000
0000
1000
0100
0000
1000
0100
0000
0100
,  // measure 72
1000
0000
0100
2000
0000
0000
0000
0000
0000
0000
0000
0000
3020
0000
0000
0000
0000
0000
0130
0000
0000
0000
0000
0000
,  // measure 73
1001
0000
0101
0000
0110
0000
1010
0000
0110
0000
0101
0000
,  // measure 74
1001
0000
1100
0000
1001
0000
1010
0000
0110
0000
0101
0000
,  // measure 75
1001
0000
1100
0000
0110
0000
1100
0000
1001
0000
0011
0000
,  // measure 76
0220
0000
0000
0330
,  // measure 77
0001
0000
0001
0000
0000
0001
0100
0000
0001
0100
0000
0100
,  // measure 78
0010
0000
0010
0000
0000
0010
0000
0000
0010
1000
0000
1000
,  // measure 79
0100
0000
1100
0000
0000
0001
0010
0000
0010
0001
0000
1000
,  // measure 80
0001
0000
1000
0010
0000
1010
0000
0000
1001
0000
0000
0000
,  // measure 81
0101
0000
0100
0000
0000
0010
1000
0000
1000
0001
0000
0010
,  // measure 82
0001
0000
1001
0000
0000
0011
0000
0000
0010
0001
0000
0001
,  // measure 83
0100
0000
0010
1000
0000
1000
0100
0000
0010
0001
0000
0001
,  // measure 84
0100
0000
0010
0100
0000
1010
0000
0000
1100
0000
0000
0000
,  // measure 85
0101
0000
1001
0000
0000
1000
0100
0000
0010
0100
0000
1000
,  // measure 86
0001
0000
0101
0000
0000
1001
0000
0000
1000
0010
0000
0010
,  // measure 87
0100
0000
0010
0100
0000
0001
0100
0000
0010
1000
0000
1000
,  // measure 88
0100
0000
0010
0001
0000
1001
0000
0000
0011
0000
0000
0000
,  // measure 89
0110
0000
1000
0100
0000
0010
0100
0000
0100
1000
0000
1000
,  // measure 90
0001
0000
0010
0001
0000
0101
0000
0000
0100
0010
0000
1000
,  // measure 91
0010
0000
0010
1100
0000
0000
0010
0000
0010
0101
0000
0000
,  // measure 92
1001
0000
0001
0010
0000
0010
0100
0000
0100
0010
0000
0010
,  // measure 93
0001
0000
0100
0001
0000
0001
1000
0000
0100
1000
0000
1000
,  // measure 94
0010
0000
1000
0010
0000
0100
0001
0000
0001
0010
0000
0000
,  // measure 95
0220
0000
0000
0000
,  // measure 96
0000
0000
0000
0000
,  // measure 97
0330
0000
0000
0000
,  // measure 98
1001
0000
0000
0000
;

//---------------dance-single - ----------------
#NOTES:
     dance-single:
     :
     Hard:
     9:
     0.756,1.000,0.414,0.023,0.309: // measure 1
0000
0000
0000
0000
,  // measure 2
1000
0000
0100
0010
0000
0100
1000
0000
,  // measure 3
0010
0000
0100
0001
0000
1000
0000
0000
,  // measure 4
0010
0000
0100
0001
0000
0100
0010
0000
,  // measure 5
1000
0000
0100
0010
0000
0100
0000
0000
,  // measure 6
0010
0000
0001
0100
0000
0001
1000
0000
,  // measure 7
0100
0000
0010
0001
0000
0010
0000
0000
,  // measure 8
0100
0100
1000
0010
,  // measure 9
0100
0001
1000
0001
,  // measure 10
0010
0010
0001
1000
,  // measure 11
0010
0100
0001
1000
,  // measure 12
0001
0001
1000
0001
,  // measure 13
0010
0100
1000
0010
,  // measure 14
1000
1000
0010
0100
,  // measure 15
0001
0000
1000
0000
1000
0001
1000
0000
,  // measure 16
0010
1000
0100
0000
0010
0100
1000
0000
,  // measure 17
0010
0100
0001
0000
0010
0001
0100
0000
,  // measure 18
0001
1000
0100
0000
0001
0100
1000
0000
,  // measure 19
0001
0100
0010
0000
0001
0010
0100
0000
,  // measure 20
1000
0100
0010
0000
1000
0010
0100
0000
,  // measure 21
1000
0001
0010
0000
1000
0010
0001
0000
,  // measure 22
0100
0001
1000
0000
0100
1000
0001
0000
,  // measure 23
0100
1010
0100
1010
,  // measure 24
0001
0010
0100
0000
0001
0100
0010
0000
,  // measure 25
0001
1000
0010
0000
0001
0010
1000
0000
,  // measure 26
0100
1000
0010
0000
0100
0010
1000
0000
,  // measure 27
0100
0010
0001
0000
0100
0001
0010
0000
,  // measure 28
1000
0010
0001
0000
1000
0001
0010
0000
,  // measure 29
1000
0001
0100
0000
1000
0100
0001
0000
,  // measure 30
0010
0100
1000
0000
0010
1000
0100
0000
,  // measure 31
0010
0101
0010
0101
,  // measure 32
0001
0010
0100
0010
0001
0000
1100
0000
,  // measure 33
1000
0010
0100
0010
1000
0000
0000
0000
,  // measure 34
0001
0010
1000
0010
0001
1000
0001
0000
,  // measure 35
1000
0010
0001
0010
1000
0000
0000
0000
,  // measure 36
0001
0100
0010
0100
0001
0010
0100
0000
,  // measure 37
1000
0100
0001
0100
0010
0000
0000
0000
,  // measure 38
1000
0010
0100
0010
1000
0000
0001
1000
,  // measure 39
0001
0010
0100
0010
0001
0000
0000
0000
,  // measure 40
0001
0010
0000
0001
0100
0001
0100
0010
,  // measure 41
1000
0100
0000
0100
0000
1000
0100
1000
,  // measure 42
0100
1100
0000
0010
0001
0001
0100
0001
,  // measure 43
0100
0010
1000
1001
0000
0101
0000
0000
,  // measure 44
1000
0010
0000
1000
0100
1000
0100
0010
,  // measure 45
0100
1000
0000
1001
0000
0001
0010
0001
,  // measure 46
0100
0001
1000
1000
0010
0100
0010
0010
,  // measure 47
0100
0101
0000
0011
0000
1001
0000
0000
,  // measure 48
0110
0110
0000
0010
0001
1000
0100
0010
,  // measure 49
0001
0011
0000
1001
0000
0010
1000
0010
,  // measure 50
0100
0100
0001
0010
0100
0100
1000
0010
,  // measure 51
0100
0001
0100
0101
0000
1010
0000
0000
,  // measure 52
1001
1001
0000
1000
0100
0001
0100
1000
,  // measure 53
0010
1000
0100
1001
0000
0010
1000
1000
,  // measure 54
0100
0010
0101
0000
1000
0100
1010
0000
,  // measure 55
0010
1000
0100
0010
0001
0000
1001
0000
,  // measure 56
0200
0000
0000
0000
,  // measure 57
0310
0000
1000
0000
0001
1000
0001
1000
,  // measure 58
0001
0000
0010
0000
0100
0000
0000
0010
0100
1000
0100
0000
0010
0000
0001
0000
,  // measure 59
0100
0000
0001
0000
0010
0000
0000
0001
0100
0010
0100
0000
0001
0000
1000
0000
,  // measure 60
0100
0000
0010
0000
0001
0000
0000
0010
0001
1000
0001
0000
0100
0000
0010
0000
,  // measure 61
1000
0000
0010
0000
0100
0000
0000
0001
1000
0100
1000
0000
0010
0000
0100
0000
,  // measure 62
0101
0000
0010
0000
1000
0000
0000
1000
0100
0010
0100
0000
1000
0000
0001
0000
,  // measure 63
0100
0000
0010
0000
0100
0000
0000
0100
0001
1000
0001
0000
0010
0000
0001
0000
,  // measure 64
0110
0000
1000
0000
0010
0000
0000
0100
0001
0010
0001
0000
1000
0000
0100
0000
,  // measure 65
0010
0000
0100
1000
0100
0000
0010
0001
0010
0000
0001
1000
0001
0000
1000
0001
,  // measure 66
1000
0000
0000
0000
0010
0000
0000
1000
0010
0000
0000
1000
0010
0000
0000
1000
0010
0000
0000
0000
0100
0000
0000
0001
0100
0000
0000
0001
0100
0000
0000
0001
,  // measure 67
0100
0000
0001
0000
1000
0100
0010
0001
0000
0001
0000
0001
0010
0100
1000
0000
,  // measure 68
0001
0000
0000
0000
0100
0000
0000
0001
0100
0000
0000
0001
0100
0000
0000
0001
0100
0000
0000
0000
0010
0000
0000
1000
0010
0000
0000
1000
0010
0000
0000
1000
,  // measure 69
0010
0000
0100
0000
0001
0010
0000
0100
1000
0100
0000
0010
0001
1000
0000
0001
,  // measure 70
1000
0000
0000
0000
0010
0000
0000
1000
0010
0000
0000
0100
0010
0000
0000
1000
0010
0000
0000
0000
0100
0000
0000
0001
0100
0000
0000
0010
0100
0000
0000
0001
,  // measure 71
0100
0000
0100
0000
0000
0000
0010
0000
0000
0000
0010
0000
0000
0000
1000
0000
0000
0000
0001
0000
0000
0000
1000
0100
0000
0000
1000
0100
0000
0000
0010
0000
,  // measure 72
0001
0000
0010
0000
0100
0000
0000
0000
0010
0000
0000
0001
0100
0000
0000
0001
0010
0000
0000
0000
0100
0000
0000
0100
1000
0000
0000
1000
0010
0000
0000
0010
,  // measure 73
0100
0000
0001
0000
1000
0000
1100
0000
0010
0000
0001
0000
,  // measure 74
1001
0000
0010
0000
0001
0000
0101
0000
0100
0000
0010
0000
,  // measure 75
1010
0000
0001
0000
1000
0000
0011
0000
0010
0000
0100
0000
,  // measure 76
0110
0000
0000
0100
1000
0000
0000
0100
0001
0000
0000
0100
0010
0000
0000
0010
,  // measure 77
0001
0001
0000
0001
0100
0001
0100
0100
,  // measure 78
0010
0010
0000
0010
0000
0010
1000
1000
,  // measure 79
0100
1100
0000
0001
0010
0010
0001
1000
,  // measure 80
0001
1000
0010
1010
0000
1001
0000
0000
,  // measure 81
0101
0100
0000
0010
1000
1000
0001
0010
,  // measure 82
0001
1001
0000
0011
0000
0010
0001
0001
,  // measure 83
0100
0010
1000
1000
0100
0010
0001
0001
,  // measure 84
0100
0010
0100
1010
0000
1100
0000
0000
,  // measure 85
0101
1001
0000
1000
0100
0010
0100
1000
,  // measure 86
0001
0101
0000
1001
0000
1000
0010
0010
,  // measure 87
0100
0010
0100
0001
0100
0010
1000
1000
,  // measure 88
0100
0010
0001
1001
0000
0011
0000
0000
,  // measure 89
0110
1000
0100
0010
0100
0100
1000
1000
,  // measure 90
0001
0010
0001
0101
0000
0100
0010
1000
,  // measure 91
0010
0010
1100
0000
0010
0010
0101
0000
,  // measure 92
1001
0001
0010
0010
0100
0100
0010
0010
,  // measure 93
0001
0100
0001
0001
1000
0100
1000
1000
,  // measure 94
0010
1000
0010
0100
0001
0001
0010
0000
,  // measure 95
0220
0000
0000
0000
,  // measure 96
0000
0000
0000
0000
,  // measure 97
0330
0000
0000
0000
,  // measure 98
1001
0000
0000
0000
;

//---------------dance-single - ----------------
#NOTES:
     dance-single:
     :
     Medium:
     6:
     0.440,0.568,0.203,0.188,0.000: // measure 1
0000
0000
0000
0000
,  // measure 2
0001
0000
0000
1001
0000
0000
0000
0000
,  // measure 3
1000
0000
0000
1001
0000
0000
0000
0000
,  // measure 4
0010
0000
0000
0110
0000
0000
0000
0000
,  // measure 5
0100
0000
0000
0110
0000
0000
0000
0000
,  // measure 6
0001
0000
0000
0011
0000
0000
0000
0000
,  // measure 7
1000
0000
0000
1100
0000
0000
0000
0000
,  // measure 8
0001
0010
0100
0010
,  // measure 9
0001
0010
0100
0000
,  // measure 10
1000
0100
0010
0100
,  // measure 11
1000
0100
0010
0000
,  // measure 12
0001
0100
0010
0100
,  // measure 13
0001
0100
0010
0000
,  // measure 14
1000
0010
0100
0010
,  // measure 15
1000
0010
0100
0000
,  // measure 16
0000
0001
1000
0100
,  // measure 17
1000
0001
0100
0010
,  // measure 18
1000
0000
0000
1000
0100
0000
0000
0000
,  // measure 19
0010
0100
1000
0001
,  // measure 20
0010
0000
0000
0010
0001
0000
0000
0000
,  // measure 21
1000
0001
0100
0010
,  // measure 22
0100
0000
0000
0010
1000
0000
0000
0000
,  // measure 23
0001
0011
1000
1010
,  // measure 24
0000
1000
0100
0001
,  // measure 25
0100
0010
0001
1000
,  // measure 26
0010
0000
0000
0010
0100
0000
0000
0000
,  // measure 27
0001
0100
0010
1000
,  // measure 28
0100
0000
0000
0100
1000
0000
0000
0000
,  // measure 29
0010
0100
0001
1000
,  // measure 30
0100
0000
0000
0010
0001
0000
0000
0000
,  // measure 31
0101
0010
1100
0010
,  // measure 32
0001
0001
0101
0010
,  // measure 33
0100
0100
1010
0000
,  // measure 34
1000
1000
1100
0010
,  // measure 35
0100
0100
0011
0000
,  // measure 36
1100
0001
0100
0001
,  // measure 37
1010
0010
1000
0000
,  // measure 38
0101
0001
1000
0001
,  // measure 39
0010
0001
0011
0000
,  // measure 40
0100
1000
0000
0100
0010
0000
0100
0000
,  // measure 41
1000
0100
0000
0010
0000
0100
1000
0000
,  // measure 42
0010
0100
0000
0001
0010
0000
0100
0000
,  // measure 43
0010
0000
0001
0100
0000
0001
0000
0000
,  // measure 44
0010
0001
0000
0010
0100
0000
0010
0000
,  // measure 45
0001
0010
0000
0100
0000
0010
0001
0000
,  // measure 46
0100
0010
0000
1000
0100
0000
0010
0000
,  // measure 47
0100
0000
1000
0010
0000
1000
0000
0000
,  // measure 48
0001
0100
0000
1000
0100
0000
0001
0000
,  // measure 49
0010
1000
0000
0010
0000
0001
1000
0000
,  // measure 50
0010
0000
0001
0010
1000
0000
0100
0000
,  // measure 51
0010
0000
0001
1000
0000
0001
0000
0000
,  // measure 52
1000
0010
0000
0001
0010
0000
1000
0000
,  // measure 53
0100
0000
0001
0100
0000
1000
0100
0000
,  // measure 54
0010
1100
0010
1100
,  // measure 55
0010
0101
0010
0101
,  // measure 56
1001
0000
0000
0000
,  // measure 57
0000
0000
0000
0000
,  // measure 58
0001
0010
0100
0000
0010
0000
0001
0000
,  // measure 59
1000
0010
0100
0010
,  // measure 60
1000
0100
0010
0000
0100
0000
1000
0000
,  // measure 61
0001
0100
0010
1000
,  // measure 62
0001
1000
0010
0000
0100
0000
0001
0000
,  // measure 63
1000
0100
0010
0100
,  // measure 64
1000
0010
0100
0000
0001
0000
1000
0001
,  // measure 65
1000
0000
0001
1000
0001
0000
0010
0000
,  // measure 66
0200
0300
0020
0032
,  // measure 67
2003
0000
0000
3000
0000
0000
0000
0000
,  // measure 68
0002
0003
0200
0320
,  // measure 69
2030
0000
0000
3000
0000
0000
0000
0000
,  // measure 70
0002
0003
0020
0230
,  // measure 71
2300
0000
0000
3000
0000
0000
0000
0000
,  // measure 72
0200
0300
0020
0032
,  // measure 73
2003
0000
3020
0000
,  // measure 74
0032
0000
2003
0000
,  // measure 75
3200
0000
0320
0000
,  // measure 76
2030
0000
3000
0000
,  // measure 77
1001
0000
0000
0000
,  // measure 78
0010
0000
0000
0000
,  // measure 79
0001
0100
0000
0001
0010
0000
0001
0000
,  // measure 80
1000
0000
0100
0010
0000
0100
0000
0000
,  // measure 81
1000
0100
0000
0100
1000
0000
0010
0000
,  // measure 82
0100
0001
0000
0100
0000
0001
1000
0000
,  // measure 83
0001
0010
0000
0010
0001
0000
1000
0000
,  // measure 84
0010
1000
0000
0010
0000
0100
0000
0000
,  // measure 85
0001
0010
0000
0100
0010
0000
0001
0000
,  // measure 86
1000
0010
0000
0100
0000
0010
1000
0000
,  // measure 87
0001
0010
0100
0000
0100
0010
0001
0000
,  // measure 88
1000
0000
0001
0100
0000
0100
0000
0000
,  // measure 89
0010
1000
0000
0010
0100
0000
0001
0000
,  // measure 90
1000
0100
0000
0010
0000
0100
1000
0000
,  // measure 91
0100
1000
0010
0000
0010
1000
0100
0000
,  // measure 92
0010
0001
1000
0001
,  // measure 93
0100
0001
0010
0000
0010
0001
0100
0000
,  // measure 94
0010
0100
0010
0100
0010
0000
0110
0000
,  // measure 95
2002
0000
0000
0000
,  // measure 96
0000
0000
0000
0000
,  // measure 97
3003
0000
0000
0000
,  // measure 98
0100
0000
0000
0000
;

//---------------dance-single - ----------------
#NOTES:
     dance-single:
     :
     Beginner:
     2:
     0.127,0.220,0.023,0.039,0.000: // measure 1
0000
0000
0000
0000
,  // measure 2
0000
0000
0000
0000
,  // measure 3
0000
0000
0000
0000
,  // measure 4
0000
0000
0000
0000
,  // measure 5
0000
0000
0000
0000
,  // measure 6
0000
0000
0000
0000
,  // measure 7
0000
0000
0000
0000
,  // measure 8
0001
0000
0000
0000
,  // measure 9
0000
0000
0000
0000
,  // measure 10
1000
0000
0000
0000
,  // measure 11
0000
0000
0000
0000
,  // measure 12
0200
0000
0000
0000
,  // measure 13
0000
0000
0000
0000
,  // measure 14
0300
0000
0000
0000
,  // measure 15
0010
0010
0010
0010
,  // measure 16
0010
0000
0000
0000
,  // measure 17
0001
0000
0000
0000
,  // measure 18
1000
0000
0000
0000
,  // measure 19
0001
0000
0000
0000
,  // measure 20
0100
0000
0000
0000
,  // measure 21
0010
0000
0000
0000
,  // measure 22
0100
0000
0000
0000
,  // measure 23
0010
0000
0000
0000
,  // measure 24
1000
0000
0000
0000
,  // measure 25
0001
0000
0000
0000
,  // measure 26
0010
0000
0000
0000
,  // measure 27
0100
0000
0000
0000
,  // measure 28
1000
0000
0000
0000
,  // measure 29
0010
0000
0000
0000
,  // measure 30
0100
0000
0000
0000
,  // measure 31
0001
0000
0000
0000
,  // measure 32
1000
0000
1000
0000
,  // measure 33
1000
0000
0000
0000
,  // measure 34
0001
0000
0001
0000
,  // measure 35
0001
0000
0000
0000
,  // measure 36
0100
0000
0100
0000
,  // measure 37
0100
0000
0000
0000
,  // measure 38
0010
0000
0000
0000
,  // measure 39
0000
0000
0000
0000
,  // measure 40
0010
0010
0010
0000
,  // measure 41
0000
0000
0000
0000
,  // measure 42
1000
1000
1000
0000
,  // measure 43
0000
0000
0000
0000
,  // measure 44
0001
0001
0001
0000
,  // measure 45
0000
0000
0000
0000
,  // measure 46
0100
0100
0100
0000
,  // measure 47
0000
0000
0000
0000
,  // measure 48
0001
0001
0001
0000
,  // measure 49
0000
0000
0000
0000
,  // measure 50
1000
1000
1000
0000
,  // measure 51
0000
0000
0000
0000
,  // measure 52
0100
0100
0100
0000
,  // measure 53
0000
0000
0000
0000
,  // measure 54
0010
0000
0110
0000
,  // measure 55
0100
0000
0110
0000
,  // measure 56
0110
0000
0000
0000
,  // measure 57
0000
0000
0000
0000
,  // measure 58
0001
0000
0100
0000
,  // measure 59
0010
0000
1000
0000
,  // measure 60
0100
0000
0010
0000
,  // measure 61
0001
0000
1000
0000
,  // measure 62
0001
0000
0100
0000
,  // measure 63
0010
0000
1000
0000
,  // measure 64
0010
0000
0100
0000
,  // measure 65
0001
0000
1000
0000
,  // measure 66
0002
0000
0000
0000
,  // measure 67
0003
0000
0000
0000
,  // measure 68
2000
0000
0000
0000
,  // measure 69
3000
0000
0000
0000
,  // measure 70
0200
0000
0000
0000
,  // measure 71
0300
0000
0000
0000
,  // measure 72
0010
0000
0010
0010
,  // measure 73
0020
0000
0000
0000
,  // measure 74
0000
0000
0000
0000
,  // measure 75
0000
0000
0000
0000
,  // measure 76
0030
0000
0000
0000
,  // measure 77
0000
0000
0000
0000
,  // measure 78
0000
0000
0000
0000
,  // measure 79
1000
0000
0000
0000
,  // measure 80
0100
0000
0000
0000
,  // measure 81
0010
0000
0000
0000
,  // measure 82
0001
0000
0000
0000
,  // measure 83
0100
0000
0000
0000
,  // measure 84
0010
0000
0000
0000
,  // measure 85
1000
0000
0100
0000
,  // measure 86
0010
0000
0000
0000
,  // measure 87
0100
0000
0010
0000
,  // measure 88
0001
0000
0000
0000
,  // measure 89
0001
0000
0100
0000
,  // measure 90
0010
0000
0000
0000
,  // measure 91
0100
0000
0010
0000
,  // measure 92
1000
0000
0100
0000
,  // measure 93
0010
0000
0001
0000
,  // measure 94
1000
0000
0001
0000
,  // measure 95
0100
0000
0000
0000
;

//---------------dance-single - ----------------
#NOTES:
     dance-single:
     :
     Easy:
     4:
     0.317,0.404,0.016,0.102,0.000: // measure 1
0000
0000
0000
0000
,  // measure 2
0001
0000
0001
0000
,  // measure 3
1000
0000
1000
0000
,  // measure 4
0010
0000
0010
0000
,  // measure 5
0100
0000
0100
0000
,  // measure 6
0001
0000
1000
0000
,  // measure 7
0100
0000
0010
0000
,  // measure 8
0001
0000
0000
0000
,  // measure 9
0001
0000
0000
0000
,  // measure 10
1000
0000
0000
0000
,  // measure 11
1000
0000
0000
0000
,  // measure 12
0010
0000
0000
0000
,  // measure 13
0010
0000
0000
0000
,  // measure 14
0100
0000
0000
0000
,  // measure 15
0100
0000
0000
0000
,  // measure 16
0001
0100
0001
0000
,  // measure 17
0010
0000
0100
0000
,  // measure 18
0010
0001
0100
0000
,  // measure 19
0010
0000
1000
0000
,  // measure 20
0100
1000
0010
0000
,  // measure 21
0100
0000
0010
0000
,  // measure 22
1000
0100
0010
0000
,  // measure 23
0100
0000
1000
0000
,  // measure 24
0001
0100
1000
0000
,  // measure 25
0100
0000
0010
0000
,  // measure 26
1000
0100
0001
0000
,  // measure 27
0100
0000
0010
0000
,  // measure 28
0001
0010
1000
0000
,  // measure 29
0010
0000
0100
0000
,  // measure 30
1000
0010
0001
0000
,  // measure 31
0001
0010
1000
0000
,  // measure 32
0001
0001
0010
0000
,  // measure 33
0010
0010
0001
0000
,  // measure 34
1000
1000
0100
0000
,  // measure 35
0100
0100
1000
0000
,  // measure 36
1000
0010
1000
0000
,  // measure 37
0010
1000
0010
0000
,  // measure 38
0100
0001
0100
0000
,  // measure 39
0001
0100
0001
0000
,  // measure 40
1000
0100
0010
0100
,  // measure 41
1000
0010
0001
0010
,  // measure 42
1000
0100
0010
0100
,  // measure 43
1000
0010
0001
0000
,  // measure 44
0010
0100
0001
0100
,  // measure 45
1000
0100
0001
0100
,  // measure 46
0010
0100
0001
0100
,  // measure 47
1000
0100
0001
0000
,  // measure 48
0010
0001
0100
0001
,  // measure 49
0010
1000
0010
0001
,  // measure 50
0100
0001
0010
0001
,  // measure 51
0100
1000
0100
0000
,  // measure 52
0010
1000
0010
1000
,  // measure 53
0001
0010
0001
0100
,  // measure 54
0001
0001
0010
0010
,  // measure 55
0100
0100
1000
1000
,  // measure 56
2002
0000
0000
0000
,  // measure 57
3003
0000
0000
0000
,  // measure 58
1000
0010
0100
0001
,  // measure 59
1000
0100
0010
0100
,  // measure 60
1000
0001
0010
0100
,  // measure 61
0010
0001
1000
0001
,  // measure 62
0100
0010
0010
1000
,  // measure 63
0001
0010
0100
0010
,  // measure 64
0001
1000
0001
0100
,  // measure 65
0001
0010
0001
0001
,  // measure 66
0002
0103
2000
3100
,  // measure 67
0002
0003
0000
0000
,  // measure 68
2000
3010
0002
0013
,  // measure 69
2000
3000
0000
0000
,  // measure 70
0002
0103
2000
3100
,  // measure 71
0002
0003
0000
0000
,  // measure 72
2000
3010
0002
0013
,  // measure 73
1000
0000
0100
0000
,  // measure 74
0010
0000
0001
0000
,  // measure 75
1000
0000
0010
0000
,  // measure 76
0100
0000
0000
0000
,  // measure 77
0001
0000
0000
0000
,  // measure 78
1000
0000
0000
0000
,  // measure 79
0001
0010
0100
0010
,  // measure 80
0001
1000
0010
0000
,  // measure 81
1000
0010
0001
0010
,  // measure 82
1000
0100
0001
0100
,  // measure 83
1000
0010
0100
0001
,  // measure 84
1000
0100
0010
0000
,  // measure 85
0100
1000
0010
0100
,  // measure 86
0010
1000
0100
0010
,  // measure 87
0100
1000
0010
0100
,  // measure 88
0010
1000
0100
0000
,  // measure 89
0010
0001
0100
0010
,  // measure 90
0100
0001
0010
0100
,  // measure 91
0010
0001
0100
0010
,  // measure 92
1000
0001
0010
0100
,  // measure 93
0010
0010
0001
0001
,  // measure 94
1000
0001
1000
0001
,  // measure 95
1001
0000
0000
0000
;
