#TITLE:Caramelldansen;
#SUBTITLE:;
#ARTIST:Caramell;
#TITLETRANSLIT:;
#SUBTITLETRANSLIT:;
#ARTISTTRANSLIT:;
#GENRE:;
#CREDIT:;
#BANNER:Caramelldansen-bn.png;
#BACKGROUND:Caramelldansen-bg.png;
#LYRICSPATH:;
#CDTITLE:;
#MUSIC:Caramelldansen.mp3;
#OFFSET:0.020;
#SAMPLESTART:49.530;
#SAMPLELENGTH:13.160;
#SELECTABLE:YES;
#BPMS:0.000=164.750
;
#STOPS:
;
#BGCHANGES:;
#KEYSOUNDS:;
#ATTACKS:;

//---------------dance-single - Rygon----------------
#NOTES:
     dance-single:
     Rygon:
     Hard:
     8:
     0.540,0.487,0.155,0.495,0.073,323.000,16.000,51.000,0.000,0.000,0.000,0.540,0.487,0.155,0.495,0.073,323.000,16.000,51.000,0.000,0.000,0.000:
0000
0000
0000
0000
,
0000
0000
0000
0000
,
0000
0000
0000
0000
,
0000
0000
0000
0000
,
0000
0000
0000
0000
0000
0000
0000
2000
,
0002
0000
3000
0000
0000
0100
0000
0103
,
0000
0200
0020
0000
0000
0300
0000
2030
,
0000
3200
0000
0320
0000
0031
0100
0020
,
0000
0000
1000
0000
0100
0000
0130
0010
,
2001
0010
0000
0010
,
0000
0000
0010
3000
0000
0010
1001
0000
,
1000
0000
0000
0001
0000
0000
0010
0000
0000
0100
0000
0000
0010
0000
0001
0000
,
0100
0000
0000
0010
0000
0000
1000
0000
0000
0001
0000
0000
1000
0000
0100
0000
,
0001
0000
0000
0100
0000
0000
1000
0000
0000
0001
0000
0000
0100
0000
0010
0000
,
0100
0000
0000
0001
0000
0000
0010
0000
0000
0100
0000
0000
1000
0000
0010
0000
,
0100
0000
0000
0010
0000
0000
0001
0000
0000
0010
0000
0000
1000
0000
0001
0000
,
0010
0000
0000
1000
0000
0000
0010
0000
0000
0001
0000
0000
1000
0000
0001
0000
,
0100
0000
0000
0010
0000
0000
0100
0000
0000
0001
0000
0000
0010
0000
0100
0000
,
0020
0000
0000
0000
0030
0001
1001
0000
,
1000
0000
0001
0100
0020
0000
0130
0000
,
0100
0002
0000
2003
0000
0000
3001
0000
,
1000
0000
0001
0100
0020
0000
1030
0000
,
0100
0020
0000
0032
0000
0000
1003
0000
,
0001
0000
0010
0200
0000
0000
1000
0000
,
2300
0000
3002
0100
0000
0103
0001
0100
,
0010
0000
0100
0001
0000
0010
0100
0000
,
0110
0000
0010
0002
0000
0000
1003
0000
,
0001
0100
0010
1000
0100
0000
0010
0000
,
0001
2000
0000
3010
0000
0000
0110
0000
,
0010
0100
0001
1000
0100
0000
0010
0000
,
0100
2000
0000
3001
0000
0000
1001
0000
,
1000
0100
0010
0002
0000
0000
0100
0000
,
0203
0000
0320
0100
0000
0130
0010
1000
,
0002
0100
0010
1000
,
0103
0010
0110
1001
,
1000
0000
0100
0010
0001
0000
0100
0010
,
0000
0010
0100
0001
0020
0000
0230
0000
,
1300
0000
0001
0100
0010
0000
0100
0001
,
0000
0001
0010
0100
2000
0000
3002
0000
,
0103
0000
0010
0100
1000
0000
0100
0001
,
0000
0001
0010
0100
0020
0000
0032
0000
,
0103
0000
0010
1000
0100
0000
0001
0100
,
0000
0100
1000
0000
0110
0000
1001
0000
,
1000
0000
1000
0000
0001
0100
0010
0200
,
0000
0010
0000
0310
0000
0010
0110
0000
,
0100
0000
0100
0000
0100
0001
1000
0200
,
0000
0310
0100
0020
0000
0000
0031
0000
,
1000
0000
1000
0000
0001
0010
0100
2000
,
0000
0010
0000
3010
0000
0010
0110
0000
,
0100
0000
0100
0000
0100
0001
0010
0200
,
0000
0000
1300
0000
0001
0000
0000
1000
0001
0000
0100
0000
0010
0000
0100
0000
,
0001
0000
1000
0100
0001
0000
0100
0010
,
0000
0010
0100
1000
0002
0000
2003
0000
,
3001
0000
0100
0010
0001
0000
0010
0100
,
0000
0100
0010
1000
0200
0000
0302
0000
,
0103
0000
1000
0001
0100
0000
0010
1000
,
0000
1000
0100
0010
0002
0000
2003
0000
,
3010
0000
0010
0100
0001
0000
0001
1000
,
0000
1000
0100
0000
0110
0000
1001
0000
,
1000
0001
1000
0100
0010
0001
0100
0010
,
0000
0010
0100
0001
0020
0000
0230
0000
,
0310
0001
0100
0010
0100
0001
1000
0100
,
0000
0010
0100
1000
0002
0000
2003
0000
,
3010
0100
0001
0010
0100
0001
0100
0010
,
0000
0010
0100
1000
0020
0000
0230
0000
,
1300
0100
0001
0010
1000
0010
0001
0100
,
0000
0100
0010
0000
0110
0000
2002
0000
,
3003
0000
0000
0000
;

//---------------dance-single - Blank----------------
#NOTES:
     dance-single:
     :
     Medium:
     5:
     0.424,0.390,0.233,0.553,0.000,225.000,24.000,57.000,0.000,0.000,0.000,0.424,0.390,0.233,0.553,0.000,225.000,24.000,57.000,0.000,0.000,0.000:
0000
0000
0000
0000
,
0000
0000
0000
0000
,
0000
0000
0000
0000
,
0000
0000
0000
0000
,
0000
0000
0000
0000
,
2001
0000
0000
0000
0000
0010
0000
0010
,
0000
3020
0000
0000
0000
0000
0000
0230
,
0000
0302
0000
2003
0000
3100
2000
0000
,
0002
0000
0000
3003
,
2001
0010
0000
0010
,
0000
3010
0000
1001
,
1000
1000
0001
0001
,
0200
0010
0320
0100
,
0130
0001
1000
0100
,
0020
0100
0230
0010
,
0310
0001
0100
0010
,
2000
0001
3002
1000
,
1003
0100
0010
0001
,
1000
0001
1000
0000
0020
0000
0100
0000
,
0130
0001
1000
0100
,
0020
0000
0000
0001
0000
0000
0031
0000
,
0001
0100
0010
1000
,
0200
0000
0000
1000
0000
0000
1300
0000
,
1000
0001
0100
0010
,
0200
0302
2003
3002
,
1003
0100
0010
0001
,
0200
0000
0000
0010
0000
0000
0310
0000
,
1000
0001
0010
0100
,
2000
0001
0000
0001
3000
0000
0000
0000
,
0001
0100
0010
1000
,
0200
0010
0000
0010
0300
0000
0000
0000
,
0010
0001
0100
0010
,
0200
0302
2003
3200
,
0310
0100
1000
0001
,
2000
0001
0001
3001
,
1000
0000
0100
0000
0110
0000
0000
0020
,
0000
0001
0032
2003
,
3001
0000
0100
0000
0110
0000
0000
0020
,
0000
1000
2030
3002
,
1003
0000
0010
0000
0110
0000
0000
0200
,
0000
0001
0302
2003
,
3001
0000
0010
0000
0110
0000
0000
0200
,
0000
1000
2300
3002
,
1003
0000
1000
0000
0002
0000
0000
0203
,
0000
0310
0000
0010
0000
0010
0100
0000
,
0001
0000
0001
0000
2000
0000
0000
3100
,
0000
0010
0010
0100
,
1000
0000
1000
0000
0002
0000
0000
0023
,
0000
0130
0000
0100
0000
0100
0010
0000
,
0001
0000
0001
0000
2000
0000
0000
3010
,
0000
0100
0100
0010
,
1000
0000
0001
0000
0101
0000
0000
0200
,
0000
0310
0110
0100
,
0001
0000
1000
0000
1100
0000
0000
0200
,
0000
0310
0110
0100
,
1000
0000
0001
0000
0011
0000
0000
0020
,
0000
0130
0110
0010
,
0001
0000
1000
0000
1010
0000
0000
0020
,
0000
0130
0110
1001
,
1000
0000
0001
1000
0001
0000
0000
0200
,
0000
0310
0110
1001
,
0001
0000
1000
0001
1000
0000
0000
0200
,
0000
0310
0110
1001
,
1000
0000
0001
1000
0001
0000
0000
0020
,
0000
0130
0110
1001
,
0001
0000
1000
0001
1000
0000
0000
0020
,
0000
0130
0110
2002
,
3003
0000
0000
0000
;

//---------------dance-single - Blank----------------
#NOTES:
     dance-single:
     :
     Easy:
     3:
     0.226,0.227,0.136,0.078,0.000,141.000,14.000,8.000,0.000,0.000,0.000,0.226,0.227,0.136,0.078,0.000,141.000,14.000,8.000,0.000,0.000,0.000:
0000
0000
0000
0000
,
0000
0000
0000
0000
,
0000
0000
0000
0000
,
0000
0000
0000
0000
,
0000
0000
0000
0000
,
2000
0000
0000
0000
0000
3020
0000
0000
,
0000
0000
0000
0000
0030
0000
0000
0200
,
0000
0000
0000
0000
0000
0000
0000
0302
,
0000
0000
0003
0000
,
0000
1000
0000
1000
,
0000
0001
0000
0001
,
0100
0000
0100
0000
,
0010
0000
0010
0000
,
1000
1000
0001
0000
,
0001
0001
1000
0000
,
0010
0000
0010
0000
,
0100
0000
0100
0000
,
0001
0001
1000
0000
,
1000
1000
0001
0000
,
1000
0000
0100
0000
,
0010
0000
0000
0001
0000
0000
0000
0000
,
0001
0000
0100
0000
,
0010
0000
0000
1000
0000
0000
0000
0000
,
1000
0000
0001
0000
,
0100
0000
0010
0010
,
0010
0000
0000
1000
0000
0000
0000
0000
,
1000
0000
0000
0001
0000
0000
0000
0000
,
1000
1000
0100
0000
,
0010
0000
0010
0000
,
0001
0001
0100
0000
,
0010
0000
0010
0000
,
1000
1000
0001
0000
,
0001
0001
1000
0000
,
0100
0000
0010
0000
,
0000
0100
0100
0100
,
0100
0000
1000
0000
,
1001
0000
1001
0000
,
0001
0000
0100
0000
,
0110
0000
0110
0000
,
0010
0010
1000
0000
,
0100
0000
0010
0000
,
0001
0001
1000
0000
,
0001
1000
0001
1000
,
0001
0000
0001
0000
,
0200
0000
0300
0000
,
0010
0000
0010
0000
,
2000
0000
3000
0000
,
0100
0000
0100
0000
,
0020
0000
0030
0000
,
0001
0000
0001
0000
,
0000
1000
1000
1000
,
1000
0000
0001
0000
,
1001
0000
1001
0000
,
0001
0000
1000
0000
,
1001
0000
1001
0000
,
1000
1000
0100
0000
,
0010
0000
0010
0000
,
0001
0001
0100
0000
,
0010
0100
0010
0100
,
0010
0000
1000
0000
,
1001
0000
0110
0000
,
0010
0010
0100
0000
,
1001
0000
0110
0000
,
0010
0010
0001
0000
,
1001
0000
0110
0000
,
0010
1000
0010
0000
,
0100
0010
0100
0020
,
0030
0000
0000
0000
;

//---------------dance-single - Blank----------------
#NOTES:
     dance-single:
     :
     Beginner:
     1:
     0.119,0.130,0.058,0.039,0.000,76.000,6.000,4.000,0.000,0.000,0.000,0.119,0.130,0.058,0.039,0.000,76.000,6.000,4.000,0.000,0.000,0.000:
0000
0000
0000
0000
,
0000
0000
0000
0000
,
0000
0000
0000
0000
,
0000
0000
0000
0000
,
0000
0000
0000
0000
,
0020
0000
0030
0000
,
0000
0000
0000
0000
,
0200
0000
0300
0000
,
0000
0000
0000
0000
,
0001
0000
0000
0000
,
1000
0000
0000
0000
,
1000
0000
1000
0000
,
0000
0000
0000
0000
,
0001
0000
0001
0000
,
0000
0000
0000
0000
,
0100
0000
0100
0000
,
0000
0000
0000
0000
,
0010
0000
0010
0000
,
0020
0000
0030
0000
,
0010
0000
0000
0000
,
1000
0000
0000
0000
,
0100
0000
0000
0000
,
0010
0000
0000
0000
,
0001
0000
0000
0000
,
1000
0000
0000
0000
,
0010
0000
0010
0000
,
0100
0000
0100
0000
,
0001
0000
0000
0000
,
1000
0000
0000
0000
,
0100
0000
0000
0000
,
0010
0000
0000
0000
,
0100
0000
0000
0000
,
1000
0000
0000
0000
,
1001
0000
0000
0000
,
1001
0000
0000
0000
,
1000
0000
1000
0000
,
0001
0000
0000
0000
,
0001
0000
0001
0000
,
1000
0000
0000
0000
,
0010
0000
0010
0000
,
0100
0000
0000
0000
,
0100
0000
0100
0000
,
0010
0000
0000
0000
,
1001
0000
0000
0000
,
0100
0000
0000
0000
,
1001
0000
0000
0000
,
0100
0000
0000
0000
,
1001
0000
0000
0000
,
0010
0000
0000
0000
,
1001
0000
0000
0000
,
0010
0000
0000
0000
,
1000
0000
1000
0000
,
0001
0000
0000
0000
,
0001
0000
0001
0000
,
1000
0000
0000
0000
,
0010
0000
0010
0000
,
0100
0000
0000
0000
,
0100
0000
0100
0000
,
0010
0000
0000
0000
,
1000
0000
1000
0000
,
0001
0000
0000
0000
,
0001
0000
0001
0000
,
1000
0000
0000
0000
,
0010
0000
0010
0000
,
0100
0000
0000
0000
,
0100
0000
0100
0000
,
0010
0000
0020
0000
,
0030
0000
0000
0000
;
