#TITLE:Boom Boom Pow;
#SUBTITLE:;
#ARTIST:Cast of The Kitchen Musical;
#TITLETRANSLIT:;
#SUBTITLETRANSLIT:;
#ARTISTTRANSLIT:;
#CREDIT:348;
#BANNER:Boom Boom Pow Banner.png;
#BACKGROUND:Boom Boom Pow Background.png;
#LYRICSPATH:Boom Boom Pow.lrc;
#CDTITLE:;
#MUSIC:Boom Boom Pow.ogg;
#OFFSET:-0.104;
#SAMPLESTART:9.335;
#SAMPLELENGTH:15.000;
#SELECTABLE:YES;
#BPMS:0.000=130.000;
#STOPS:;
#BGCHANGES:;

//---------------dance-single - ----------------
#NOTES:
     dance-single:
     :
     Beginner:
     1:
     0.077,0.107,0.000,0.000,0.000:
0000
0000
0000
0000
,
0000
0000
0000
0000
,
0000
0000
0000
0000
,
0000
0000
0000
0000
,
1000
0000
0000
0000
,
0001
0000
0000
0000
,
0001
0000
0000
0000
,
1000
0000
0000
0000
,
1000
0000
0000
0000
,
0010
0000
0000
0000
,
0010
0000
0000
0000
,
0100
0000
0000
0000
,
0100
0000
0000
0000
,
0001
0001
0000
0000
,
1000
1000
0000
0000
,
0010
0000
0000
0000
,
0100
0000
0000
0000
,
0010
0010
0000
0000
,
0100
0100
0000
0000
,
0001
0000
0000
0000
,
1000
0000
0000
0000
,
0001
0000
0000
0000
,
0010
0000
0000
0000
,
0100
0100
0000
0000
,
1000
1000
0000
0000
,
1000
0000
0000
0000
,
0100
0000
0000
0000
,
0010
0010
0000
0000
,
0001
0001
0000
0000
,
1000
0000
0000
0000
,
0100
0000
0000
0000
,
0010
0000
0000
0000
,
0001
0000
0000
0000
,
1000
0000
0000
0000
,
0010
0000
0000
0000
,
0100
0000
0000
0000
,
0001
0000
0000
0000
,
1000
0000
0000
0000
,
0000
0000
0000
0000
,
0001
0000
0000
0000
,
0000
0000
0000
0000
,
0100
0000
0000
0000
,
0000
0000
0000
0000
,
0010
0000
0000
0000
,
0000
0000
0000
0000
,
1000
1000
0000
0000
,
0001
0001
0000
0000
,
1000
0000
0000
0000
,
0010
0000
0000
0000
,
0100
0000
0000
0000
,
0001
0000
0000
0000
,
0100
0000
0000
0000
,
0010
0000
0000
0000
,
1000
0000
0000
0000
,
0001
0000
0000
0000
,
1000
0000
0000
0000
,
0000
0000
0000
0000
,
0001
0000
0000
0000
,
0000
0000
0000
0000
,
0100
0000
0000
0000
,
0010
0000
0000
0000
,
0100
0000
0000
0000
,
0010
0000
0000
0000
,
1000
0000
0000
0000
,
0001
0000
0000
0000
,
1000
0000
0000
0000
,
0001
0000
0000
0000
;

//---------------dance-single - ----------------
#NOTES:
     dance-single:
     :
     Easy:
     4:
     0.278,0.325,0.250,0.113,0.000:
0000
0000
0000
0000
,
0000
0000
0000
0000
,
0000
0000
0000
0000
,
0000
0000
0000
0000
,
1000
0000
0001
0000
,
1000
1000
1000
0000
,
0100
0100
0100
0000
,
0010
0010
0010
0000
,
0001
0001
0001
0000
,
0100
0100
0100
0000
,
0001
0001
0001
0000
,
1000
1000
1000
0000
,
0010
0010
0010
0000
,
1000
0100
2000
0000
,
3001
0010
0002
0000
,
1003
0100
1100
0000
,
0001
0010
0011
0000
,
0100
0001
0200
0000
,
0310
1000
0020
0000
,
1030
0010
1010
0000
,
0001
0100
0101
0000
,
1000
1100
0011
0000
,
0001
0101
1010
0000
,
1000
0001
1000
0001
,
0100
0010
0110
0000
,
0010
1010
0011
0000
,
0100
0101
1100
0000
,
0010
0010
0100
0100
,
0001
0001
1000
1000
,
1001
0100
0010
1000
,
1000
0010
0100
0001
,
0001
0010
0100
1000
,
1000
0100
0010
0001
,
1000
0100
1000
0100
,
0010
0001
0010
0001
,
1000
0001
0100
0010
,
0100
0001
1000
0110
,
2000
0000
0000
3000
,
0200
0000
0000
0300
,
0020
0000
0000
0030
,
0002
0000
0000
0003
,
2000
0000
0000
3000
,
0020
0000
0000
0030
,
0200
0000
0000
0300
,
0002
0000
0000
0003
,
1000
0001
1000
0110
,
0010
0100
0010
1001
,
0110
0100
0001
1000
,
0001
1000
0010
0100
,
0001
0010
0100
0010
,
0001
1000
0100
1000
,
0001
0010
0001
1000
,
0100
0010
0100
1000
,
0001
1000
0010
0100
,
0110
0000
1001
0000
,
0110
0000
1000
0100
,
0011
0000
0001
0010
,
1100
0000
1000
0010
,
0101
0000
0001
0100
,
1010
0010
1000
0010
,
0100
0001
0100
0001
,
1000
0001
1000
1001
,
0001
0001
0100
0101
,
1000
1000
0010
1010
,
0010
0010
0100
0100
,
0001
1000
1001
0110
,
2002
0000
0000
0000
,
3003
0000
0000
0000
;

//---------------dance-single - ----------------
#NOTES:
     dance-single:
     :
     Medium:
     6:
     0.385,0.406,0.541,0.145,0.000:
0000
0000
0000
0000
,
0000
0000
0000
0000
,
0000
0000
0000
0000
,
0000
0000
0000
0000
,
1001
0000
0000
0110
0000
0110
0000
0000
,
1000
0000
0100
0000
1100
0000
0001
0010
,
0001
0000
0010
0000
0011
0000
1000
0100
,
1000
0000
0010
0000
1010
0000
0001
0100
,
0001
0100
0101
1000
,
1000
0000
0001
0000
0011
0000
0001
1000
,
0001
0000
1000
0000
1100
0000
0010
0100
,
0010
0000
1000
0000
0101
0000
0100
0010
,
0100
0000
0001
0000
1010
0000
0001
1000
,
0001
0000
0001
1000
0000
2000
0000
0000
,
3010
0000
0010
0100
0000
0200
0000
0000
,
0301
0000
0000
0011
0000
0101
0000
0000
,
1000
0000
0000
1100
0000
1010
0000
0000
,
0010
0000
1000
2000
0000
3001
0000
0000
,
0001
0000
0100
0200
0000
0310
0000
0000
,
0100
0000
0000
0101
0000
0011
0000
0000
,
0010
0000
0000
1100
0000
1010
0000
0000
,
1000
0001
0010
1100
,
0001
1000
0010
0101
,
1000
0000
0001
0100
0001
0000
1010
0000
,
0001
0000
1000
0100
1000
0000
0011
0000
,
1000
0000
0000
1100
0000
1001
0000
0000
,
0001
0000
0000
0011
0000
1001
0000
0000
,
0100
0000
0000
0101
0000
0110
0000
0000
,
0010
0000
0000
1010
0000
0110
0000
0000
,
1000
1100
0001
0011
,
0100
0101
0010
1010
,
1000
1001
0001
1001
,
0110
0000
0100
0010
0100
0000
0110
0000
,
0001
1010
0001
1100
,
1000
0011
1000
0101
,
1001
0000
0001
1000
0001
0000
1001
0000
,
0110
0000
0000
0110
0000
0000
0110
0000
,
2000
0010
0000
3001
,
0002
1000
0000
0103
,
0200
0001
0000
0310
,
0020
1000
0000
0130
,
2000
0001
0000
3010
,
0020
1000
0000
0130
,
0200
0010
0000
0301
,
0002
0100
0000
1003
,
1000
0010
1010
0011
,
0001
0100
0101
1100
,
0001
0110
1000
0110
,
0001
0000
1000
0100
1000
0000
0001
0000
,
0100
1001
0010
1001
,
0100
0000
0010
0100
0010
0000
0100
0000
,
0001
1001
0100
0110
,
0001
0000
1000
0001
1000
0000
0001
0000
,
1000
1001
0010
0110
,
1001
0000
0000
1001
0000
0000
1001
0000
,
2000
0001
0100
3001
,
0002
1000
0010
1003
,
0200
0001
0010
0301
,
0020
1000
0100
1030
,
1000
0000
0100
0000
0010
0001
0010
0000
,
0001
0000
0010
0000
0100
1000
0100
0000
,
1000
0000
0010
0100
0010
0000
1000
0000
,
0001
0000
0100
0000
0010
1000
0010
0000
,
1000
0000
0010
0000
0100
0001
0100
0000
,
0001
0000
0100
0010
0100
0000
0001
0000
,
1001
0000
0000
0110
0000
0000
1001
0000
,
2002
0000
0000
0000
,
3003
0000
0000
0000
;

//---------------dance-single - ----------------
#NOTES:
     dance-single:
     :
     Hard:
     7:
     0.436,0.433,0.170,0.186,0.121: // measure 1
0000
0000
0000
0000
,  // measure 2
0000
0000
0000
0000
,  // measure 3
0000
0000
0000
0000
,  // measure 4
0000
0000
0000
0000
,  // measure 5
1000
0000
0000
0001
0000
0000
1000
0000
0000
0000
0001
0000
1000
0000
0000
0000
,  // measure 6
0001
0000
0000
0001
0000
0000
0002
0000
0000
0000
1000
0000
0000
0000
1003
0000
,  // measure 7
0010
0000
0000
0010
0000
0000
0010
0000
0000
0000
1000
0000
0001
0000
0000
0000
,  // measure 8
1000
0000
0000
1000
0000
0000
2000
0000
0000
0000
0001
0000
0000
0000
3001
0000
,  // measure 9
0100
0000
0000
0100
0000
0000
0100
0000
0000
0000
0010
0000
0100
0000
0000
0000
,  // measure 10
0001
0000
0000
0010
0000
0000
0002
0000
0000
0000
0103
0000
0001
0000
0000
0000
,  // measure 11
1000
0000
0000
0010
0000
0000
1000
0000
0000
0000
0001
0000
0010
0000
0001
0000
,  // measure 12
1000
0000
0000
0100
0000
0000
2000
0000
0000
0000
3010
0000
1000
0000
0000
0000
,  // measure 13
0001
0000
0000
0100
0000
0000
0001
0000
0000
0000
1000
0000
0100
0000
1000
0000
,  // measure 14
0001
0000
0000
0001
0000
0000
0001
0000
0000
0000
1001
0000
0000
0000
0000
0000
,  // measure 15
1000
0000
0000
1000
0000
0000
1000
0000
0000
0000
1001
0000
0000
0000
0000
0000
,  // measure 16
0100
0000
0000
0010
0000
0000
0100
0000
0000
0000
0110
0000
0000
0000
0010
0000
,  // measure 17
1000
0000
0000
0001
0000
0000
1000
0000
0000
0000
1001
0000
0000
0000
0001
0000
,  // measure 18
0100
0000
0000
0100
0000
0000
0100
0000
0000
0000
0110
0000
0000
0000
0000
0000
,  // measure 19
0010
0000
0000
0010
0000
0000
0010
0000
0000
0000
0110
0000
0000
0000
0000
0000
,  // measure 20
1000
0000
0000
0100
0000
0000
0001
0000
0000
0000
0100
0000
1000
0000
0000
0000
,  // measure 21
0001
0000
0000
0010
0000
0000
1000
0000
0000
0000
0010
0000
0001
0000
1000
0000
,  // measure 22
0001
0000
0000
0010
0000
0000
0001
0000
0000
0000
1000
0000
0100
0000
0000
0000
,  // measure 23
1000
0000
0000
0100
0000
0000
1000
0000
0000
0000
0001
0000
0010
0000
0000
0000
,  // measure 24
0001
0000
0000
0010
0000
0000
0100
0000
1000
0000
0100
0000
0010
0000
0001
0000
,  // measure 25
1000
0000
0000
0010
0000
0000
0100
0000
0000
0000
0001
0000
1000
0000
0000
0000
,  // measure 26
0001
0100
0010
0200
0000
0301
1000
0000
,  // measure 27
1000
0100
0010
0200
0000
1300
0001
0000
,  // measure 28
1000
0000
0000
0001
0000
0000
2000
0000
0000
0000
0001
0000
3001
0000
0000
0000
,  // measure 29
0001
0000
0000
1000
0000
0000
0002
0000
0000
0000
1000
0000
1003
0000
0000
0000
,  // measure 30
1000
0100
0010
0000
0001
0010
0100
0000
,  // measure 31
1000
0010
0100
0010
1000
0001
1000
0000
,  // measure 32
0001
0100
0010
0000
1000
0010
0100
0000
,  // measure 33
0001
1000
0001
0100
0010
1000
0001
0000
,  // measure 34
1100
0000
0001
0010
0100
0010
0001
0000
,  // measure 35
0110
0000
1000
0001
0100
0001
1000
0000
,  // measure 36
0011
0000
1000
0010
0100
0010
1000
0000
,  // measure 37
0010
0000
0000
0100
0000
0000
0110
0000
0000
0010
0000
0000
0100
0000
0000
0000
,  // measure 38
0001
1000
0020
0000
0000
0000
0130
0000
,  // measure 39
0100
0001
1000
0200
0000
0000
1300
0000
,  // measure 40
0001
1000
0002
0000
0000
0000
1003
0000
,  // measure 41
0001
0010
0100
2000
0000
0000
3001
0000
,  // measure 42
1000
0001
2000
0000
0000
0000
3001
0000
,  // measure 43
0001
0100
1000
0200
0000
0000
0301
0000
,  // measure 44
0001
0010
0002
0000
0000
0000
0103
0000
,  // measure 45
0100
0001
1000
0020
0000
0000
1030
0000
,  // measure 46
0001
0010
0100
1000
0010
0100
0001
2000
,  // measure 47
0000
3100
0010
0001
1010
0000
0101
0000
,  // measure 48
1000
0100
0010
0000
0010
0100
1000
0000
,  // measure 49
0001
0010
0100
1000
0011
0000
1001
0000
,  // measure 50
0001
0100
0010
0000
0010
0100
0001
0000
,  // measure 51
1000
0010
0100
0001
1100
0000
1001
0000
,  // measure 52
1000
0001
0010
0000
0100
1000
0001
0000
,  // measure 53
1000
0001
0100
0010
0110
0000
1001
0000
,  // measure 54
0001
1000
0001
0000
0100
0010
0100
0000
,  // measure 55
0001
0000
0000
1000
0000
0000
1001
0000
0000
0000
0001
0000
1000
0000
0000
0000
,  // measure 56
0002
0000
0010
0000
1003
0100
1000
0000
,  // measure 57
0020
0000
0100
0000
1030
0010
1000
0000
,  // measure 58
2000
0000
0010
0000
3001
0010
0001
0000
,  // measure 59
0200
0000
0010
0000
0301
0100
0001
0000
,  // measure 60
1000
0000
0100
0000
1000
0100
0001
0100
,  // measure 61
1000
0000
0010
0000
1000
0010
0001
0010
,  // measure 62
1000
0000
0001
0000
1000
0100
0010
0001
,  // measure 63
0100
0000
0000
0001
0000
0000
0100
0000
0010
0000
0100
0000
0010
0000
0000
0000
,  // measure 64
0010
0000
0000
1000
0000
0000
0010
0000
0100
0000
0010
0000
0100
0000
0000
0000
,  // measure 65
0001
0000
1000
0000
0001
1000
0001
0000
,  // measure 66
1000
0000
0000
0010
0000
0000
0110
0000
0000
0100
0000
0000
0001
0000
0000
0000
,  // measure 67
2002
0000
0000
0000
,  // measure 68
3003
0000
0000
0000
;

//---------------dance-single - ----------------
#NOTES:
     dance-single:
     :
     Challenge:
     8:
     0.547,0.514,0.428,0.161,0.198: // measure 1
0000
0000
0000
0000
,  // measure 2
0000
0000
0000
0000
,  // measure 3
0000
0000
0000
0000
,  // measure 4
0000
0000
0000
0000
,  // measure 5
1000
0000
0000
0001
0000
0000
1001
0000
0000
0000
0110
0000
0110
0000
0000
0000
,  // measure 6
1000
0000
0000
0100
0000
0000
1100
0000
0000
0000
0001
0000
1000
0000
0001
0000
,  // measure 7
0100
0000
0000
0001
0100
0000
0101
0000
0000
0000
1000
0000
0001
0000
0000
0000
,  // measure 8
0001
0000
0000
0010
0000
0000
0011
0000
0000
0000
1000
0000
0001
0000
1000
0000
,  // measure 9
0010
0000
0000
1000
0010
0000
1010
0000
0000
0000
0001
0000
1000
0000
0000
0000
,  // measure 10
0001
0000
0000
0010
0000
0000
1100
0000
0000
0000
0010
0000
0100
0000
0010
0000
,  // measure 11
1000
0000
0000
0001
0100
0000
1010
0000
0000
0000
0100
0000
0001
0000
0000
0000
,  // measure 12
1000
0000
0000
0100
0000
0000
0011
0000
0000
0000
0100
0000
0010
0000
0100
0000
,  // measure 13
0001
0000
0000
1000
0010
0000
0101
0000
0000
0000
1000
0000
0010
0000
1000
0000
,  // measure 14
0002
0000
0000
0013
0000
0000
0011
0000
0000
0000
1000
0000
0100
0000
1000
0000
,  // measure 15
0200
0000
0000
1300
0000
0000
1100
0000
0000
0000
0001
0000
0100
0000
0010
0000
,  // measure 16
1000
0000
0000
0001
0000
0000
1001
0000
0000
0000
1000
0000
0001
0000
0000
0000
,  // measure 17
0100
0000
0000
0010
0000
0000
0110
0000
0000
0000
0100
0000
0010
0000
0000
0000
,  // measure 18
2000
0000
0000
3100
0000
0000
1100
0000
0000
0000
0001
0000
0010
0000
0001
0000
,  // measure 19
0020
0000
0000
0031
0000
0000
0011
0000
0000
0000
1000
0000
0010
0000
0100
0000
,  // measure 20
0002
0000
0000
0103
0000
0000
0101
0000
0000
0000
0100
0000
0001
0000
0000
0000
,  // measure 21
2000
0000
0000
3010
0000
0000
1010
0000
0000
0000
0010
0000
1000
0000
0001
0000
,  // measure 22
0100
0000
0000
0010
0000
0000
0110
0000
0000
0000
0100
0000
0001
0000
0100
0000
,  // measure 23
0010
0000
0000
0100
0000
0000
0110
0000
0000
0000
1000
0000
0001
0000
0100
0000
,  // measure 24
0001
0000
1000
0001
0000
0000
0010
0000
1000
0000
0010
0000
0001
0000
1000
0000
,  // measure 25
0010
0000
0100
0010
0000
0000
0110
0000
0000
0000
1000
0000
0100
0000
0001
0000
,  // measure 26
0100
0000
0000
1000
0100
0000
2000
0000
0000
0000
0001
0000
3001
0000
0000
0000
,  // measure 27
0010
0000
0000
0001
0010
0000
0002
0000
0000
0000
1000
0000
1000
0000
0000
0000
,  // measure 28
0203
0000
0000
0301
0000
0000
0101
0000
0000
0000
1000
0000
0001
0000
0100
0000
,  // measure 29
0020
0000
0000
1030
0000
0000
1010
0000
0000
0000
0001
0000
1000
0000
0001
0000
,  // measure 30
1000
0100
0001
0100
1000
0100
0001
0100
,  // measure 31
1000
0010
0001
0010
1000
0010
0001
0010
,  // measure 32
1000
0100
0010
0100
1000
0001
0010
0100
,  // measure 33
0010
0001
1000
0001
0100
0010
1001
0000
,  // measure 34
0001
0010
1000
0010
0001
0010
1000
0010
,  // measure 35
0001
0100
1000
0100
0001
0100
1000
0100
,  // measure 36
0001
0010
0100
1000
0010
0100
0001
1000
,  // measure 37
0011
0000
0000
0101
0000
0000
1001
0000
0000
1010
0000
0000
1100
0000
0000
0000
,  // measure 38
0001
0000
0010
0000
0002
0000
0000
1003
0100
0000
0000
0000
1100
0000
0000
0000
,  // measure 39
1000
0000
0010
0000
1000
0000
0000
0001
0100
0000
0000
0100
0001
0000
0000
0000
,  // measure 40
1000
0000
0100
0000
2000
0000
0000
3001
0010
0000
0000
0000
0011
0000
0000
0000
,  // measure 41
0001
0000
0100
0000
0001
0000
0000
1000
0010
0000
0000
0010
1000
0000
0000
0000
,  // measure 42
0020
0000
1000
0000
1030
0000
0000
0100
1000
0000
0000
1000
0100
0000
0000
0000
,  // measure 43
0010
0000
0001
0000
0010
0000
0000
0001
0100
0000
0000
0000
0101
0000
0000
0000
,  // measure 44
0200
0000
0001
0000
0301
0000
0000
0010
0001
0000
0000
0001
0010
0000
0000
0000
,  // measure 45
0100
0000
1000
0000
0100
0000
0000
1000
0010
0000
0000
0000
1010
0000
0000
0000
,  // measure 46
0001
1000
0001
1000
0020
0100
0100
0230
,  // measure 47
0000
0310
0100
0010
1001
0000
1001
0000
,  // measure 48
1000
0100
1000
0010
1000
0001
1000
0001
,  // measure 49
0100
0001
0010
0001
1100
0000
0011
0000
,  // measure 50
0001
0100
0001
0010
0001
1000
0001
1000
,  // measure 51
0100
1000
0010
1000
0101
0000
1010
0000
,  // measure 52
0001
0100
0010
0100
0001
1000
0010
0100
,  // measure 53
0010
1000
0001
0100
1001
0000
0110
0000
,  // measure 54
0001
0010
0100
1000
0001
0100
0010
1000
,  // measure 55
0110
0000
0000
1001
0000
0000
0110
0000
0000
0000
1001
0000
1001
0000
0000
0000
,  // measure 56
1000
0000
0000
1000
0000
0000
2000
0000
0000
0000
0001
0000
3001
0000
0000
0000
,  // measure 57
0100
1001
0010
1001
,  // measure 58
0100
0000
0000
0100
0000
0000
0200
0000
0000
0000
0010
0000
0310
0000
0000
0000
,  // measure 59
1000
0110
0001
0110
,  // measure 60
1000
0000
0000
0100
0000
0000
0010
0000
0001
0000
0100
0000
0010
0000
1000
0000
,  // measure 61
0001
0000
0000
0010
0000
0000
0100
0000
1000
0000
0010
0000
0100
0000
0001
0000
,  // measure 62
1000
0000
0000
0001
0000
0000
0100
0000
0010
0000
0100
0000
0001
0000
1000
0000
,  // measure 63
0001
0000
0010
0001
0000
0000
0001
0000
1000
0000
0100
0000
0001
0000
0100
0000
,  // measure 64
1000
0000
0100
1000
0000
0000
1000
0000
0001
0000
0010
0000
1000
0000
0010
0000
,  // measure 65
0001
0100
0010
1000
0010
0100
0001
1000
,  // measure 66
0010
0000
0000
0100
0000
0000
0110
0000
0000
1000
0001
0000
0100
0000
0010
0000
,  // measure 67
2002
0000
0000
0000
,  // measure 68
3003
0000
0000
0000
;

//---------------dance-single - ----------------
#NOTES:
     dance-single:
     :
     Edit:
     9:
     0.646,0.676,0.363,0.258,0.404: // measure 1
0000
0000
0000
0000
,  // measure 2
0000
0000
0000
0000
,  // measure 3
0000
0000
0000
0000
,  // measure 4
0000
0000
0000
0000
,  // measure 5
1010
0000
0000
0101
0000
0000
1001
0000
0000
0000
0110
0000
1001
0000
0000
0000
,  // measure 6
1000
0000
0000
0100
1000
0000
0200
0000
0000
0000
1300
0000
0100
0000
0010
0000
,  // measure 7
0001
0000
0000
0010
0001
0000
0020
0000
0000
0000
0031
0000
1000
0000
0000
0000
,  // measure 8
0001
0000
0000
0100
0001
0000
0200
0000
0000
0000
0301
0000
1000
0000
0010
0000
,  // measure 9
1000
0000
0000
0010
1000
0000
0020
0000
0000
0000
0100
0000
0130
0000
0000
0000
,  // measure 10
1000
0000
0000
0100
0010
0000
0002
0000
0000
0000
1000
0000
1003
0000
0001
0000
,  // measure 11
0001
0000
0000
0010
0100
0000
2000
0000
0000
0000
0001
0000
3001
0000
0000
0000
,  // measure 12
1000
0000
0000
1000
0001
0000
2000
0000
0000
0000
0010
0000
3010
0000
0100
0000
,  // measure 13
0001
0000
0000
0001
1000
0000
0002
0000
0000
0000
1003
0001
1000
0000
0001
0000
,  // measure 14
1000
0000
0100
1000
0000
0001
0010
0000
0000
0000
0010
0001
0010
0000
0100
0000
,  // measure 15
1000
0000
0000
0001
0000
1000
0001
0000
0000
0000
0001
0000
1000
0000
0001
0000
,  // measure 16
1100
0000
0000
1010
0000
0000
1001
0000
0000
0000
1000
0000
0100
0000
0010
0000
,  // measure 17
0011
0000
0000
0101
0000
0000
1001
0000
0000
0000
0001
0000
0100
0000
0010
0000
,  // measure 18
1000
0000
0100
1000
0000
0000
1100
0000
0000
0000
1000
0000
0001
0000
0010
0000
,  // measure 19
0001
0000
0010
0001
0000
0000
0011
0000
0000
0000
1000
0000
0001
0000
0100
0000
,  // measure 20
0110
0000
0000
0110
0000
0000
1001
0000
0000
0000
0100
0001
1000
0000
0010
0000
,  // measure 21
1000
0100
0000
0100
1000
0000
0001
0010
0000
0010
0001
0000
1000
0000
0001
0000
,  // measure 22
1000
0000
0000
0011
0000
0000
1100
0000
0000
0000
0001
0010
0001
0000
1000
0000
,  // measure 23
0001
0000
0000
1010
0000
0000
0101
0000
0000
0000
1000
0100
1000
0000
0001
0000
,  // measure 24
1000
0000
0001
0010
0000
0001
0010
0000
0100
0000
1000
0000
0001
0000
0010
0000
,  // measure 25
0001
0000
1000
0100
0000
1000
0200
0000
0000
0000
1300
0000
0001
0000
0100
0000
,  // measure 26
0010
0000
1000
0100
1000
0000
0002
0000
0000
0000
1000
0000
1003
0000
0010
0000
,  // measure 27
0100
0000
0001
0010
0001
0000
2000
0000
0000
0000
0001
0000
3001
0000
1000
0000
,  // measure 28
0001
0000
0000
0110
0000
0000
1001
0000
0000
0000
0100
0000
0001
0000
1000
0000
,  // measure 29
0010
1000
0000
1000
0010
0000
0100
0001
0000
0001
0100
0000
0010
0000
0100
0000
,  // measure 30
0001
0010
0001
0000
1000
0100
1000
0000
0010
1000
0010
0000
0100
0001
0100
0000
,  // measure 31
0001
0100
0010
0000
1000
0010
0100
0000
0001
0010
0100
0000
1000
0100
0010
0000
,  // measure 32
0001
1000
0001
0000
0100
0010
0100
0000
0010
0100
0010
0000
1000
0001
1000
0000
,  // measure 33
0001
0100
0010
0000
1000
0000
0001
0000
0100
0000
0010
0000
0110
0000
0000
0000
,  // measure 34
1000
0100
1000
0000
0100
0010
0100
0000
0010
0001
0010
0000
0001
1000
0001
0000
,  // measure 35
0100
0010
0100
0000
0010
0000
0100
0000
0001
0000
1000
0000
1001
0000
0000
0000
,  // measure 36
0001
0100
0001
0000
0100
0010
0100
0000
0010
1000
0010
0000
1000
0001
1000
0000
,  // measure 37
0001
0010
0000
0100
1000
0000
0001
0100
0000
0010
1000
0000
1001
0000
0000
0000
,  // measure 38
1000
0100
2000
0000
0010
0000
0001
3010
,  // measure 39
1000
0010
0001
0200
0000
0000
0310
1000
,  // measure 40
0001
0100
0020
0000
0100
0000
1030
0100
,  // measure 41
0001
0100
1000
0002
1000
0000
1003
0000
,  // measure 42
0010
1000
0020
0000
0100
0000
1030
0010
,  // measure 43
0001
0010
1000
0002
0000
0000
1003
0100
,  // measure 44
0010
0001
2000
0000
0100
0000
3001
0100
,  // measure 45
1000
0100
0001
0200
0010
0000
0020
0000
,  // measure 46
0330
2000
0100
3100
0020
0001
0001
0031
,  // measure 47
0000
0002
1000
1003
0110
0000
1001
0000
,  // measure 48
1000
0100
1000
0000
0001
0100
0001
0000
1000
0010
1000
0000
0001
0010
0001
0000
,  // measure 49
1000
0001
1000
0000
0001
0000
1000
0000
0101
0000
0000
0000
1010
0000
0000
0000
,  // measure 50
0001
0010
0100
0000
0010
0100
1000
0000
0001
0100
0010
0000
0100
0010
1000
0000
,  // measure 51
0010
0100
0010
0000
0100
0000
0010
0000
1100
0000
0000
0000
0011
0000
0000
0000
,  // measure 52
1000
0001
0100
0000
0100
0001
1000
0000
0001
1000
0010
0000
0010
1000
0001
0000
,  // measure 53
1000
0100
0010
0000
0001
0000
1000
0000
0110
0000
0000
0000
1001
0000
0000
0000
,  // measure 54
1000
0010
0100
0000
0100
0010
1000
0000
0001
0010
0100
0000
0100
0010
0001
0000
,  // measure 55
1100
0000
0000
0011
0000
0000
0110
0000
0000
0000
1001
0000
0110
0000
0000
0000
,  // measure 56
1100
0000
0000
0101
0000
0000
1001
0000
0000
0000
1000
0000
0001
0000
0000
0000
,  // measure 57
0001
0001
2000
0000
3010
0010
0100
0000
,  // measure 58
0011
0000
0000
1010
0000
0000
0110
0000
0000
0000
0010
0000
0100
0000
0000
0000
,  // measure 59
0100
0100
0020
0000
1030
1000
0002
0000
,  // measure 60
1003
0000
0100
2000
0000
0000
3001
0000
0010
0000
1000
0000
0010
0000
0001
0000
,  // measure 61
0100
0000
0010
0200
0000
0000
0301
0000
1000
0000
0100
0000
0010
0000
0001
0000
,  // measure 62
0010
0000
0001
0020
0000
0000
0031
0000
1000
0000
0001
0000
0100
0000
0010
0000
,  // measure 63
1000
0000
0001
0100
0000
0010
1000
0000
0001
0000
0100
0000
1000
0000
0100
0000
,  // measure 64
0001
0000
1000
0100
0000
0010
0001
0000
1000
0000
0010
0000
0100
0000
0001
0000
,  // measure 65
1000
0000
0001
2000
0000
0000
3001
0000
0100
0000
0010
0000
1000
0000
0001
0000
,  // measure 66
1000
0100
0000
0100
0010
0000
0010
0001
0000
0001
1000
0000
0001
0000
1000
0000
,  // measure 67
2002
0000
0000
0000
,  // measure 68
3003
0000
0000
0000
;
