#TITLE:Black Diamond;
#SUBTITLE:;
#ARTIST:DOUBLE & Namie Amuro;
#TITLETRANSLIT:;
#SUBTITLETRANSLIT:;
#ARTISTTRANSLIT:;
#GENRE:;
#CREDIT:Telperion;
#BANNER:brackdimon-bn.png;
#BACKGROUND:brackdimon-bg.png;
#LYRICSPATH:brackdimon.lrc;
#CDTITLE:;
#MUSIC:brackdimon.ogg;
#OFFSET:0.000000;
#SAMPLESTART:44.745998;
#SAMPLELENGTH:20.339001;
#SELECTABLE:YES;
#DISPLAYBPM:118.000000;
#BPMS:0.000000=118.000000;
#STOPS:;
#DELAYS:;
#TIMESIGNATURES:0.000000=4=4
;
#BGCHANGES:;
#KEYSOUNDS:;
#ATTACKS:;

//---------------dance-single - Telperion----------------
#NOTES:
     dance-single:
     Telperion:
     Medium:
     5:
     0.321,0.367,0.076,0.356,0.000,214.000,9.000,42.000,0.000,0.000,0.000,0.000,0.321,0.367,0.076,0.356,0.000,214.000,9.000,42.000,0.000,0.000,0.000,0.000:
0000
0000
0000
0000
,
0000
0000
0000
0000
,
2000
0000
0000
0000
,
0000
0000
3000
0000
,
0002
0000
0000
0000
,
0000
0000
0003
0000
,
2000
0001
3010
1000
,
0002
0010
1003
0001
,
0100
0010
0100
0000
0001
1000
0001
0000
,
0010
0100
0010
0000
1001
0000
0110
0000
,
0002
1000
0013
0002
,
2003
0010
3001
0010
,
0100
0010
0100
0000
1000
0100
1000
0001
,
0200
0320
2030
3000
,
0001
0010
1000
0010
,
0100
0010
0001
1100
,
0001
1000
0000
0000
1000
0010
0000
0000
,
0010
0000
0100
0000
0001
0100
0001
0000
,
1000
0010
0001
0010
,
0100
0010
1000
0101
,
1000
0001
0001
0001
,
0002
1000
0010
0103
,
1000
0100
1000
0100
0001
0000
0100
0000
,
1000
0010
0001
0010
,
0100
0001
0100
0001
0010
0000
0100
0000
,
0001
1000
0010
0001
,
1000
0100
1000
0100
0001
0000
0100
0000
,
1000
0010
0200
0300
,
1000
0100
0010
0100
,
0001
0010
0100
2000
,
3000
0000
0000
0000
,
0000
0000
0000
0000
,
0002
0003
0002
0003
,
2000
3000
2000
3000
,
0012
0103
2010
3100
,
0000
0001
0000
0000
0000
0001
0000
0000
,
2010
3100
0012
0103
,
1000
1000
1000
0000
,
0001
1000
0200
0001
,
0000
1300
0100
0010
,
0001
1000
0020
0001
,
0000
1030
0010
0100
,
0001
1000
0200
0001
,
1300
0100
0010
0001
,
1000
0010
1000
0000
0001
0010
0001
0000
,
0200
0000
0010
0000
0320
0000
0000
0030
,
2000
3200
0320
0032
,
1003
0010
0100
0010
2000
0000
0010
0000
,
3002
0203
0320
2030
,
3001
0100
0010
0100
0002
0000
0010
0000
,
2003
3200
0320
0032
,
1003
0100
0001
0100
0020
0000
0100
0000
,
0031
1000
0001
1000
0010
0100
0010
0000
,
1000
0010
0100
0000
0001
0010
2000
0000
,
3001
1000
0001
1000
,
0001
1000
0001
1000
,
0001
1000
0001
1000
,
0001
0000
0000
1001
;

//---------------dance-single - Telperion----------------
#NOTES:
     dance-single:
     Telperion:
     Easy:
     3:
     0.185,0.245,0.059,0.136,0.000,130.000,7.000,16.000,0.000,0.000,0.000,0.000,0.185,0.245,0.059,0.136,0.000,130.000,7.000,16.000,0.000,0.000,0.000,0.000:
0000
0000
0000
0000
,
0000
0000
0000
0000
,
0002
0000
0000
0000
,
0003
0000
0000
0000
,
2000
0000
0000
0000
,
3000
0000
0000
0000
,
0001
0001
1000
1000
,
0001
1000
0001
0001
,
1000
0001
1000
1000
,
0001
1000
0110
0110
,
1000
1000
0001
0002
,
1003
0001
1000
1000
,
0001
1000
0001
1000
,
0020
0000
0030
0000
,
0100
0100
0010
0010
,
1000
1000
0001
0002
,
0003
0000
0000
0000
,
0010
0100
1000
0000
,
0100
0100
0010
0010
,
0001
0001
1000
2000
,
3001
0100
0100
0100
,
0100
0010
0200
0300
,
0001
0010
0100
1000
,
0001
0000
0010
0000
,
1000
0010
0100
0001
,
1000
0000
0010
0000
,
0001
0010
0100
1000
,
0001
0000
0010
0000
,
1000
0010
0100
0001
,
0010
0010
0100
0200
,
0300
0000
0000
0000
,
0000
0000
0000
0000
,
0000
0000
0000
0000
,
0000
0000
0000
0000
,
1000
0011
0001
1010
,
0000
0000
0000
0000
,
0001
1100
1000
0101
,
0000
0000
0000
0000
,
0020
0000
0000
0000
,
0230
0000
0000
0000
,
2300
0000
0000
0000
,
3002
0000
0003
0000
,
0200
0000
0000
0000
,
0320
0000
0000
0000
,
1030
0000
1000
0000
,
0001
0000
0001
0000
0002
0000
0000
0003
,
1000
0100
0010
0001
,
1000
0000
0010
0000
,
0001
0100
0010
1000
,
0001
0000
0010
0000
,
1000
0001
0010
0001
,
1000
0010
0100
0000
,
0010
0010
0100
0100
,
0001
1000
0001
0020
,
0000
0000
0000
0000
,
0000
0000
0000
0000
,
0000
0000
0000
0000
,
0000
0000
0030
1001
;

//---------------dance-single - Telperion----------------
#NOTES:
     dance-single:
     Telperion:
     Beginner:
     2:
     0.088,0.171,0.000,0.017,0.000,71.000,0.000,2.000,0.000,0.000,0.000,0.000,0.088,0.171,0.000,0.017,0.000,71.000,0.000,2.000,0.000,0.000,0.000,0.000:
0000
0000
0000
0000
,
0000
0000
0000
0000
,
0010
0000
0000
0000
,
0000
0000
0000
0000
,
0010
0000
0000
0000
,
0000
0000
0000
0000
,
1000
0000
0000
0000
,
1000
0000
0000
0000
,
1000
0000
0000
0000
,
1000
0000
1000
0000
,
0001
0000
0000
0000
,
0001
0000
0000
0000
,
0001
0000
0000
0000
,
0001
0000
0001
0000
,
0010
0000
0000
0000
,
0100
0000
0000
0000
,
1000
0000
0000
0000
,
0100
0000
0000
0000
,
0010
0000
0000
0000
,
0100
0000
0000
0000
,
0001
0000
0001
0000
,
1000
0000
1000
0000
,
0010
0000
0000
0000
,
0010
0000
0000
0000
,
0100
0000
0000
0000
,
0100
0000
0000
0000
,
0001
0000
0000
0000
,
1000
0000
0000
0000
,
0100
0000
0100
0000
,
0010
0000
0020
0000
,
0030
0000
0000
0000
,
0000
0000
0000
0000
,
0000
0000
0000
0000
,
0000
0000
0000
0000
,
0001
0001
0000
0000
,
0001
0000
0001
0000
,
1000
1000
0000
0000
,
1000
1000
1000
0000
,
0010
0000
0000
0000
,
0100
0000
0000
0000
,
0001
0000
0000
0000
,
0100
0000
0000
0000
,
0010
0000
0000
0000
,
0100
0000
0000
0000
,
1000
0000
0001
0000
,
0100
0100
0100
0000
,
0010
0000
0010
0000
,
0010
0000
0010
0000
,
0100
0000
0100
0000
,
0100
0000
0100
0000
,
0001
0000
0001
0000
,
1000
0000
1000
0000
,
0100
0000
0100
0000
,
0010
0010
0010
0020
,
0000
0000
0000
0000
,
0000
0000
0000
0000
,
0000
0000
0000
0000
,
0000
0000
0030
0010
;

//---------------dance-double - Telperion----------------
#NOTES:
     dance-double:
     Telperion:
     Challenge:
     10:
     0.449,0.564,0.178,0.398,0.119,299.000,21.000,47.000,80.000,32.000,0.000,0.000,0.449,0.564,0.178,0.398,0.119,299.000,21.000,47.000,80.000,32.000,0.000,0.000: // measure 1
00000000
00000000
00000000
00000000
,  // measure 2
00000000
00000000
00000000
00000000
,  // measure 3
2MMMMMMM
00000000
00000000
00000000
,  // measure 4
00000000
00000000
00000000
30000000
,  // measure 5
0MMMMMM2
00000000
00000000
00000000
,  // measure 6
00000000
00000000
00000000
00000000
00000003
00000000
00000000
000MM000
,  // measure 7
00011000
00010000
01000000
10000000
00020000
00000000
00000100
00000000
,  // measure 8
01030000
00010000
00100000
01000000
00000010
00000100
00001000
M0000010
,  // measure 9
00010000
00000000
M0001000
00000000
00000100
00000000
000000M1
000000M0
00002000
00000000
00000000
00000000
01000000
00000000
00000000
00000000
,  // measure 10
00003100
00020000
00002000
00000000
01100000
00000000
00000110
00000000
,  // measure 11
00033000
00011000
00001000
00000100
00000002
00000020
00001000
00000030
,  // measure 12
00000003
00000001
00000010
00001000
00010000
01000000
00010000
0010000M
,  // measure 13
10000000
00000000
0100000M
00000000
00010000
00000000
01M00000
00M00000
20000000
00000000
00000000
00000000
02000000
00000000
00000000
00000000
,  // measure 14
00200000
00000000
00002000
00000000
33010000
00000000
01303000
10000000
,  // measure 15
00200000
00000000
00300000
00000100
00000001
00000010
00000000
00010000
,  // measure 16
00100000
00001000
00000010
00001000
00010000
00000000
111M0000
00000000
,  // measure 17
20000000
00000000
00001000
00000000
30000000
00000000
00000000
00000000
00000002
00000000
00010000
00000000
00000003
00000000
00001000
00010000
,  // measure 18
00000001
00000000
00000000
MM0200MM
00030000
00000000
00001000
00000000
00000000
00000000
00010000
00000000
00010000
00000000
00001000
00000000
,  // measure 19
00000020
00000000
00000030
01000000
10000000
00100000
00000000
00001000
,  // measure 20
00000002
00002003
00023000
M1131000
,  // measure 21
00001000
00000020
00010000
00200000
,  // measure 22
00000001
00000200
02000000
03301330
,  // measure 23
00000000
00000000
00010000
00001000
00010000
00000000
01000000
00000000
10000000
00000000
00000000
00100000
00000000
00000000
10000000
00000000
,  // measure 24
01000000
00000000
00100000
00000000
00010000
00000000
00001000
00000000
00000100
00000000
00000010
00000002
00000000
00000000
00000010
00000000
,  // measure 25
00000003
00000000
00010000
00000000
00100000
00000000
00010000
00000000
00001000
00000000
00000010
00000100
00000000
00000000
00001000
00000000
,  // measure 26
00000001
00000100
00000010
00001000
00010000
01000000
00100000
10000000
,  // measure 27
00001000
00000000
00010000
00000000
01000000
00000000
00010000
00000000
00001000
00000000
00000100
00001000
00000000
00000000
10000000
00000000
,  // measure 28
01000000
00000000
00100000
00000000
00010000
00000000
00001000
00000000
00000100
00000000
00000010
00000001
00000020
00000000
00000000
00000000
,  // measure 29
00000230
00000000
02000000
00000000
10000000
00100000
03120300
00000000
,  // measure 30
10000000
01000000
00100000
10000000
00000010
00100000
00000001
00030000
,  // measure 31
00000110
MM000000
00000000
0MM00000
,  // measure 32
00000000
00MM0000
00000000
000MM000
,  // measure 33
00000000
0000MM00
00000000
00000MM0
,  // measure 34
00000000
000000MM
00000000
0000M00M
,  // measure 35
M00M1001
00000000
00010000
01000000
1001M00M
00000000
00001000
00000100
,  // measure 36
M00M0002
00000010
00000003
00000000
20000000
00100000
30000000
00000000
,  // measure 37
1001M00M
00000000
00001000
00000100
M00M1001
00000000
00010000
01000000
,  // measure 38
10000000
M0000000
10000000
M0000000
10000000
M0110000
10000000
00010000
,  // measure 39
00100000
00000000
00001000
00010000
00000100
02000000
00000200
00000000
,  // measure 40
00000000
00011000
00000000
00100000
00001000
00010000
03000020
01000300
,  // measure 41
00000100
00000000
00001000
00000000
00000001
00000000
00000100
00000000
00000000
00000000
00000001
00000000
00002030
00000000
00000010
00000001
,  // measure 42
00000010
00000100
00000010
00000001
00100000
00000010
20000000
00200000
,  // measure 43
00003000
01300000
00001000
00010000
00100000
01000000
00000000
32000000
,  // measure 44
10100000
00000000
00101000
00000000
00000010
00100000
03110000
01000000
,  // measure 45
00000100
00000000
00002000
00000001
00000000
00000000
00003100
00000000
00100000
00000000
00020000
10000000
00000000
00000000
01030000
00000000
,  // measure 46
00011000
00000000
00000000
00000000
00000000
00000000
00000000
000MM000
,  // measure 47
00000000
00000000
00001000
00010000
00001000
00000000
00000100
00000000
00000001
00000000
00000000
00000010
00000000
00000000
00000001
00000000
,  // measure 48
00000100
00000000
00000010
00000000
00001000
00000000
00010000
00000000
01000000
00000000
00100000
20000000
00000000
00000000
30100000
00000000
,  // measure 49
00000000
00000000
00001000
00000000
00000010
00000000
00010000
00000000
01000000
00000000
00100000
10000000
00000000
00000000
10000000
00000000
,  // measure 50
01000000
00100000
00010000
00001000
00000100
00000010
00000001
00000010
,  // measure 51
00000000
00000000
01000000
00000000
10000000
00000000
01000000
00000000
00010000
00000000
00010000
00001000
00000000
00000000
00000100
00000001
,  // measure 52
00000100
00000000
00000010
00000000
00001000
00000000
00010000
00000000
01000000
00000000
00100000
10000000
00100000
00000000
00000000
00000000
,  // measure 53
02000000
00000000
00000200
00000000
00000001
00000010
03002310
00000000
,  // measure 54
00000001
00000100
00000010
00000001
00100000
00000010
10000000
00000000
,  // measure 55
022030MM
00000MM0
0000MM00
000MM000
,  // measure 56
000000MM
00000MM0
0000MM00
033MM000
,  // measure 57
10000000
00000000
00010000
00000000
01000000
00000000
00000100
00001000
00000000
00000001
00000000
00000010
00000000
00000001
00001000
00000100
,  // measure 58
00010000
00000000
00001000
00000100
00001000
00010000
00100000
01000000
00010000
00000000
00000000
00000000
1112MMMM
00000000
00030000
00000000
;

//---------------dance-single - Telperion----------------
#NOTES:
     dance-single:
     Telperion:
     Hard:
     7:
     0.394,0.368,0.042,0.296,0.076,286.000,5.000,35.000,0.000,0.000,0.000,0.000,0.394,0.368,0.042,0.296,0.076,286.000,5.000,35.000,0.000,0.000,0.000,0.000:
0000
0000
0000
0000
,
0000
0000
0000
0000
,
2000
0000
0000
0000
,
0000
0000
3000
0000
,
0002
0000
0000
0000
,
0000
0000
0003
0000
,
0000
1000
0010
0100
0002
0000
0003
0000
,
0000
1000
0001
0010
1000
0010
0100
0010
,
0000
0001
1000
0010
0100
0010
1000
0001
,
0000
1000
0001
0100
1001
0000
0110
0000
,
0000
0001
0010
0100
2000
0000
3000
0000
,
0000
0001
0100
1000
0100
0010
0100
0001
,
0000
1000
0001
0010
0200
0000
0320
0000
,
0032
0000
1000
0000
0010
0000
0103
0001
,
0010
0000
0000
0100
2000
0010
0000
3001
,
1000
0010
1000
0100
0010
0000
0110
0000
,
0000
0000
0002
0000
0000
0000
0000
0000
0003
0000
2000
0000
0000
0000
3001
1000
,
0001
0000
0000
0200
0300
0000
0001
0000
0000
0000
0100
0000
0100
0000
0000
0000
,
0010
0000
0000
1000
0002
0010
0000
1003
,
0002
0203
0310
0110
,
1000
0100
0001
0100
1000
0100
0001
0100
,
2000
0000
0000
0000
0000
0000
0000
0000
0000
0000
0000
0000
0000
0000
0000
0000
0000
0000
0000
0000
0000
0000
0000
0000
0000
0000
0000
0000
0000
0000
0000
0000
0000
0000
0000
0000
0000
0000
0000
0000
0000
0000
0000
0000
0000
0000
0000
0000
3002
0000
0000
0000
0000
0000
0000
0000
0000
0000
0000
0000
0000
0000
0000
0000
0000
0000
0000
0000
0000
0000
0000
0000
0000
0000
0000
0000
0000
0000
0000
0000
0000
0000
0000
0000
0000
0000
0000
0000
0000
0000
0000
0000
0000
0000
0000
0000
0203
0000
0000
0000
0000
0000
0000
0000
0000
0000
0000
0000
0000
0000
0000
0000
0000
0000
0000
0000
0000
0000
0000
0000
0000
0000
0000
0000
0000
0000
0000
0000
0000
0000
0000
0000
0000
0000
0000
0000
0000
0000
0000
0000
0000
0000
0000
0300
0100
0000
0000
0000
0000
0000
0000
0000
0000
0000
0000
0000
0000
0000
0000
0000
0000
0000
0000
0000
0000
0000
0000
0000
0000
0000
0000
0000
0000
0000
0000
0000
0000
0000
0000
0000
0000
0000
0000
0000
0000
0000
0000
0000
0000
0000
0000
0000
,
0000
0000
0001
0010
0001
0000
1000
0000
0010
0000
0000
0100
0000
0000
0010
0000
,
1000
0000
0001
0000
0001
0000
1000
0000
1000
0000
0000
0100
0000
0000
0010
0000
,
0000
0000
0001
0000
0010
0000
0100
0000
1000
0000
0001
1000
0000
0000
0010
0000
,
0100
0000
0001
0000
0001
0000
1000
0000
1000
0000
0000
0100
0000
0000
0010
0000
,
0000
0000
0100
0000
1000
0000
0001
0000
1000
0000
0010
0100
0000
0000
0010
1000
,
0010
1000
1000
0001
0002
0000
0013
0000
,
0000
0001
1000
0001
0200
0000
0301
1000
,
0010
0001
0010
0000
1000
0100
0020
0000
,
0030
0000
0000
0000
,
0000
0000
0000
0000
,
0001
1000
0001
1000
,
0010
0100
0010
0100
,
0001
0000
0010
0002
1000
0000
0013
0001
,
2000
0010
3000
0000
0020
0100
0030
0000
,
1000
0000
0001
2000
0100
0000
3001
1000
,
0100
0100
0100
0000
,
0020
0000
0130
0010
0001
1000
0002
0000
,
0000
0010
0000
1003
0001
0100
0010
0000
,
1000
0010
1000
0002
0000
0013
0200
0000
,
0001
0000
1300
0000
0001
0010
0100
0000
,
0000
1000
0010
0100
0010
0000
1000
0000
,
0001
0000
0010
0001
0010
0100
0010
0000
,
0001
0000
0100
0010
0000
0000
0010
0000
1000
0000
0100
0010
0000
0000
0010
0000
,
0002
0000
0100
0000
2000
0000
0000
3003
,
0000
0000
1000
0010
1000
0000
0001
0000
0010
0000
0000
0100
0000
0000
0010
0000
,
0001
0000
1000
0000
1000
0000
0001
0000
0001
0000
0000
0100
0000
0000
0010
0000
,
0000
0000
1000
0000
0010
0000
0100
0000
0001
0000
1000
0001
0000
0000
0010
0000
,
0100
0000
1000
0000
1000
0000
0001
0000
0001
0000
0000
0010
0000
0000
0001
0000
,
0000
0000
0100
0000
0001
0000
1000
0000
0001
0000
0010
0100
0000
0000
0010
0001
,
0010
0001
0001
1000
2000
0000
3010
0000
,
0000
1000
0001
1000
0200
0000
1300
0001
,
0010
1000
0010
0000
0100
1000
0020
0000
,
0001
1000
0100
1000
,
0001
1000
0100
1000
,
0031
0010
0100
0010
1000
0001
1000
0100
,
0001
0000
1000
0000
0001
0000
2002
3003
;
