#TITLE:BIO!GEOLO!!TECHNO!!!PSYCHO!!!!;
#SUBTITLE:;
#ARTIST:HAT;
#TITLETRANSLIT:;
#SUBTITLETRANSLIT:;
#ARTISTTRANSLIT:;
#GENRE:;
#CREDIT:;
#MENUCOLOR:0.6,0.4,1.0,1.0;
#BANNER:BIO!GEOLO!!TECHNO!!!PSYCHO!!!!-bn.png;
#BACKGROUND:BIO!GEOLO!!TECHNO!!!PSYCHO!!!!-bg.png;
#LYRICSPATH:;
#CDTITLE:cdtitle.png;
#MUSIC:BIO!GEOLO!!TECHNO!!!PSYCHO!!!!.ogg;
#OFFSET:0.000;
#SAMPLESTART:84.000;
#SAMPLELENGTH:20.571;
#SELECTABLE:YES;
#LISTSORT:;
#BPMS:0.000=140.000,84.000=70.000,100.000=140.000,292.000=70.000,312.000=140.000;
#STOPS:;
#TICKCOUNT:0.000=2;
#BGCHANGES:;
#KEYSOUNDS:;
#ATTACKS:;

//---------------dance-single - ----------------
#NOTES:
     dance-single:
     :
     Medium:
     7:
     0.390,0.525,0.013,0.213,0.200:
0000
0000
0000
0000
,
0000
0000
0000
0000
,
0000
0000
0000
0000
,
0000
0000
0000
0000
,
0000
0000
0000
0000
,
1000
0010
1000
0000
1000
0010
0000
0000
,
1000
0010
1000
0000
1000
0010
0000
0010
,
1000
0001
1000
0000
1000
0001
0000
0000
,
1000
0001
1000
0000
1000
0001
0000
0001
,
0100
0001
0010
0000
0100
1000
0010
0000
,
0100
0001
0010
0000
0100
1000
0010
1000
,
0100
1000
0010
0000
0100
0001
0010
0000
,
0100
1000
0010
0000
0100
0001
0010
0001
,
2000
0000
0000
3200
0000
0000
0000
0320
,
0000
2030
0000
3020
0000
0000
0230
0000
,
2300
0000
0000
3020
0000
0000
0000
0230
,
0000
2300
0000
3200
0000
0000
0302
0000
,
0023
0000
0000
0230
0000
0000
0000
0302
,
0000
0023
0000
0230
0000
0000
0302
0000
,
0023
0000
0000
0230
0000
0000
0000
2300
,
0000
3020
0000
0230
0000
0000
0302
0000
,
0103
0000
0000
0100
0000
0000
0100
0000
0000
0000
0010
0000
0010
0000
0000
0000
1000
0000
0000
1000
0000
0000
1000
0000
0000
0000
0001
0000
0001
0000
0000
0000
,
0100
0000
0000
0100
0000
0000
0100
0000
0000
0000
0001
0000
0001
0000
0000
0000
1000
0000
0000
1000
0000
0000
1000
0000
0000
0000
0100
0000
0100
0000
0000
0000
,
1000
0000
0000
1000
0000
0000
1000
0000
0000
0000
0010
0000
0010
0000
0000
0000
0100
0000
0000
0100
0000
0000
0100
0000
0000
0000
0001
0000
0001
0000
0000
0000
,
1000
0000
0000
1000
0000
0000
1000
0000
0000
0000
0010
0000
0010
0000
0000
0000
0001
0000
0000
0001
0000
0000
0001
0000
0000
0000
0010
0000
0010
0000
0000
0000
,
1000
0100
0010
0000
1000
0010
0000
0000
,
0001
0100
0010
0000
0001
0010
0000
0000
,
1000
0010
0100
0000
1000
0100
0000
0000
,
0001
0010
0100
0000
0001
0100
0000
0000
,
1000
1000
0010
1000
0100
0010
0000
0010
,
0001
0001
0010
0001
0100
0010
0000
0010
,
1000
1000
0010
1000
0100
0010
0000
0010
,
0001
0001
0010
0001
0100
0010
0000
0000
,
1000
0000
0000
0100
0000
0000
0010
0000
0000
0000
0010
0000
0001
0000
0000
0000
,
1000
0000
0000
0010
0000
0000
0010
0000
0000
0000
1000
0000
0001
0000
0000
0000
,
1000
0000
0000
0100
0000
0000
0001
0000
0000
0000
0100
0000
0010
0000
0000
0000
,
1000
0000
0000
0010
0000
0000
0001
0000
0000
0000
1000
0000
0001
0000
0000
0000
,
0010
0000
0000
0010
0000
0000
0010
0000
0000
0000
0010
0000
0010
0000
0000
0000
,
1000
0000
0000
1000
0000
0000
1000
0000
0000
0000
1000
0000
1000
0000
0000
0000
,
0010
0000
0000
0010
0000
0000
0010
0000
0000
0000
0010
0000
0010
0000
0000
0000
,
0100
0000
0000
0100
0000
0000
0100
0000
0000
0000
0100
0000
0100
0000
0000
0000
,
1000
0000
0001
0000
0000
0001
0000
0000
1000
0000
0100
0000
0010
0000
0000
0000
,
0001
0000
0010
0000
0000
0010
0000
0000
0100
0000
0010
0000
0001
0000
0000
0000
,
1000
0000
0010
0000
0000
0010
0000
0000
1000
0000
0010
0000
0001
0000
0000
0000
,
0010
0000
1000
0000
0000
1000
0000
0000
0100
0000
0010
0000
0001
0000
0000
0000
,
1000
0000
0100
0000
0000
0001
0000
0000
0100
0000
1000
0000
0010
0000
0000
0000
,
1000
0000
0010
0000
0000
0001
0000
0000
0010
0000
1000
0000
0001
0000
0000
0000
,
0100
0000
1000
0000
0000
0100
0000
0000
0001
0000
0010
0000
0100
0000
0000
0000
,
1000
0000
0010
0000
0000
0001
0000
0000
0100
0000
0100
0000
0100
0000
0100
0000
,
1000
0000
0010
0000
0001
0000
0010
1000
,
0000
0100
0000
0100
0000
0001
0000
0100
,
0000
0010
0100
0000
1000
0000
0100
0000
,
0001
0010
1000
1000
,
0010
0010
1000
0000
0100
0000
0001
0100
,
0000
0010
0000
0010
0000
0001
0000
0010
,
0000
0100
1000
0000
0010
0000
0100
0000
,
1000
0100
0001
0010
,
1010
0010
0010
0010
,
0001
0001
0001
0001
,
0001
0100
0100
0100
,
1000
1000
1000
1000
,
1001
0000
0010
1000
0010
1000
0010
1000
,
0001
0100
0001
0100
0001
0100
0001
0100
,
0001
0010
0001
0010
0001
0010
0001
0010
,
0100
1000
0100
1000
0100
1000
0100
1000
,
0100
0000
0000
1000
0000
0000
0100
0000
0020
0000
0000
0130
,
0001
0000
0000
0100
0000
0000
1000
0000
0002
0000
0000
0013
,
0100
0000
0000
1000
0000
0000
0001
0000
0200
0000
0000
0310
,
1000
0000
0000
0000
0010
0000
0000
0000
0100
0000
0000
0000
0001
0000
0000
0100
0000
0020
0000
0000
0000
0000
0030
0000
,
1000
0000
0010
0000
0100
0000
0010
0000
0001
0000
0010
0000
,
1000
0000
0100
0000
1000
0000
0010
0000
0100
0000
0001
0000
,
0010
1000
0100
0001
,
0100
0000
0010
0000
0000
0100
0000
0001
0000
0000
0000
0000
,
2000
0000
3200
0000
,
0320
0000
0032
0000
,
0003
0000
0000
0000
;

//---------------dance-single - ----------------
#NOTES:
     dance-single:
     :
     Easy:
     4:
     0.235,0.325,0.007,0.127,0.030:
0000
0000
0000
0000
,
0000
0000
0000
0000
,
0000
0000
0000
0000
,
0000
0000
0000
0000
,
0000
0000
0000
0000
,
1000
0001
1000
0000
,
1000
0010
1000
0010
,
0100
0010
0100
0000
,
0100
0001
0100
0001
,
0010
0001
0010
0000
,
0010
0100
0010
0100
,
1000
0010
1000
0000
,
1000
0001
1000
0001
,
0020
0000
0030
0200
0000
0300
0000
0010
,
0000
0001
0000
0020
0000
0030
0200
0000
,
2300
0000
3000
0020
0000
0030
0000
0100
,
0000
0001
0000
0200
0000
0300
0020
0000
,
2030
0000
3000
0200
0000
0300
0000
0010
,
0000
0001
0000
0020
0000
0030
1000
0000
,
0020
0000
0030
0002
0000
0003
0000
1000
,
0000
0010
0000
2000
0000
3000
0002
0000
,
1003
0000
0000
1000
0000
0000
0010
0000
0100
0000
0000
0100
0000
0000
0010
0000
,
1000
0000
0000
1000
0000
0000
0010
0000
0100
0000
0000
0100
0000
0000
0001
0000
,
0010
0000
0000
0010
0000
0000
0001
0000
1000
0000
0000
1000
0000
0000
0010
0000
,
1000
0000
0000
1000
0000
0000
0001
0000
0100
0000
0000
0100
0000
0000
0010
0000
,
1000
0010
0100
0000
,
0100
0001
0010
0000
,
0010
0001
0100
0000
,
0100
0010
1000
0000
,
1000
0001
0010
0010
,
0100
1000
0001
0001
,
0100
0010
1000
1000
,
0100
0010
0001
0001
,
0100
0000
0000
0100
0000
0000
0010
0000
,
1000
0000
0000
1000
0000
0000
0001
0000
,
0010
0000
0000
0010
0000
0000
0100
0000
,
1000
0000
0000
1000
0000
0000
0001
0000
,
0010
0000
0000
0010
0000
0000
0010
0000
,
0100
0000
0000
0100
0000
0000
0100
0000
,
1000
0000
0000
1000
0000
0000
1000
0000
,
0001
0000
0000
0001
0000
0000
0001
0000
,
1000
0000
0010
0100
,
0001
0000
0010
0100
,
1000
0000
0001
0010
,
0001
0000
1000
0010
,
1000
0000
0000
1000
0000
0000
0001
0000
,
0010
0000
0000
0010
0000
0000
0001
0000
,
0100
0000
0000
0100
0000
0000
0010
0000
,
1000
0000
0001
0001
,
1000
0000
0100
0000
0010
0000
0000
0001
,
0000
0100
0000
0100
0000
0010
0000
0100
,
0000
0001
0010
0000
,
0100
1000
0010
1000
,
0100
0000
0100
0000
0000
0000
0000
1000
,
0000
0100
0000
0100
0000
0010
0000
0100
,
0000
0010
0001
0000
,
1000
0010
0100
0001
,
1001
0000
1000
0100
,
1000
0000
0001
0010
,
0000
0000
0100
0010
,
0100
0000
1000
0010
,
1000
0000
0100
0000
0010
0000
0000
0001
,
0000
0100
0000
0100
0000
0010
0000
0100
,
0000
0001
0010
0000
,
0100
0010
0001
1000
,
0010
0000
0100
0000
,
0001
0000
0010
0000
,
0100
0000
1000
0000
,
0010
0100
0010
0000
,
1000
0000
0001
0000
,
0010
0000
0100
0000
,
0010
0001
1000
0001
,
0100
0000
0000
0000
0000
0000
0000
0000
0000
0000
0000
0010
0000
0000
0000
0000
0000
0000
0000
0000
0000
0000
0000
0000
,
2000
0000
3200
0000
,
0320
0000
0032
0000
,
0003
0000
0000
0000
;

//---------------dance-single - ----------------
#NOTES:
     dance-single:
     :
     Hard:
     9:
     0.487,0.525,0.180,0.227,0.317:
0000
0000
0000
0000
,
0000
0000
0000
0000
,
0000
0000
0000
0000
,
0000
0000
0000
0000
,
0000
0000
0000
0000
,
1000
0010
1000
0000
0010
0001
0000
0000
,
0010
1000
0010
0000
1000
0001
0000
0001
,
0100
0010
0100
0000
0010
1000
0000
0000
,
0100
0010
0100
0000
0010
0001
0000
0001
,
1000
0010
1000
0001
0000
0010
0001
0100
,
0010
1000
0010
0001
0000
0010
1000
0100
,
0010
0100
1000
0001
0000
0100
0010
0000
,
1000
0100
0010
0001
0100
0010
1000
0001
,
2000
0000
0000
3100
0000
0200
0000
0320
,
0000
0032
0000
2003
0000
3100
0002
0000
,
0203
0000
0000
0310
0000
0020
0000
0230
,
0000
2300
0000
3200
0000
0310
0002
0000
,
2003
0000
0000
3010
0000
0020
0000
0032
,
0000
0023
0000
0230
0000
0301
0020
0000
,
0032
0000
0000
1003
0000
2000
0000
3020
,
0000
0032
0000
0023
0000
1030
0002
0000
,
0013
0000
0000
0010
0000
0000
0010
0000
0000
0000
0001
0000
1000
0000
0000
0000
0010
0000
0000
0010
0000
0000
0010
0000
0000
0000
0100
0000
0001
0000
0000
0000
,
0010
0000
0000
0010
0000
0000
0010
0000
0000
0000
0001
0000
1000
0000
0000
0000
0100
0000
0000
0100
0000
0000
0100
0000
0000
0000
0010
0000
0001
0000
0000
0000
,
1000
0000
0000
1000
0000
0000
1000
0000
0000
0000
0010
0000
0001
0000
0000
0000
0010
0000
0000
0010
0000
0000
0010
0000
0000
0000
1000
0000
0001
0000
0000
0000
,
0010
0000
0000
0010
0000
0000
0010
0000
0000
0000
0100
0000
0001
0000
0000
0000
0100
0000
0000
0100
0000
0000
0100
0000
0000
0000
1000
0000
0010
0000
0000
0000
,
1000
0000
0100
0000
0010
0000
0001
0100
0001
0000
0010
0000
0000
0000
0100
0000
,
1000
0000
0010
0000
0100
0000
0001
0010
0001
0000
1000
0000
0000
0000
0010
0000
,
0100
0000
0001
0000
0010
0000
0100
1000
0100
0000
0010
0000
0000
0000
0001
0000
,
0100
0000
0010
0000
1000
0000
0100
0010
0100
0000
1000
0000
0000
0000
0001
0000
,
0100
0000
0010
0000
0001
0000
0010
0000
1000
0000
0001
0000
0000
0000
0010
0100
,
0010
0000
0001
0000
0100
0000
1000
0000
0100
0000
0010
0000
0000
0000
1000
0001
,
1000
0000
0100
0000
0001
0000
0100
0000
0010
0000
0001
0000
0000
0000
0100
0010
,
0100
0000
1000
0000
0100
0000
0010
0000
1000
0000
0001
0000
0000
0000
0010
0100
,
1000
0000
0000
1000
0000
0000
1000
0000
0000
0000
0010
0000
0001
0000
0000
0000
,
0010
0000
0000
0010
0000
0000
0010
0000
0000
0000
1000
0000
0001
0000
0000
0000
,
0010
0000
0000
0010
0000
0000
0010
0000
0000
0000
0100
0000
0001
0000
0000
0000
,
0100
0000
0000
0100
0000
0000
0100
0000
0000
0000
1000
0000
0010
0000
0000
0000
,
0110
0000
0000
0010
0000
0000
0010
0000
0000
0000
1000
0000
1100
0000
0000
0000
,
0010
0000
0000
0001
0000
0000
0001
0000
0000
0000
0100
0000
0110
0000
0000
0000
,
0010
0000
0000
1000
0000
0000
1000
0000
0000
0000
0100
0000
0110
0000
0000
0000
,
0010
0000
0000
0001
0000
0000
0100
0000
0000
0000
0010
0000
1010
0000
0000
0000
,
1000
0000
0001
0100
0000
0001
0010
0000
0100
0000
0010
0000
0001
0000
0000
0000
,
0100
0000
0010
1000
0000
0100
1000
0000
0100
0000
0010
0000
0001
0000
0000
0000
,
1000
0000
0010
0100
0000
0010
1000
0000
0001
0000
0100
0000
0010
0000
0000
0000
,
1000
0000
0001
0010
0000
0001
0100
0000
0010
0000
1000
0000
0001
0000
0000
0000
,
0010
0000
0100
1000
0000
0001
1000
0000
0100
0000
0010
0000
0110
0000
0000
0000
,
0001
0000
1000
0010
0000
0100
0001
0000
1000
0000
0100
0000
1100
0000
0000
0000
,
1000
0000
0010
0100
0000
0010
1000
0000
0001
0000
0010
0000
0011
0000
0000
0000
,
0001
0000
0010
0100
0000
1000
0001
0000
0100
0000
0100
0000
0100
0000
0100
0000
,
0001
0000
0101
0000
1000
0000
0010
0100
,
0000
0001
0000
0011
0000
1000
0000
1100
,
0000
0010
1000
0001
1000
0010
0001
0010
,
0100
0010
1000
0001
0010
0100
0001
0100
,
1000
0100
1000
0000
0001
0000
0000
0000
0011
0000
0000
0000
0010
0000
0100
0000
,
0000
1000
0000
1010
0000
0001
0000
0101
,
0000
0010
1000
0100
0010
0100
1000
0100
,
0001
0100
0010
0001
0100
0010
1000
0001
,
1001
0000
0010
0000
1001
0000
0010
1000
,
0000
0000
1100
0000
0000
0000
1000
0000
0000
0000
0011
0000
0000
0000
0001
0010
,
0001
0100
0010
0000
1010
0000
1000
0000
,
0101
0000
0001
0000
0100
1000
0100
0001
,
1001
0000
0001
0100
0010
1000
0001
1000
,
0000
1020
0000
1030
0000
0201
0000
0301
,
1000
0001
0010
0100
0001
0100
1000
0010
,
1000
0100
0010
0001
0010
1000
0010
0001
,
1000
0000
0000
0000
0001
0000
1000
0000
0000
0000
0100
0000
0010
0000
0001
0000
0020
0000
0000
0000
0000
0030
0100
0000
,
0001
0000
0100
0010
0000
0001
0100
0010
2000
0000
3000
0100
,
0010
0001
0010
0001
0000
0001
0100
0000
0020
0000
0030
1000
,
0010
0000
0000
0000
0100
0000
0000
0000
0001
0000
0000
0000
0010
0000
0000
0100
0000
2000
0000
0000
0000
3000
0000
0000
,
0011
0000
0001
0000
0100
0000
0110
0000
0010
0000
1000
0000
,
1100
0000
0100
0000
0010
0000
0011
0000
0001
0000
1000
0001
,
1000
0000
0010
0000
0100
0000
0010
0000
1000
0000
0000
0000
0001
0000
0010
0000
0000
0001
0000
0000
0100
0000
0010
0000
,
0100
0000
0001
0000
0000
1000
0000
0010
0000
0000
0000
0000
,
2000
0000
3200
0000
,
0320
0000
0032
0000
,
0003
0000
0000
0000
;

//---------------dance-single - ----------------
#NOTES:
     dance-single:
     :
     Beginner:
     2:
     0.116,0.175,0.007,0.027,0.003: // measure 1
0000
0000
0000
0000
,  // measure 2
0000
0000
0000
0000
,  // measure 3
0000
0000
0000
0000
,  // measure 4
0000
0000
0000
0000
,  // measure 5
0000
0000
0000
0000
,  // measure 6
1000
0000
0010
0000
,  // measure 7
1000
0000
0001
0000
,  // measure 8
0010
0000
0001
0000
,  // measure 9
0010
0000
0100
0000
,  // measure 10
1000
0000
0001
0000
,  // measure 11
1000
0000
0010
0000
,  // measure 12
0100
0000
0001
0000
,  // measure 13
0100
0000
0010
0000
,  // measure 14
1000
0000
0000
0000
0000
0000
0000
0100
,  // measure 15
0000
0000
0000
0010
0000
0000
0000
0000
,  // measure 16
0001
0000
0000
0000
0000
0000
0000
0100
,  // measure 17
0000
0000
0000
0010
0000
0000
0000
0000
,  // measure 18
1000
0000
0000
0000
0000
0000
0000
0001
,  // measure 19
0000
0000
0000
0010
0000
0000
0000
0000
,  // measure 20
0100
0000
0000
0000
0000
0000
0000
1000
,  // measure 21
0000
0000
0000
0010
0000
0000
0000
0000
,  // measure 22
0100
0000
0001
0000
,  // measure 23
0010
0000
0100
0000
,  // measure 24
1000
0000
0010
0000
,  // measure 25
0100
0000
0001
0000
,  // measure 26
1000
0000
1000
0000
,  // measure 27
0001
0000
0000
0000
,  // measure 28
0010
0000
0010
0000
,  // measure 29
0100
0000
0000
0000
,  // measure 30
1000
0000
0010
0000
,  // measure 31
1000
0000
0000
0000
,  // measure 32
0001
0000
0010
0000
,  // measure 33
0001
0000
0000
0000
,  // measure 34
1001
0000
0000
1000
,  // measure 35
1000
0000
0000
0010
,  // measure 36
0010
0000
0000
0100
,  // measure 37
0100
0000
0000
0001
,  // measure 38
0001
0000
0000
0010
,  // measure 39
0001
0000
0000
0001
,  // measure 40
0010
0000
0000
0100
,  // measure 41
0010
0000
0000
0010
,  // measure 42
0100
0000
1000
0000
,  // measure 43
0001
0000
0000
0000
,  // measure 44
0100
0000
0001
0000
,  // measure 45
1000
0000
0000
0000
,  // measure 46
0001
0000
0010
0000
,  // measure 47
0010
0000
0000
0000
,  // measure 48
0100
0000
1000
0000
,  // measure 49
1000
0000
0100
0000
,  // measure 50
1000
0000
0000
0000
0000
0000
0000
0001
,  // measure 51
0000
0000
0000
0100
0000
0000
0000
0000
,  // measure 52
0000
0010
0000
0000
,  // measure 53
1000
0000
0001
0000
,  // measure 54
1000
0000
0000
0000
0000
0000
0000
0100
,  // measure 55
0000
0000
0000
0010
0000
0000
0000
0000
,  // measure 56
0000
0001
0000
0000
,  // measure 57
0100
0000
0010
0000
,  // measure 58
1000
0000
0000
0000
,  // measure 59
0100
0000
0010
0000
,  // measure 60
0000
0000
0001
0000
,  // measure 61
0100
0000
0010
0000
,  // measure 62
1000
0000
0000
0000
0000
0000
0000
0100
,  // measure 63
0000
0000
0000
0010
0000
0000
0000
0100
,  // measure 64
0000
0000
1000
0000
,  // measure 65
0010
0000
0100
0000
,  // measure 66
0001
0000
0000
0000
,  // measure 67
1000
0000
0000
0000
,  // measure 68
0100
0000
0000
0000
,  // measure 69
0010
0000
0000
0000
,  // measure 70
0001
0000
1000
0000
,  // measure 71
0001
0000
0000
0000
,  // measure 72
1000
0000
0010
0000
,  // measure 73
0100
0000
0000
0000
0000
0000
0000
0000
0000
0000
0000
0001
0000
0000
0000
0000
0000
0000
0000
0000
0000
0000
0000
0000
,  // measure 74
2000
0000
0000
3000
0200
0000
0000
0300
,  // measure 75
0020
0000
0000
0030
0002
0000
0000
0000
,  // measure 76
0003
0000
0000
0000
;
