#TITLE:A Geisha's Dream (Ruffage Remix);
#SUBTITLE:;
#ARTIST:NAOKI feat. SMiLE.dk;
#TITLETRANSLIT:;
#SUBTITLETRANSLIT:;
#ARTISTTRANSLIT:;
#CREDIT:;
#BANNER:A Geisha's Dream (Ruffage Remix).png;
#BACKGROUND:A Geisha's Dream (Ruffage Remix)-bg.png;
#LYRICSPATH:;
#CDTITLE:./CDTITLES/DanceDanceRevolution 2010.png;
#MUSIC:A Geisha's Dream (Ruffage Remix).mp3;
#OFFSET:1.659;
#SAMPLESTART:29.180;
#SAMPLELENGTH:15.000;
#SELECTABLE:YES;
#BPMS:0.000=140.000;
#STOPS:;
#BGCHANGES:;

//---------------dance-single - ----------------
#NOTES:
     dance-single:
     :
     Beginner:
     1:
     0.099,0.143,0.000,0.000,0.000: // measure 1
0000
0000
0000
0000
,  // measure 2
0000
0000
0000
0000
,  // measure 3
0000
0000
0000
0000
,  // measure 4
0000
0000
0000
0000
,  // measure 5
1000
0000
1000
0000
,  // measure 6
0001
0000
0001
0000
,  // measure 7
1000
0000
1000
0000
,  // measure 8
0000
0000
0100
0000
,  // measure 9
0000
0000
1000
0000
,  // measure 10
0100
0000
0010
0000
,  // measure 11
0000
0000
1000
0000
,  // measure 12
0000
0000
0001
0000
,  // measure 13
0000
0000
1000
0000
,  // measure 14
0000
0000
0100
0000
,  // measure 15
0000
0000
0010
0000
,  // measure 16
0000
0000
0100
0000
,  // measure 17
0000
0000
1000
0000
,  // measure 18
0000
0000
0100
0000
,  // measure 19
0000
0000
1000
0000
,  // measure 20
0100
0000
0000
0000
,  // measure 21
0100
0000
0010
0000
,  // measure 22
0100
0000
1000
0000
,  // measure 23
0100
0000
0000
0000
,  // measure 24
0010
0000
0000
0000
,  // measure 25
0100
0000
0000
0000
,  // measure 26
1000
0000
0000
0000
,  // measure 27
0100
0000
0000
0000
,  // measure 28
0100
0000
0000
0000
,  // measure 29
0010
0000
0000
0000
,  // measure 30
0010
0000
0000
0000
,  // measure 31
0001
0000
1000
0000
,  // measure 32
0001
0000
0010
0000
,  // measure 33
0001
0000
0000
0000
,  // measure 34
1000
0000
0000
0000
,  // measure 35
0100
0000
0000
0000
,  // measure 36
1000
0000
0000
0000
,  // measure 37
0010
0000
0000
0000
,  // measure 38
1000
0000
0000
0000
,  // measure 39
0100
0000
0000
0000
,  // measure 40
1000
0000
0001
0000
,  // measure 41
1000
0000
0010
0000
,  // measure 42
1000
0000
0000
0000
,  // measure 43
0100
0000
0000
0000
,  // measure 44
0010
0000
0000
0000
,  // measure 45
0100
0000
0000
0000
,  // measure 46
1000
0000
0100
0000
,  // measure 47
1000
0000
0000
0000
,  // measure 48
0001
0000
1000
0000
,  // measure 49
0001
0000
0000
0000
,  // measure 50
1000
0000
0100
0000
,  // measure 51
1000
0000
0000
0000
,  // measure 52
0001
0000
1000
0000
,  // measure 53
0001
0000
0000
0000
,  // measure 54
0100
0000
0010
0000
,  // measure 55
1000
0000
0000
0000
,  // measure 56
0001
0000
0000
0000
,  // measure 57
1000
0000
0000
0000
,  // measure 58
0100
0000
0010
0000
,  // measure 59
0100
0000
0000
0000
,  // measure 60
1000
0000
0000
0000
,  // measure 61
0001
0000
0000
0000
,  // measure 62
0010
0000
0000
0000
;

//---------------dance-single - ----------------
#NOTES:
     dance-single:
     :
     Easy:
     2:
     0.166,0.202,0.009,0.038,0.000: // measure 1
0000
0000
0000
0000
,  // measure 2
0000
0000
0000
0000
,  // measure 3
0000
0000
0000
0000
,  // measure 4
0000
0000
0000
0000
,  // measure 5
1000
0001
1000
0000
,  // measure 6
0100
0010
0100
0000
,  // measure 7
1000
0000
0001
0000
,  // measure 8
1000
0000
0100
0000
,  // measure 9
1000
0000
0001
0000
,  // measure 10
1000
0000
0100
0000
,  // measure 11
0100
0000
0010
0000
,  // measure 12
0010
0000
0100
0000
,  // measure 13
1000
0000
0000
0000
,  // measure 14
0100
0010
0100
0000
,  // measure 15
0001
0000
1000
0000
,  // measure 16
0100
0000
1000
0000
,  // measure 17
0100
0010
0100
0000
,  // measure 18
0001
0000
1000
0000
,  // measure 19
0100
1000
0100
0000
,  // measure 20
0010
0000
0100
0000
,  // measure 21
0010
0000
0100
0000
,  // measure 22
1000
0000
0100
0000
,  // measure 23
0001
0000
0100
0000
,  // measure 24
1000
0000
0010
0000
,  // measure 25
0001
0000
0100
0000
,  // measure 26
1000
0000
0000
0000
,  // measure 27
0200
0000
0000
0000
,  // measure 28
2300
0000
0000
0000
,  // measure 29
3002
0000
0000
0000
,  // measure 30
0023
0000
0000
0000
,  // measure 31
0130
1000
0100
0000
,  // measure 32
0001
0000
0100
0000
,  // measure 33
1000
0000
0001
0000
,  // measure 34
1000
0100
1000
0000
,  // measure 35
0100
0000
0010
0000
,  // measure 36
0100
0000
0001
0000
,  // measure 37
1000
0000
0100
0000
,  // measure 38
1000
0000
1100
0000
,  // measure 39
0001
0000
0001
0000
,  // measure 40
1000
0000
1000
0000
,  // measure 41
0100
0000
0100
0000
,  // measure 42
0010
0000
0010
0000
,  // measure 43
0100
0000
0100
0000
,  // measure 44
0001
0000
0001
0000
,  // measure 45
0010
0000
0010
0000
,  // measure 46
0100
0000
0100
0000
,  // measure 47
1000
0001
1000
0000
,  // measure 48
0100
0000
0100
0000
,  // measure 49
0010
0000
0010
0000
,  // measure 50
0100
0000
0100
0000
,  // measure 51
1000
0000
1000
0000
,  // measure 52
0001
0000
0001
0000
,  // measure 53
1000
0000
1000
0000
,  // measure 54
0001
1000
0001
0000
,  // measure 55
0100
0000
0000
0000
,  // measure 56
0010
0000
0100
0000
,  // measure 57
1000
0000
0001
0000
,  // measure 58
1000
0100
1000
0000
,  // measure 59
0010
0000
0100
0000
,  // measure 60
0010
0000
0000
0000
,  // measure 61
1000
0000
0001
0000
,  // measure 62
1000
0100
1000
0000
;

//---------------dance-single - ----------------
#NOTES:
     dance-single:
     :
     Medium:
     4:
     0.248,0.288,0.038,0.019,0.000: // measure 1
0000
0000
0000
0000
,  // measure 2
0000
0000
0000
0000
,  // measure 3
0000
0000
0000
0000
,  // measure 4
0000
0000
0000
0000
,  // measure 5
1000
0100
1000
0001
,  // measure 6
1000
0010
1000
0000
,  // measure 7
0100
0010
0100
1000
,  // measure 8
0100
0010
0100
0000
,  // measure 9
0001
0010
0100
1000
,  // measure 10
0100
0010
0001
0000
,  // measure 11
1000
0100
1000
0000
,  // measure 12
0001
0010
0001
0000
,  // measure 13
1000
0100
0010
0001
,  // measure 14
0010
0100
1000
0000
,  // measure 15
1000
1000
1000
0000
,  // measure 16
0001
0001
0001
0000
,  // measure 17
0010
0010
0010
0000
,  // measure 18
0100
0100
0100
0000
,  // measure 19
1000
0001
1000
0100
,  // measure 20
1000
0001
1000
0001
,  // measure 21
0010
0000
1000
0000
,  // measure 22
0001
0010
0001
0000
,  // measure 23
1000
0100
0010
0001
,  // measure 24
0010
0100
1000
0100
,  // measure 25
0010
0000
0001
0000
,  // measure 26
1000
0000
0100
0000
,  // measure 27
1000
0100
0010
0001
,  // measure 28
0010
0000
0000
0000
,  // measure 29
0200
0000
0000
0000
,  // measure 30
2300
0000
0000
0000
,  // measure 31
3001
0010
0001
0000
,  // measure 32
1000
0100
0010
0000
,  // measure 33
0001
0010
0100
0000
,  // measure 34
1000
0100
0010
0000
,  // measure 35
0001
0010
0100
0000
,  // measure 36
1000
0100
0010
0000
,  // measure 37
0001
0010
0100
0000
,  // measure 38
1000
0100
0010
0000
,  // measure 39
0001
0010
0100
0000
,  // measure 40
1000
0100
0010
0000
,  // measure 41
0001
0010
0100
0000
,  // measure 42
1000
0001
1000
0000
,  // measure 43
1000
0100
0010
0001
,  // measure 44
0010
0100
1000
0000
,  // measure 45
0001
0010
0100
1000
,  // measure 46
0100
0010
0001
0000
,  // measure 47
1000
0100
1000
0001
,  // measure 48
1000
0001
0010
0001
,  // measure 49
0010
0000
1000
0000
,  // measure 50
0100
0010
0100
0000
,  // measure 51
0001
1000
0001
0010
,  // measure 52
0001
0100
0001
1000
,  // measure 53
0001
0000
1000
0000
,  // measure 54
0001
0010
0001
0000
,  // measure 55
1000
0100
0010
0001
,  // measure 56
1000
0100
0010
0001
,  // measure 57
1000
0000
0001
0000
,  // measure 58
0010
0100
0010
0000
,  // measure 59
0001
0010
0100
1000
,  // measure 60
0001
0010
0100
1000
,  // measure 61
1100
0000
1001
0000
,  // measure 62
1100
0000
1010
0000
;

//---------------dance-single - ----------------
#NOTES:
     dance-single:
     :
     Hard:
     7:
     0.411,0.433,0.141,0.094,0.005: // measure 1
0000
0000
0000
0000
,  // measure 2
0000
0000
0000
0000
,  // measure 3
0000
0000
0000
0000
,  // measure 4
0000
0000
0000
0000
,  // measure 5
0000
0000
0000
0000
,  // measure 6
0000
0000
0000
0000
,  // measure 7
1000
0000
0100
0001
0100
1000
0100
1000
,  // measure 8
0100
1001
1010
1100
,  // measure 9
1000
0000
0100
0001
0100
0000
1100
0000
,  // measure 10
1010
1100
1001
0100
,  // measure 11
0010
0000
0100
0000
1000
0100
1000
0000
,  // measure 12
0001
0000
1000
0000
0100
0000
1000
0100
,  // measure 13
0010
0000
0001
0010
0100
0000
1000
0000
,  // measure 14
0100
0010
0100
0010
0100
0000
1000
0100
,  // measure 15
0010
0000
0001
0000
0010
0000
1000
0100
,  // measure 16
0010
0000
1000
0100
0010
0000
1000
0010
,  // measure 17
0100
0000
0001
0100
0010
0000
1000
0100
,  // measure 18
0010
0001
1000
0100
0010
0000
1100
0000
,  // measure 19
0001
1000
0100
1000
,  // measure 20
0100
0000
0010
0100
0010
0000
1000
0000
,  // measure 21
1100
0000
0000
0001
1000
0000
0000
1000
,  // measure 22
0100
1000
0010
1000
0100
0000
0000
0000
,  // measure 23
1000
0100
0010
0001
,  // measure 24
1000
0000
0010
0100
0010
0000
1000
0000
,  // measure 25
2200
0000
3300
0000
1001
0000
0000
1000
,  // measure 26
0100
0010
0001
1000
0100
0000
1000
0000
,  // measure 27
0020
0001
0001
0001
,  // measure 28
0230
0010
0010
0010
,  // measure 29
0302
0100
0100
0100
,  // measure 30
2003
0001
0001
3001
,  // measure 31
1000
0000
0001
0010
0100
0000
0001
0100
,  // measure 32
0010
1000
0001
0100
0010
0000
1000
0100
,  // measure 33
0010
0000
0001
0010
0100
0000
0001
0100
,  // measure 34
0010
1000
0001
0100
0010
0000
1000
0001
,  // measure 35
1000
0000
0100
0001
0100
0010
0001
1000
,  // measure 36
0100
0010
0001
0010
0100
0000
1000
0100
,  // measure 37
1000
0000
0000
0000
0001
1000
0001
0000
0010
0000
0000
0000
0100
0000
0001
0000
,  // measure 38
0100
0010
0100
0001
0100
0000
0110
0000
,  // measure 39
1000
0000
0100
0000
0010
0100
0010
0000
,  // measure 40
1000
0000
0001
0000
0010
0000
1000
0100
,  // measure 41
0010
0000
0001
0010
0100
0000
0001
0000
,  // measure 42
0100
0010
0001
0010
0100
0000
0010
1000
,  // measure 43
0100
0000
0010
0000
0100
0000
0001
1000
,  // measure 44
0010
0000
0001
0000
1001
0000
1000
0010
,  // measure 45
0100
0000
0100
0001
0010
0000
0100
0000
,  // measure 46
1000
0100
0001
0100
1000
0000
0000
0000
,  // measure 47
1000
0100
0001
0100
,  // measure 48
1000
0000
0010
0100
0010
0000
1000
0000
,  // measure 49
0110
0000
0000
0010
0100
0000
0000
1000
,  // measure 50
0100
1000
0100
0010
0001
0000
0000
0000
,  // measure 51
1000
0100
0010
0001
,  // measure 52
0010
0000
0100
1000
0100
0000
0010
0000
,  // measure 53
0200
0000
0000
0000
0301
0000
0000
1000
,  // measure 54
0100
1000
0100
0010
0100
0000
0001
0000
,  // measure 55
1000
0100
0010
0001
,  // measure 56
1000
0000
0100
0010
0100
0000
0001
0000
,  // measure 57
2000
0000
0000
0000
3100
0000
0000
0001
,  // measure 58
1000
0001
0100
0001
0020
0000
0030
0000
,  // measure 59
1000
0100
0010
0100
,  // measure 60
0010
0000
0100
1000
0100
0000
0001
0000
,  // measure 61
0200
0000
0000
0000
0310
0000
0000
0001
,  // measure 62
0010
0100
1000
0001
0011
0000
0000
0000
;
