#TITLE:Twelfth Style;
#SUBTITLE:;
#ARTIST:Tatsh & DAYBREAKERS NEXT;
#TITLETRANSLIT:;
#SUBTITLETRANSLIT:;
#ARTISTTRANSLIT:;
#CREDIT:;
#BANNER:bn.PNG;
#BACKGROUND:bg.PNG;
#LYRICSPATH:;
#CDTITLE:;
#MUSIC:Twelfth Style.mp3;
#OFFSET:-1.736;
#SAMPLESTART:28.700;
#SAMPLELENGTH:17.220;
#SELECTABLE:YES;
#BPMS:0.000=80.000,20.000=160.000,268.000=80.000;
#STOPS:;
#BGCHANGES:;

//---------------dance-single - ----------------
#NOTES:
     dance-single:
     :
     Beginner:
     1:
     0.101,0.168,0.008,0.031,0.000:
0000
0000
0000
0000
,
0000
0000
0000
0000
,
0000
0000
0000
0000
,
0000
0000
1000
2000
,
0000
0000
0000
3000
,
0001
0000
0000
0000
,
1000
0000
0000
0000
,
0010
0000
0000
0000
,
0100
0000
0000
0000
,
0001
0000
0000
0000
,
0010
0000
0000
0000
,
0100
0000
0000
0000
,
1000
0000
0000
0000
,
0010
0000
0010
0000
,
0010
0000
0000
0000
,
0100
0000
0100
0000
,
0100
0000
0000
0000
,
0001
0000
0001
0000
,
0001
0000
0000
0000
,
1000
0000
1000
0000
,
1000
0000
0000
0000
,
0010
0000
0000
0000
,
0100
0000
0000
0000
,
0001
0000
0000
0000
,
1000
0000
0000
0000
,
0100
0000
0000
0000
,
0010
0000
0000
0000
,
0001
0000
0000
0000
,
0001
0000
0001
0000
,
0001
0000
0000
0000
,
1000
0000
1000
0000
,
1000
0000
0000
0000
,
0010
0000
0010
0000
,
0010
0000
0000
0000
,
0100
0000
0100
0000
,
0100
0000
0000
0000
,
0010
0000
0010
0000
,
0010
0000
0000
0000
,
1000
0000
1000
0000
,
1000
0000
0000
0000
,
0001
0000
0001
0000
,
0001
0000
0000
0000
,
0010
0000
0000
0000
,
0100
0000
0000
0000
,
1000
0000
0000
0000
,
0001
0000
0001
0000
,
0001
0000
0001
0000
,
1000
0000
0000
0000
,
0010
0000
0000
0000
,
0100
0000
0000
0000
,
0001
0000
0000
0000
,
1000
0000
0000
0000
,
0100
0000
0000
0000
,
0010
0000
0000
0000
,
0001
0000
0000
0000
,
0100
0000
0100
0000
,
0010
0000
0000
0000
,
1000
0000
0000
0000
,
0001
0000
0000
0000
,
0010
0000
0000
0000
,
0100
0000
0000
0000
,
1000
0000
0000
0000
,
0010
0000
0000
0000
,
0100
0000
0100
0000
,
0010
0000
0010
0000
,
2002
0000
0000
0000
,
3003
0000
0000
0000
,
1000
0000
0000
0000
,
0001
0000
0000
0000
,
0010
0000
0000
0000
,
0100
0000
1000
2000
,
0000
0000
0000
0000
0000
3000
0000
0000
;

//---------------dance-single - ----------------
#NOTES:
     dance-single:
     :
     Easy:
     4:
     0.229,0.253,0.008,0.039,0.000:
0000
0000
0000
0000
,
0000
0000
0000
0000
,
0000
0000
0000
0000
,
0000
0000
1000
0200
,
0000
0000
0000
0300
,
0010
0000
0001
0001
,
0001
0000
1000
1000
,
1000
0000
0010
0010
,
0010
0000
0100
0100
,
0100
0000
0001
0001
,
0001
0000
1000
1000
,
1000
0000
0100
0100
,
0100
0000
0010
0000
,
0001
0000
0100
0001
,
0100
0000
0010
1000
,
0010
0000
1000
0100
,
1000
0000
0001
0010
,
0001
0000
1000
0010
,
1000
0000
0001
0100
,
0001
0000
1000
0100
,
1000
0000
0001
0010
,
0001
0000
1000
0000
,
0100
0000
0010
0000
,
0001
0000
1000
0000
,
0010
0000
0100
0000
,
0001
0000
1000
0000
,
0001
0000
1000
1000
,
1000
0000
0010
0000
,
0100
0000
0001
0000
,
0010
0000
0100
0000
,
1000
0000
0001
0000
,
0010
0000
0001
0000
,
0100
0000
0010
0000
,
1000
0000
0010
0000
,
0100
0000
0001
0000
,
1000
0000
0100
0000
,
0010
0010
0010
0010
,
0001
0000
0010
0000
,
0100
0100
1000
1000
,
0001
0000
1000
0000
,
0010
0010
0100
0100
,
0001
0000
0010
0000
,
0100
0100
1000
1000
,
0001
0000
0010
0000
,
0001
0000
1000
0000
,
0001
0001
1000
1000
,
0000
0010
0000
0100
,
0010
1000
0010
1000
,
0001
0010
0001
0010
,
1000
0100
1000
0100
,
0001
0000
0001
0000
,
1000
0010
0100
0010
,
1000
0001
0010
0001
,
0100
0010
1000
0010
,
0100
0100
0100
0100
,
0001
0001
0001
0001
,
0010
0100
0010
1000
,
0010
0100
0001
0010
,
0001
0100
0010
1000
,
0100
0100
1000
1000
,
0001
0010
0001
0100
,
0010
1000
0100
1000
,
0010
0100
0001
0010
,
0001
0001
0100
0100
,
0010
0010
1000
1000
,
2002
0000
0000
0000
,
3003
0000
0000
0000
,
1000
0010
0100
0001
,
1000
0100
0010
0001
,
1000
0010
0100
0001
,
2000
0000
3001
0200
,
0000
0000
0000
0000
0000
0300
0000
0000
;

//---------------dance-single - ----------------
#NOTES:
     dance-single:
     :
     Medium:
     6:
     0.354,0.365,0.063,0.031,0.000: // measure 1
0000
0000
0000
0000
,  // measure 2
0000
0000
0000
0000
,  // measure 3
0000
0000
0000
0000
,  // measure 4
0000
0000
0000
0000
1000
0001
1000
0002
,  // measure 5
0000
0000
0000
0003
,  // measure 6
1000
0000
0010
0000
0100
0001
0100
0000
,  // measure 7
0001
0000
0010
0000
0001
0010
0001
0000
,  // measure 8
0010
0010
0100
0100
,  // measure 9
1000
0000
1000
0000
0001
0000
1000
0001
,  // measure 10
1000
0000
0010
0000
0100
0001
0100
0000
,  // measure 11
0001
0000
0010
0000
0100
1000
0100
0000
,  // measure 12
0010
0010
0001
0001
,  // measure 13
1000
0001
1000
1001
,  // measure 14
1000
0000
0010
0000
0100
0001
0100
0000
,  // measure 15
0001
0000
0010
0000
0100
1000
0100
0000
,  // measure 16
0010
0010
0001
0001
,  // measure 17
1000
0000
1000
0000
0010
0000
0100
0001
,  // measure 18
0100
0000
0010
0000
1000
0100
1000
0000
,  // measure 19
0010
0000
0100
0000
0001
0100
0001
0000
,  // measure 20
0010
0001
0100
0010
,  // measure 21
1000
0000
0001
0000
1000
0000
0001
1000
,  // measure 22
0001
1000
0010
0010
,  // measure 23
1000
0001
0010
0010
,  // measure 24
0001
0100
0010
0010
,  // measure 25
1000
0100
0001
0100
,  // measure 26
1000
0010
0001
0010
,  // measure 27
1000
0010
0100
0001
,  // measure 28
0100
0000
0010
0000
1000
0010
1000
0000
,  // measure 29
0010
0000
0100
0000
0001
0000
0010
0001
,  // measure 30
0010
0000
0001
0000
0100
0000
0010
1000
,  // measure 31
0010
0000
0100
0000
0001
1000
0001
0000
,  // measure 32
0010
0000
0100
0000
1000
0100
1000
0000
,  // measure 33
0010
0000
0100
0000
0001
0010
0001
0000
,  // measure 34
0100
0000
0010
0000
1000
0001
1000
0000
,  // measure 35
0010
0000
0100
0000
0001
0000
0010
0001
,  // measure 36
0010
0001
0100
0010
,  // measure 37
1000
1000
0001
0001
,  // measure 38
1000
0010
0100
0001
,  // measure 39
0100
0110
0010
1010
,  // measure 40
1000
0001
0010
0001
,  // measure 41
0100
0110
0010
1010
,  // measure 42
1000
0100
0001
0100
,  // measure 43
1000
0010
0001
0010
,  // measure 44
1000
0010
0100
0001
,  // measure 45
1001
1000
0100
0010
,  // measure 46
0001
0101
0100
0110
,  // measure 47
0010
1000
0010
0000
0100
0001
0100
0000
,  // measure 48
0010
1000
0100
1000
,  // measure 49
0001
0000
0010
0000
0001
0000
0100
0001
,  // measure 50
0100
0010
1000
0100
,  // measure 51
0010
0000
0010
0000
0001
0000
1000
0001
,  // measure 52
1000
0010
1000
0100
,  // measure 53
0001
0100
1000
0010
,  // measure 54
0100
0001
0010
0001
,  // measure 55
0100
0001
0100
0000
0010
1000
0010
0000
,  // measure 56
1000
0100
1000
0000
0001
0010
0001
0000
,  // measure 57
1000
0010
0100
0001
,  // measure 58
0010
0001
0100
0010
,  // measure 59
1000
0001
0010
0001
,  // measure 60
0100
0000
0010
0000
1000
0000
0100
1000
,  // measure 61
0100
0010
0001
0100
,  // measure 62
0010
1000
0010
0100
,  // measure 63
0001
0010
0100
1000
,  // measure 64
0001
1000
0001
1000
0001
1000
0001
1000
,  // measure 65
0010
0100
0010
0100
0010
0100
0010
0100
,  // measure 66
0020
0000
0000
0000
,  // measure 67
0030
0000
0000
0000
,  // measure 68
1000
0000
0001
0010
0001
0000
1000
0010
,  // measure 69
1000
0000
0001
0000
0100
0001
0100
0001
,  // measure 70
0100
0000
0010
1000
0010
0000
1000
0100
,  // measure 71
2000
0000
0000
0000
3001
0100
0010
2000
,  // measure 72
0000
0000
0000
0000
0000
3000
0000
0000
;

//---------------dance-single - Copied from----------------
#NOTES:
     dance-single:
     Copied from:
     Hard:
     8:
     0.544,0.534,0.267,0.133,0.333: // measure 1
0000
0000
0000
0000
,  // measure 2
0000
0000
0000
0000
,  // measure 3
0000
0000
0000
0000
,  // measure 4
0000
0000
0000
0000
1000
0100
0010
0002
,  // measure 5
0000
0000
0000
0000
0000
0000
0000
0003
,  // measure 6
1001
0000
0000
1000
0000
0000
0010
0000
1000
0000
0001
0000
0010
0000
0000
0000
,  // measure 7
0110
0000
0000
0100
0000
0000
1000
0000
0010
0000
1000
0000
0001
0000
0000
0000
,  // measure 8
1001
0000
0000
0001
0000
0000
0010
0000
1000
0000
0000
0010
0000
0000
0001
0000
,  // measure 9
1001
0000
1000
0000
0100
0000
0001
0000
0100
0000
0000
1000
0000
0000
0010
0000
,  // measure 10
0110
0000
0000
0100
0000
0000
0001
0000
0010
0000
1000
0000
0010
0000
0000
0000
,  // measure 11
0011
0000
0000
0001
0000
0000
0100
0000
0010
0000
1000
0000
0001
0000
0000
0001
,  // measure 12
1000
0000
0000
0010
0000
0000
1000
0000
0100
0000
0010
0000
0001
0000
0100
0000
,  // measure 13
0110
0000
0000
1010
0000
0000
1001
0000
0000
1000
0000
0000
0010
0000
0100
0000
,  // measure 14
0101
0000
0000
0001
0000
0000
0010
0000
0100
0000
1000
0000
0002
0000
0000
0000
,  // measure 15
1003
0000
0000
0001
0000
0000
0010
0000
0001
0000
0100
0000
0020
0000
0000
0000
,  // measure 16
1030
0000
0000
0100
0000
0000
0001
0000
1000
0000
0000
0010
0000
0000
0001
0000
,  // measure 17
1000
0000
0010
0000
0100
0000
0001
0000
0010
0100
0000
0010
0000
0000
0100
0000
,  // measure 18
0110
0000
0000
0010
0000
0000
0001
0000
1000
0000
0010
0000
2000
0000
0000
0000
,  // measure 19
3001
0000
0000
0010
0000
0000
0001
0000
0100
0000
0010
0000
1000
0000
0000
1000
,  // measure 20
0001
0000
0000
1000
0000
0000
0010
0000
1000
0000
0100
0000
0010
0000
0001
0000
,  // measure 21
0011
0000
0000
0110
0000
0000
1100
0000
0000
1010
0000
0000
0010
0000
0100
0000
,  // measure 22
0001
0000
0010
0000
1000
0000
0010
0000
0001
0000
0000
0100
0000
0000
0010
0000
,  // measure 23
1000
0000
0100
0000
0001
0000
0100
0000
1000
0000
0000
0010
0000
0000
0100
0000
,  // measure 24
0001
0000
0010
0000
0100
0000
1000
0000
0001
0000
0000
0010
0000
0000
0001
0000
,  // measure 25
1000
0001
0000
1000
0002
0000
0000
0000
1003
0000
0100
0000
0010
0000
0002
0000
,  // measure 26
0000
0103
0010
2000
0000
3001
0010
0100
,  // measure 27
1000
0000
1100
0000
0000
0110
0000
0000
0011
0000
0000
1001
0000
0000
1010
0000
,  // measure 28
0010
0000
0000
0100
0000
0000
0001
0000
0010
0000
1000
0000
0010
0000
0001
0000
,  // measure 29
0100
0000
0000
0010
0000
0000
1000
0000
0100
0000
0010
0000
0100
0000
1000
0000
,  // measure 30
0010
0000
0000
0100
0000
0000
0001
0000
0010
1000
0000
1000
0010
0000
0001
0000
,  // measure 31
0100
0000
0010
0000
1000
0000
0100
0000
0010
0000
0000
0001
0000
0000
0010
0000
,  // measure 32
0100
0000
1000
0000
0010
0000
0100
0000
0001
0000
0100
0020
0000
0000
0030
0000
,  // measure 33
1000
0000
0100
0000
0010
0000
0001
0000
0010
0000
0100
2000
0000
0000
3001
0000
,  // measure 34
1000
0000
0010
0000
0100
0000
0001
0000
0100
0010
0000
2000
0000
0000
3100
0000
,  // measure 35
0010
0000
0000
0001
0000
0000
0010
0000
0000
0000
0100
0000
1000
0000
0001
0000
,  // measure 36
0020
1030
1010
0011
,  // measure 37
0001
0100
0010
1000
0100
0010
0001
0010
,  // measure 38
0200
1000
0000
0001
0000
1300
0000
0001
,  // measure 39
0100
1000
1100
0000
0001
0100
0101
0000
,  // measure 40
0200
0010
0000
1000
0000
0310
0000
1000
,  // measure 41
0001
0010
0011
0000
0010
0100
0110
0000
,  // measure 42
0100
0000
0000
0000
1100
0000
0000
0100
0010
0100
0000
0000
1000
0001
0000
0000
,  // measure 43
1000
0100
1100
0000
0001
0010
0011
0001
,  // measure 44
0100
0000
0000
0000
0110
0000
0000
0010
1000
0010
0000
0000
0100
0001
0000
0000
,  // measure 45
1001
0001
0100
0010
1000
0100
0010
0001
,  // measure 46
1000
0100
0011
0000
1000
0010
0101
0000
,  // measure 47
1000
0000
0100
0000
0010
0001
0000
0000
1000
0000
0010
0000
0100
0001
0000
0000
,  // measure 48
1000
0000
0010
0000
0000
1000
0000
0000
0100
0000
0000
0010
0000
0000
0001
0000
,  // measure 49
0100
0000
0010
0000
0000
1000
0000
0000
0001
0000
0000
0010
0000
0000
1000
0000
,  // measure 50
0010
0000
0001
0000
0000
0100
0000
0000
0010
0000
0000
1000
0000
0000
0100
0000
,  // measure 51
0001
0000
0100
0000
1000
0000
0010
0000
1000
0000
0001
1000
0000
0001
1000
0000
,  // measure 52
0001
0000
0010
0000
0000
1000
0000
0000
0010
0000
0000
0001
0000
0000
0100
0000
,  // measure 53
0010
0000
1000
0000
0000
0100
0000
0000
1000
0000
0000
0001
0000
0000
0010
0000
,  // measure 54
1000
0000
0010
0000
0000
0001
0000
0000
0100
0000
0000
0010
0000
0000
1000
0000
,  // measure 55
0100
0000
0010
0000
0001
0000
0010
0000
0100
0000
1000
0100
0000
1000
0100
0000
,  // measure 56
0010
0010
0001
0001
1000
1000
0010
0010
,  // measure 57
1000
0000
0001
0000
0000
0010
0000
0000
1000
0000
0000
0010
0000
0000
0001
0000
,  // measure 58
0100
0000
0010
0000
0000
1000
0000
0000
0100
0000
0000
0001
0000
0000
0100
0000
,  // measure 59
1000
0000
0010
0000
0000
0100
0000
0000
0001
0000
0000
0010
0000
0000
1000
0000
,  // measure 60
0010
0000
0001
0000
0100
0000
0010
0000
1000
0000
0001
1000
0000
0001
1000
0000
,  // measure 61
0001
0000
1000
0000
0000
0010
0000
0000
1000
0000
0000
0100
0000
0000
0001
0000
,  // measure 62
0100
0000
1000
0000
0000
0010
0000
0000
0100
0000
0000
0001
0000
0000
0010
0000
,  // measure 63
0100
0000
1000
0000
0000
0001
0000
0000
0010
0000
0000
1000
0000
0000
0010
0000
,  // measure 64
0001
0000
0100
0000
0010
0000
1000
0000
0001
0000
1000
0010
0000
1000
0001
0000
,  // measure 65
0010
0010
0001
0001
0100
0100
0010
0010
,  // measure 66
2002
0000
0000
0000
,  // measure 67
3003
0000
0000
0000
,  // measure 68
1000
0000
0000
0000
0001
0100
0001
0000
1000
0000
0000
0000
0100
0000
1000
0000
,  // measure 69
0010
0000
0000
0000
0100
0001
0000
0001
0100
0000
0010
0000
1000
0000
0001
0000
,  // measure 70
0010
0000
0000
0000
0001
0000
1000
0100
1000
0000
0000
0000
0100
0000
0010
0000
,  // measure 71
0002
0000
0000
0003
1000
0010
0100
0020
,  // measure 72
0000
0000
0000
0000
0000
0030
0000
0000
;
