#TITLE:ToyCubePf.(RX-Ver.S.P.L.);
#SUBTITLE:;
#ARTIST:高田雅史;
#TITLETRANSLIT:;
#SUBTITLETRANSLIT:;
#ARTISTTRANSLIT:MASAFUMI TAKADA;
#CREDIT:DigiMindAxel;
#BANNER:ToyCubePf.(RX-Ver.S.P.L.).png;
#BACKGROUND:ToyCubePf.(RX-Ver.S.P.L.)-bg.png;
#LYRICSPATH:;
#CDTITLE:beatmaniaIIDX.png;
#MUSIC:ToyCubePf.(RX-Ver.S.P.L.).mp3;
#OFFSET:-8.400;
#SAMPLESTART:16.387;
#SAMPLELENGTH:12.000;
#SELECTABLE:YES;
#BPMS:0.000=90.000,157.167=88.500,157.500=87.000,157.833=85.500,158.167=84.000,158.500=83.000,158.833=81.500,159.167=79.000,159.500=76.500,159.833=73.500,160.167=71.000,160.500=68.500;
#STOPS:;
#BGCHANGES:;

//---------------dance-single - ----------------
#NOTES:
     dance-single:
     :
     Hard:
     8:
     0.545,0.513,0.164,0.263,0.546: // measure 1
1001
0000
0000
0001
0100
0000
0010
0000
1000
0100
1000
0000
0002
0000
0000
1000
,  // measure 2
0000
0000
1003
0000
0100
0000
0001
0000
0100
0000
1000
0001
1000
0001
1000
0001
,  // measure 3
1000
0000
0010
1000
0100
0000
0010
0001
0100
0000
0110
0000
0110
0000
1001
0000
,  // measure 4
1001
0000
0000
1000
0100
0010
0001
0000
0001
0000
0001
0100
0010
0000
0010
0000
,  // measure 5
0010
1000
0100
0000
0000
0000
1000
0000
0001
0000
1000
0000
0010
0100
0001
0000
,  // measure 6
0001
0000
0001
0010
0100
0000
0000
1000
0100
0010
0001
0000
1001
0000
0110
0000
,  // measure 7
1001
0000
0000
0001
0010
0100
1000
0000
1000
0000
1000
0100
0010
0000
0010
0000
,  // measure 8
0010
0001
0100
0000
0000
0001
1000
0000
0001
0000
1001
0000
0000
0100
0010
0000
,  // measure 9
0010
0100
0001
0010
0100
0000
1000
0001
1000
0001
1000
0100
0001
0100
1000
0010
,  // measure 10
0200
0010
0310
0002
0100
0103
2000
0100
,  // measure 11
3100
0010
2000
0000
0001
0000
0001
0000
3001
0000
0100
0000
0010
0000
0200
0000
,  // measure 12
0000
0301
0010
0100
2000
0000
0000
0000
3001
0000
0100
0000
0110
0000
0001
0000
,  // measure 13
2001
0000
0000
0100
0000
0000
3100
0000
0010
0000
0001
0000
0200
0000
0000
0000
,  // measure 14
0310
0000
2000
0000
0000
0000
3001
0000
0100
0000
0010
0000
0010
0000
0100
0001
,  // measure 15
0100
1000
0100
0001
2000
0000
0000
0001
0000
0000
3001
0000
0100
0000
0010
0000
,  // measure 16
2000
0000
0000
0000
0001
0000
3002
0000
0000
0103
0010
1000
0100
0010
0001
0100
,  // measure 17
1000
0000
0100
0001
0100
0010
1000
0100
0000
0010
0100
0000
0010
0100
0010
0001
,  // measure 18
1000
0000
0100
0000
0010
0000
0001
0000
0100
0000
0000
0000
0000
0000
0000
0000
0010
0100
0010
0100
0010
0000
0000
0000
0110
0000
0000
0000
0000
0000
0000
0000
,  // measure 19
1000
0010
0100
0001
0000
0001
1000
0000
0100
0000
0010
0000
0001
0100
0010
1000
,  // measure 20
0000
1000
0001
0010
0001
0010
0100
1000
0002
0000
0010
0000
0013
0000
0200
0000
,  // measure 21
1000
0000
1300
0000
2000
0000
0001
0000
3001
1000
0001
0000
1000
0001
0010
0100
,  // measure 22
1000
0000
0000
0010
0100
0001
0010
0000
0010
0000
0010
0001
0100
0000
0100
0000
,  // measure 23
0100
0001
1000
0000
0000
0000
0010
0000
0100
0000
0001
0000
0001
0010
0100
0000
,  // measure 24
0100
0000
0000
0000
0100
0000
1000
0000
0010
0000
0000
0000
0000
0000
1000
0000
0100
0000
0010
0000
0001
0000
0000
0000
0001
0000
0100
0010
0100
0000
0000
0000
,  // measure 25
0110
0000
0000
0100
0010
1000
0100
0000
0100
0000
0100
1000
0010
0000
0010
0000
,  // measure 26
0010
0100
0001
0000
0000
0000
1000
0000
0100
0000
2000
0000
0000
3001
0100
0000
,  // measure 27
0010
0100
0010
0100
0010
0000
1000
0000
0100
0000
0000
0000
1000
0000
0001
0000
1000
0000
0001
0000
1000
0000
0010
0000
0100
0000
0001
0000
0100
0000
0001
0000
,  // measure 28
2000
0000
0000
3100
2000
0000
3010
0200
,  // measure 29
0000
0000
0302
0000
0000
0000
0100
0000
0103
0000
0001
0000
0010
0100
0010
0000
,  // measure 30
0001
0000
0000
0000
0100
0000
0010
0000
0100
0000
0000
0000
0000
0000
0001
0000
1000
0000
0000
0000
1001
0000
0000
0000
0100
0010
0100
0010
0100
0000
0000
0000
,  // measure 31
1001
0000
0000
0000
0000
0000
1000
0000
0001
0000
0010
0000
0100
0000
0000
1000
0001
0000
0010
0000
0100
0000
1000
0000
0100
0000
0000
1000
0001
0000
0010
0000
,  // measure 32
0100
0000
1000
0000
0100
0000
0000
0000
0000
0000
0000
0000
1000
0000
0010
0000
0100
0000
0000
0000
0002
0000
0000
0000
0000
0000
1003
0000
0100
0000
0000
1000
,  // measure 33
0001
0010
0100
1000
0001
0000
0100
0010
1000
0100
1000
0100
1000
0000
0010
0100
,  // measure 34
0020
0100
0130
2000
0100
3100
0002
0100
,  // measure 35
0103
0010
0002
0000
1000
0000
1000
0000
1003
0000
0001
0000
0100
0000
0002
0000
,  // measure 36
0000
1003
0100
0010
0002
0000
0000
0000
0103
0000
0110
0000
0110
0000
1001
0000
,  // measure 37
1001
0000
0000
0001
1000
0000
0100
0000
0010
0000
0001
0100
0020
0000
1000
0000
,  // measure 38
1030
0100
0020
0000
0001
0000
0031
0000
0110
0000
0100
0000
0010
0000
0100
0001
,  // measure 39
0100
0000
1000
0000
0100
0000
0001
0000
1000
0000
0000
0000
0100
0000
1000
0000
0100
0000
1000
0000
0001
0000
0000
0000
1000
0000
0000
0000
0001
0100
0001
0100
,  // measure 40
0001
0000
0000
0000
1000
0000
0001
0000
0100
0000
0001
0000
0100
0000
0000
0000
0001
0000
0000
0000
1000
0010
1000
0010
1000
0000
0100
0000
0010
0000
0001
0000
,  // measure 41
0100
0020
2000
0000
0000
0000
3030
0000
0000
0000
0000
0000
0000
0000
0000
0000
;

//---------------dance-single - ----------------
#NOTES:
     dance-single:
     :
     Medium:
     5:
     0.346,0.298,0.049,0.271,0.119:
1001
0000
0000
0000
1000
0000
0100
0000
0010
0000
0001
0000
2000
0000
0000
0001
,
0000
3001
0000
0000
0000
0100
0010
0100
,
0001
0010
0100
0000
1000
0001
0100
0100
,
1001
0000
1000
0010
0010
0100
0001
0001
,
1000
1000
0000
0010
0100
0010
1000
0001
,
0001
1000
1000
0000
0001
0010
0100
0010
,
0110
0000
0001
1000
1000
0010
0100
0100
,
0001
0001
0000
0100
0010
0200
0000
0301
,
0100
0010
0100
0000
0001
0000
0000
1000
0000
0000
0001
0000
0000
0000
0000
0000
,
1001
0000
0100
0002
0000
1003
0200
0000
,
1300
0001
2000
0000
0000
0000
0000
0000
3000
0000
0010
0000
0100
0000
0010
0000
,
0000
1000
0001
0000
0200
0000
0000
0000
0310
0000
1000
0000
1000
0000
0001
0000
,
0002
0000
0000
0000
0003
1000
0200
0000
,
0310
0002
0000
1003
0001
0100
0001
0010
,
0100
1000
0020
0000
0000
0000
0030
0000
,
1001
0000
0000
0000
0010
0000
0200
0000
0000
0301
1000
0100
1000
0000
0001
0000
,
0010
0000
0100
0000
1000
0000
0010
0000
0000
0100
0000
0000
0100
0000
0100
0000
,
0001
0010
0100
0000
1000
0100
0010
0100
,
1000
0010
0000
0100
0001
0010
0100
1000
,
0001
0100
0001
1000
0001
0001
0001
1000
,
1000
1000
0001
0001
0001
1000
0020
0000
,
0130
0000
0000
0001
1000
0000
0100
0000
0100
0000
1000
0000
0001
0000
0001
0000
,
0100
0010
0100
0000
0000
0000
0001
0000
1000
0000
0010
0000
1000
0001
1000
0000
,
0010
0000
0010
0000
1000
0000
0000
0001
1000
0000
0100
0000
0010
0000
0001
0000
,
1000
0000
0000
0010
0100
0000
0001
0000
0001
0000
1000
0000
0100
0000
0100
0000
,
1000
0001
1000
0000
0000
0000
0010
0000
0100
0000
0002
0000
0000
0000
0013
0000
,
0100
1000
0010
0100
0010
0000
0000
0000
0000
0000
0000
0000
0000
0000
0000
0000
,
1002
0000
0000
2003
0000
0000
3200
0000
,
0000
0320
0000
0000
0032
0000
0000
2003
,
0000
0000
3002
0000
0000
1003
1000
1000
,
0100
0000
0000
0000
0010
0000
0001
0000
1000
0010
1000
0000
0001
0000
1000
0010
,
1000
0000
0001
0000
0000
0000
1000
0001
1000
0000
0100
0000
0000
1000
0001
0000
,
0010
0000
0100
0000
1000
0000
0001
0000
0100
0000
0010
0100
0010
0000
1000
0000
,
0002
0000
0103
0020
0000
1030
0002
0000
,
1003
0001
2000
0000
0000
0000
3000
0000
0000
0000
0001
0000
0010
0000
0200
0000
,
0000
1300
0001
0000
0020
0000
0000
0000
0130
0000
1000
0000
0010
0000
0100
0000
,
0020
0000
0000
0000
0030
1000
0200
0000
,
0310
0000
0200
0000
0000
0000
1300
0000
1000
0000
0100
0000
0010
0000
0001
1000
,
0001
1000
0001
1000
0020
0000
0000
0000
0000
0000
0000
0000
0000
0000
0130
0001
,
2000
0000
0000
0000
0000
0000
0000
0000
0000
0000
3100
1000
0002
0000
0000
0100
,
0000
0200
0000
0303
0000
0000
0000
0000
;

//---------------dance-single - ----------------
#NOTES:
     dance-single:
     :
     Easy:
     2:
     0.186,0.181,0.025,0.345,0.000:
2000
0000
0000
3002
0000
0003
0200
0000
,
0000
0000
0300
0000
0020
0000
0000
0230
,
0000
0000
0320
0000
0000
1030
1000
0001
,
1000
0000
0000
0100
0000
0000
0010
0000
,
0000
0001
0000
0000
0100
0000
0000
0010
,
0000
0000
0100
0000
0000
0001
1000
0001
,
0100
0000
0000
0010
0000
0000
0100
0000
,
0000
0001
0000
0000
1000
0000
0000
0100
,
0000
0000
0010
0000
0000
0001
0000
1000
,
0200
0000
0000
2300
0000
0000
3200
0000
,
0000
2300
0000
0000
3000
0001
0000
0200
,
0000
0000
0302
0000
0000
0203
0000
0000
,
0320
0000
0000
0000
0000
0030
2000
0000
,
0000
3002
0000
0000
2003
0000
0000
3010
,
0100
0001
0002
0000
0000
0003
0000
0000
,
2000
0000
0000
3200
0000
0000
0320
0000
,
0000
0032
0000
0000
1003
0000
0000
0000
,
0000
0000
0001
0000
0000
1000
0000
0000
,
0020
0000
0000
0230
0000
0000
0320
0000
,
0000
0230
0000
0000
0301
0000
0000
0010
,
0000
0000
0100
0000
0000
1000
0000
0000
,
1001
0000
0000
0010
0000
0000
0100
0000
,
0000
0010
0000
0000
1000
0000
0000
0100
,
0000
0000
0010
0000
0000
0001
1000
0001
,
0200
0000
0000
0320
0000
0000
0230
0000
,
0000
0310
0000
0000
2000
0000
0000
3002
,
0000
1003
0000
0000
,
1001
0000
0000
0000
,
0000
0000
0010
0000
,
0000
0000
0000
0000
0000
0010
0100
0010
,
1000
0000
0000
0100
0000
0000
0010
0000
,
0000
0001
0000
0000
1000
0000
0000
0001
,
0000
0000
0100
0000
0000
0010
0000
1000
,
0002
0000
0000
0203
0000
0000
0302
0000
,
0000
0203
0000
0000
0300
0001
0000
2000
,
0000
0000
3200
0000
0000
1300
0100
0010
,
0002
0000
0000
0000
0000
0103
0020
0000
,
0000
1030
0000
0000
0110
0000
0000
0010
,
0100
0001
2000
0000
0000
0000
3000
0010
,
0200
0000
0000
0300
0000
0001
2000
0000
,
0000
3001
0000
0000
0000
0000
0000
0000
;

//---------------dance-single - ----------------
#NOTES:
     dance-single:
     :
     Beginner:
     1:
     0.063,0.066,0.074,0.000,0.000:
1000
0000
0000
0000
,
0000
0000
1000
0000
,
0000
0000
0000
0000
,
0001
0000
0000
1000
,
0000
0000
0001
0000
,
0000
1000
0000
0000
,
1001
0000
0000
0100
,
0000
0000
0010
0000
,
0000
0100
0000
0000
,
0001
0000
0000
0000
,
0000
0000
0001
0000
,
0000
0000
0000
0000
,
1000
0000
0000
1000
,
0000
0000
1000
0000
,
0000
0001
0000
0000
,
1001
0000
0000
0000
,
0000
0000
0100
0000
,
0000
0100
0000
0000
,
0110
0000
0000
0000
,
0000
0000
0010
0000
,
0000
0000
0000
0000
,
1001
0000
0000
0001
,
0000
0000
1000
0000
,
0000
0001
0000
0000
,
1001
0000
0000
1000
,
0000
0000
0001
0000
,
0000
1000
0000
0000
,
0010
0000
0000
0000
,
0000
0000
0000
0000
,
0000
0000
0000
0000
,
0110
0000
0000
0010
,
0000
0000
0100
0000
,
0000
0010
0000
0000
,
1001
0000
0000
0001
,
0000
0000
1000
0000
,
0000
0001
0000
0000
,
1001
0000
0000
1000
,
0000
0000
0010
0000
,
0000
0100
0000
0000
,
0001
0000
0000
1000
,
0000
1001
0000
0000
0000
0000
0000
0000
;
