#TITLE:Theme of Mega Man X Command Mission;
#SUBTITLE:;
#ARTIST:Capcom;
#TITLETRANSLIT:;
#SUBTITLETRANSLIT:;
#ARTISTTRANSLIT:;
#GENRE:;
#CREDIT:;
#MENUCOLOR:;
#METERTYPE:DDR;
#BANNER:;
#BACKGROUND:;
#LYRICSPATH:;
#CDTITLE:;
#MUSIC:Theme of Mega Man X Command Mission.mp3;
#OFFSET:-0.386;
#SAMPLESTART:26.090;
#SAMPLELENGTH:12.000;
#SELECTABLE:YES;
#LISTSORT:;
#BPMS:0.000=132.500;
#STOPS:;
#BGCHANGES:;
#ATTACKS:;

//---------------dance-single - ----------------
#NOTES:
     dance-single:
     :
     Hard:
     7:
     0.495,0.457,0.310,0.160,0.275:
0000
0000
0000
0000
,
0000
0000
0000
0000
,
0000
0000
0000
0000
,
0000
0000
0000
0000
,
1000
0000
0010
0000
0100
0000
0000
0001
0000
0010
0000
0000
0100
0000
0010
0000
,
0001
0000
0100
0000
0010
0000
0000
0100
0000
0001
0000
0000
0010
0000
0100
0000
,
0010
0000
0001
0000
0100
0000
0000
0010
0000
0100
0000
0000
0001
0000
1000
0000
,
0100
0000
0010
0000
0100
0000
0000
0010
0000
0001
0000
0000
0100
0000
0001
0000
,
1001
0000
1000
0000
0100
0010
0001
0000
,
0101
0000
0000
0000
1010
0000
0000
0000
0010
0000
0000
0100
0000
0000
0010
0000
,
0001
0000
0010
1000
0000
0100
0010
0001
,
0010
0000
0100
0010
0001
0100
0010
1000
,
1100
0000
0100
0000
0010
0100
0001
0100
,
1000
0000
0000
0000
0010
0000
0100
0000
0000
0000
0101
0000
0000
0011
0000
0000
,
1001
0000
0000
0000
0002
0000
0000
0000
0103
0000
0000
0010
0000
0000
1000
0000
,
0001
0000
0000
0010
0000
0000
0200
0000
0000
0000
0310
0000
0100
0000
0010
0000
,
0001
0000
0000
0100
0000
0000
0020
0000
0000
0000
0031
0000
0010
0000
1000
0000
,
0100
0000
0010
0001
0100
0010
0100
0000
,
0110
0000
0000
0000
0020
0000
0000
0000
0130
0000
0000
0010
0000
0000
1000
0000
,
0010
0000
0000
0001
0000
0000
0020
0000
0000
0000
0130
0000
1000
0000
0100
0000
,
0001
0000
0000
1000
0000
0000
0200
0000
0000
0000
0310
0000
0100
0000
1000
0000
,
0010
0000
0100
0010
1010
0000
1000
0000
,
1001
0000
0000
0000
1000
0000
0010
0000
0001
0000
0000
0010
0000
0000
1000
0000
,
0100
0000
0000
0010
0000
0000
0100
0000
1000
0000
0010
0000
0100
0000
1000
0000
,
0100
0000
0000
0010
0000
0000
2000
0000
0000
0000
3100
0000
0010
0000
0100
0000
,
0001
0100
1000
0010
0100
0001
1000
0000
,
0011
0000
0000
0000
0010
0000
0100
0000
0010
0000
0000
0100
0000
0000
1000
0000
,
0010
0000
0000
0100
0000
0000
0010
0000
1000
0000
0100
0000
0010
0000
0100
0000
,
1000
0000
0000
0010
0000
0000
0200
0000
0000
0000
0310
0000
1000
0000
0001
0000
,
0010
0100
0010
0100
0010
0001
1000
0000
,
1010
0000
0000
0000
0010
0000
0100
0000
1000
0000
0000
0100
0000
0000
0001
0000
,
0010
0000
0000
0100
0000
0000
0010
0001
0010
0000
0000
0110
0000
0000
0011
0000
,
0000
0000
0001
0000
0100
0000
1000
0000
0100
0000
0000
0001
0000
0000
0010
0000
,
0100
0000
0000
0010
0000
0000
0100
0010
0100
0000
0000
0011
0000
0000
1001
0000
,
0110
0000
0000
0000
0100
0000
1000
0000
0100
0000
0000
0001
0000
0000
0010
0000
,
0011
0000
0000
0010
0000
0000
0100
0000
0010
0000
0000
0000
0001
0000
0000
0000
,
1000
0010
0100
1000
0100
0010
1000
0100
,
0010
0000
0000
0010
0000
0000
0001
0000
0011
0000
0000
0000
1100
0000
0000
0000
,
0000
0000
0000
0000
1001
0000
0000
1000
0000
0000
0001
0000
0100
0000
0010
0000
,
0100
0000
0000
1000
0000
0000
0100
0000
0000
0000
0001
0000
0010
0000
0100
0000
,
0010
0000
0000
0001
0000
0000
0100
0000
0000
0000
0010
0000
0001
0000
0010
0000
,
0110
0101
1001
1100
,
0110
0000
0000
0000
0010
0000
0000
0001
0000
0000
0100
0000
0010
0000
0001
0000
,
0010
0000
0000
0100
0000
0000
0001
0000
0000
0000
0010
0000
0100
0000
1000
0000
,
0100
0000
0000
0010
0000
0000
0100
0000
0000
0000
0010
0000
1000
0000
0010
0000
,
0011
0101
1001
1010
,
0210
0000
0010
0000
0000
0000
0000
0010
0000
0010
0000
0000
0310
0000
1000
0000
,
0200
0000
1000
0000
0000
0000
0000
1000
0000
1000
0000
0000
1300
0000
0001
0000
,
2000
0000
0100
0000
0000
0000
0000
0100
0000
0100
0000
0000
3100
0000
0010
0000
,
0002
0000
1000
0000
0000
0000
0000
1000
0000
1000
0000
0000
1003
0000
0100
0000
,
0020
0000
0001
0000
0000
0000
0000
0001
0000
0001
0000
0000
0031
0000
1000
0000
,
0020
0000
0100
0000
0000
0000
0000
0100
0000
0100
0000
0000
0130
0000
0001
0000
,
2000
0000
0001
0000
0000
0000
0000
0001
0000
0001
0000
0000
3001
0000
0100
0000
,
0002
0000
0010
0000
0000
0000
0000
0010
0000
0010
0000
0000
0013
0000
0100
0000
;

//---------------dance-single - ----------------
#NOTES:
     dance-single:
     :
     Medium:
     6:
     0.387,0.404,0.190,0.200,0.165: // measure 1
0000
0000
0000
0000
,  // measure 2
0000
0000
0000
0000
,  // measure 3
0000
0000
0000
0000
,  // measure 4
0000
0000
0000
0000
,  // measure 5
1000
0000
0100
0000
1000
0000
0000
0001
0000
0000
0000
0000
0010
0000
0000
0000
,  // measure 6
0100
0000
0010
0000
0100
0000
0000
0010
0000
0000
0000
0000
0001
0000
0000
0000
,  // measure 7
0010
0000
0001
0000
0010
0000
0000
0100
0000
0000
0000
0000
1000
0000
0000
0000
,  // measure 8
0010
0000
1000
0000
0010
0000
0000
1000
0000
0000
0000
0000
0001
0000
0000
0000
,  // measure 9
1001
1000
0010
0100
,  // measure 10
0010
0000
0000
0000
0100
0000
0000
0000
0001
0000
0000
0010
0000
0000
0100
0000
,  // measure 11
0010
0000
0001
0100
0000
0010
0100
0000
,  // measure 12
0001
0010
0001
0000
0100
1000
0100
0000
,  // measure 13
0110
0000
0010
0000
0001
0100
0001
0000
,  // measure 14
0100
0000
0000
0000
0010
0000
1000
0000
0000
0000
1001
0000
0000
0001
0000
0000
,  // measure 15
0101
0000
0000
0000
0200
0000
0000
0000
0310
0000
0000
0100
0000
0000
0001
0000
,  // measure 16
0010
0000
0000
0001
0000
0000
0020
0000
0000
0000
0130
0000
0000
0000
0000
0000
,  // measure 17
0010
0000
0000
0001
0000
0000
0200
0000
0000
0000
0000
0000
0310
0000
0000
0000
,  // measure 18
1000
0000
0001
1000
0001
0000
0010
0000
,  // measure 19
0110
0000
0000
0000
0200
0000
0000
0000
1300
0000
0000
0010
0000
0000
0100
0000
,  // measure 20
0010
0000
0000
0100
0000
0000
0002
0000
0000
0000
0013
0000
0000
0000
0000
0000
,  // measure 21
0100
0000
0000
0010
0000
0000
0002
0000
0000
0000
0000
0000
0103
0000
0000
0000
,  // measure 22
0010
0000
0100
0001
0100
0000
0001
0000
,  // measure 23
1001
0000
0000
0000
2000
0000
0000
0000
3010
0000
0000
0100
0000
0000
0010
0000
,  // measure 24
0100
0000
0000
0001
0000
0000
0020
0000
0000
0000
0130
0000
0010
0000
0000
0000
,  // measure 25
0001
0000
0000
0100
0000
0000
0020
0000
0000
0000
0130
0000
0001
0000
0000
0000
,  // measure 26
1000
0100
1000
0000
0010
1000
0010
0000
,  // measure 27
0101
0000
0000
0000
0002
0000
0000
0000
0013
0000
0000
0100
0000
0000
0010
0000
,  // measure 28
0001
0000
0000
0100
0000
0000
0020
0000
0000
0000
0130
0000
0010
0000
0000
0000
,  // measure 29
1000
0000
0000
0001
0000
0000
0020
0000
0000
0000
0130
0000
0010
0000
0000
0000
,  // measure 30
0001
0100
0001
0000
0010
0100
0010
0000
,  // measure 31
0011
0000
0000
0000
0000
0000
0001
0000
0100
0000
0000
0010
0000
0000
0100
0000
,  // measure 32
0010
0000
0000
1000
0000
0000
0100
0000
1000
0000
0000
0001
0000
0000
0100
0000
,  // measure 33
0001
0000
0000
0000
0000
0000
0100
0000
0010
0000
0000
1000
0000
0000
0100
0000
,  // measure 34
0010
0000
0000
0100
0000
0000
1000
0000
0010
0000
0000
1000
0000
0000
0010
0000
,  // measure 35
0100
0000
0000
0000
0000
0000
0010
0000
0100
0000
0000
0001
0000
0000
0010
0000
,  // measure 36
0100
0000
0000
0010
0000
0000
0001
0000
0100
0000
0000
0000
0010
0000
0000
0000
,  // measure 37
0100
0010
0100
0000
0001
0010
0001
0000
,  // measure 38
1000
0000
0000
0001
0000
0000
0100
0000
0110
0000
0000
0000
1001
0000
0000
0000
,  // measure 39
0000
0000
0000
0000
0001
0000
0000
0010
0000
0000
0100
0000
0010
0000
0000
0000
,  // measure 40
0100
0000
0000
0010
0000
0000
0001
0000
0000
0000
0100
0000
0010
0000
0000
0000
,  // measure 41
0100
0000
0000
0001
0000
0000
0010
0000
0000
0000
0100
0000
0010
0000
0000
0000
,  // measure 42
0011
1001
1010
0110
,  // measure 43
0100
0000
0000
0000
0001
0000
0000
0010
0000
0000
0100
0000
0010
0000
0000
0000
,  // measure 44
0001
0000
0000
0100
0000
0000
0010
0000
0000
0000
0100
0000
0001
0000
0000
0000
,  // measure 45
0010
0000
0000
0100
0000
0000
0010
0000
0000
0000
0001
0000
0100
0000
0000
0000
,  // measure 46
0101
1001
1010
0110
,  // measure 47
1002
0000
0000
0000
0000
0000
1003
0100
,  // measure 48
2000
0000
0000
0000
0000
0000
3010
0100
,  // measure 49
0020
0000
0000
0000
0000
0000
0130
0001
,  // measure 50
0200
0000
0000
0000
0000
0000
0301
0010
,  // measure 51
0002
0000
0000
0000
0000
0000
1003
0100
,  // measure 52
2000
0000
0000
0000
0000
0000
3010
0100
,  // measure 53
0020
0000
0000
0000
0000
0000
1030
0001
,  // measure 54
2000
0000
0000
0000
0000
0000
3001
0010
;

//---------------dance-single - ----------------
#NOTES:
     dance-single:
     :
     Easy:
     4:
     0.247,0.378,0.180,0.100,0.000: // measure 1
0000
0000
0000
0000
,  // measure 2
0000
0000
0000
0000
,  // measure 3
0000
0000
0000
0000
,  // measure 4
0000
0000
0000
0000
,  // measure 5
1000
0010
0000
0100
,  // measure 6
0001
0010
0000
0100
,  // measure 7
0010
0001
0000
0100
,  // measure 8
0010
1000
0000
0001
,  // measure 9
1001
1000
0010
0100
,  // measure 10
0010
0000
0100
0000
,  // measure 11
0002
0000
0000
2000
0000
0000
0003
0000
,  // measure 12
3010
1000
0100
1000
,  // measure 13
1001
0001
0100
0010
,  // measure 14
0100
0000
0000
0001
0000
1001
0000
0000
,  // measure 15
0110
0100
0010
0000
,  // measure 16
0100
0000
0000
0001
0000
0000
0010
0000
,  // measure 17
0100
0000
0000
0010
0000
0000
0001
0000
,  // measure 18
0100
0010
0100
0001
,  // measure 19
1000
0010
0100
0000
,  // measure 20
0001
0000
0000
0010
0000
0000
0100
0000
,  // measure 21
0010
0000
0000
0001
0000
0000
0100
0000
,  // measure 22
0010
0100
0001
1000
,  // measure 23
1001
0001
0100
0000
,  // measure 24
0010
0000
0000
0100
0000
0000
0001
0000
,  // measure 25
0010
0000
0000
0100
0000
0000
0010
0000
,  // measure 26
0001
0100
0010
0100
,  // measure 27
0110
0010
1000
0000
,  // measure 28
0001
0000
0000
0010
0000
0000
0100
0000
,  // measure 29
0010
0000
0000
0001
0000
0000
0100
0000
,  // measure 30
0010
0100
0001
1000
,  // measure 31
1001
0000
0000
0001
0000
0000
0100
0000
,  // measure 32
0010
0000
0000
1000
0000
0000
0100
0000
,  // measure 33
0010
0000
0000
0100
0000
0000
0010
0000
,  // measure 34
0001
0000
0000
0100
0000
0000
0010
0000
,  // measure 35
0100
0000
0000
0010
0000
0000
1000
0000
,  // measure 36
0001
0000
0000
0010
0000
0000
0001
0000
,  // measure 37
0100
0001
0010
0100
,  // measure 38
1000
0000
1001
1001
,  // measure 39
0000
0100
0010
0100
,  // measure 40
0001
0000
0000
0010
0000
0000
0100
0000
,  // measure 41
0010
0001
0100
0010
,  // measure 42
1010
0101
1010
0101
,  // measure 43
0100
0010
0100
0001
,  // measure 44
0010
0000
0000
0100
0000
0000
0010
0000
,  // measure 45
0001
0100
0010
1000
,  // measure 46
1100
0011
1100
0011
,  // measure 47
1002
0000
0000
0000
,  // measure 48
0200
0000
0000
0003
,  // measure 49
0020
0000
0000
0300
,  // measure 50
2000
0000
0000
0030
,  // measure 51
0200
0000
0000
3000
,  // measure 52
0020
0000
0000
0300
,  // measure 53
0002
0000
0000
0030
,  // measure 54
2000
0000
0000
0000
,  // measure 55
3003
0000
0000
0000
;
