#TITLE:Sexy Naughty Bitchy;
#SUBTITLE:;
#ARTIST:Tata Young;
#TITLETRANSLIT:;
#SUBTITLETRANSLIT:;
#ARTISTTRANSLIT:;
#GENRE:;
#CREDIT:;
#MENUCOLOR:;
#METERTYPE:DDR;
#BANNER:Sexy Naughty Bitchy-bn.png;
#BACKGROUND:Sexy Naughty Bitchy-bg.png;
#LYRICSPATH:;
#CDTITLE:PROJECT AZURE-cdtitle.png;
#MUSIC:Sexy Naughty Bitchy.mp3;
#OFFSET:-0.100;
#SAMPLESTART:49.060;
#SAMPLELENGTH:12.000;
#SELECTABLE:YES;
#LISTSORT:;
#BPMS:0.000=98.000;
#STOPS:;
#BGCHANGES:;
#ATTACKS:;

//---------------dance-single - ----------------
#NOTES:
     dance-single:
     :
     Beginner:
     1:
     0.116,0.141,0.047,0.031,0.000:
0000
0000
0000
0000
,
0000
0000
0000
0000
,
0000
0000
0000
0000
,
0000
0000
0000
0000
,
1001
0000
0001
0000
,
0100
0000
0010
0000
,
1000
0000
0001
0000
,
0010
0010
0010
0000
,
1001
0000
0000
0000
,
1000
0000
0000
0000
,
0001
0000
0000
0000
,
0100
0000
0010
0010
,
0010
0000
0000
0000
,
0001
0000
0000
0000
,
1000
0000
0000
0000
,
0010
0000
1000
1000
,
2000
0000
3000
0000
,
0020
0000
0030
0000
,
0200
0000
0300
0000
,
0002
0000
0003
0000
,
1001
0000
0001
0000
,
0010
0000
0000
1000
,
1000
0000
0001
0000
,
0100
0000
0000
0010
,
0010
0000
1000
0000
,
0001
0000
0000
0100
,
0100
0000
0010
0000
,
0001
0001
0001
0000
,
1001
0000
0100
0000
,
0010
0000
0000
1000
,
1000
0000
0001
0000
,
0100
0000
0000
0001
,
0001
0000
0010
0000
,
0001
0000
0000
0010
,
0010
0000
0100
0000
,
1000
1000
1000
0000
,
1001
0000
0010
0000
,
0100
0000
0000
0010
,
0010
0000
1000
0000
,
0001
0000
0000
0001
,
0001
0000
0100
0000
,
0010
0000
0000
1000
,
1000
0000
0001
0000
,
0100
0100
0100
0000
,
0110
0000
0010
0000
,
0010
0000
0010
0000
,
1000
0000
1000
0000
,
1000
0000
0001
0000
,
0010
0000
0001
0000
,
0010
0000
0001
0000
,
1000
0000
0100
0000
,
0010
0010
0010
0010
;

//---------------dance-single - ----------------
#NOTES:
     dance-single:
     :
     Easy:
     3:
     0.248,0.262,0.164,0.203,0.000:
0000
0000
0000
0000
,
0000
0000
0000
0000
,
0000
0000
0000
0000
,
0000
0000
0000
0000
,
0010
0001
0100
0001
,
1000
0010
0000
1000
,
1000
0100
0010
0001
,
1001
0110
1001
1001
,
0010
0100
0010
1000
,
0100
1000
0001
0001
,
0010
0001
0100
0010
,
1000
0100
0001
0100
,
1001
0010
0100
0001
,
0001
1000
0200
1000
,
1300
0010
0100
0001
,
0010
0001
1001
1001
,
0020
0000
1000
0000
,
0100
0000
1000
0030
,
0200
0000
0001
0000
,
0010
0310
0000
1001
,
1001
0010
0001
0010
,
0002
1000
0000
0103
,
0010
1000
0010
1000
,
2000
0001
0000
3100
,
0010
1000
0001
0100
,
0020
0100
0000
1030
,
0001
1000
1000
0100
,
2000
3001
0110
1001
,
1001
1000
0001
0001
,
0200
0010
0000
0301
,
1000
0001
1000
0010
,
2000
0010
0000
3100
,
0001
0010
0100
1000
,
0002
0100
0000
1003
,
0010
0100
0001
1000
,
0002
1003
0110
1001
,
1001
0010
0100
1000
,
0001
0100
0000
0110
,
0001
1000
0100
0010
,
0001
1000
0000
1100
,
0001
0100
0010
0010
,
1000
0001
0000
0101
,
1000
1000
0001
0001
,
0200
0310
1001
0110
,
0002
0103
2000
3100
,
0002
0013
2000
3010
,
0002
0013
0020
0130
,
0200
1300
2000
3001
,
0002
0103
2000
3100
,
0002
0103
2000
3100
,
0002
0013
2000
3010
,
0001
0000
1000
0000
0001
1000
1001
0000
;

//---------------dance-single - ----------------
#NOTES:
     dance-single:
     :
     Medium:
     5:
     0.342,0.343,0.179,0.351,0.000:
0000
0000
0000
0000
,
0000
0000
0000
0000
,
0000
0000
0000
0000
,
0000
0000
0000
0000
,
0002
0000
0203
0000
0320
1000
1030
0000
,
0002
0000
2003
0000
0000
0010
3010
0000
,
0002
0000
2003
0000
3200
0010
0310
0000
,
0001
0000
1000
0000
0001
0001
1001
0000
,
0010
1000
0010
1000
0001
0000
0000
0000
,
0010
0100
0010
0100
1000
0000
0000
0000
,
0010
0100
0010
0100
0002
0000
2003
0000
,
3002
0000
0203
0000
0010
0310
0110
0000
,
0001
0000
1000
0000
0001
0100
1000
0000
,
0100
0000
0010
1000
0200
0000
0320
0000
,
0031
0000
1000
0000
0001
1000
1000
0000
,
0100
0000
1000
0000
0010
0010
1001
0000
,
0002
0100
2003
0010
,
3002
0100
2003
0100
,
3020
1000
0001
1000
,
0200
0000
0000
0330
0000
0110
0110
0000
,
1001
0000
0010
0000
1000
1000
0100
0000
,
1000
0000
0001
0000
0000
0001
0101
0000
,
0010
0000
1000
0000
0001
0001
0100
0000
,
0010
0000
1000
0000
0000
1000
1100
0000
,
0001
0000
0100
0000
0010
1000
0010
0000
,
1000
0000
0001
0000
0000
0010
0110
0000
,
0001
0000
0100
0000
0010
1000
0001
0000
,
0010
0010
0100
0100
1000
0001
1001
0000
,
0110
0000
1001
0000
0001
0100
0001
0000
,
1000
0100
0010
0100
0000
0010
0011
0000
,
1000
0000
0001
0000
0100
0010
0100
0000
,
0001
0100
0001
1000
0000
0001
0101
0000
,
1000
0000
0100
0000
0001
0100
1000
0000
,
0010
0100
0010
1000
0000
0001
0011
0000
,
0100
0000
0010
0000
0100
0100
0010
0000
,
1000
0100
0010
0001
0100
0001
1001
0000
,
0002
0000
0203
0000
1300
0100
0020
0000
,
1030
0001
1000
0001
0000
1000
1001
0000
,
2000
0000
3200
0000
0310
0001
2000
0000
,
3001
0100
1000
0100
0000
0001
1001
0000
,
0020
0000
0230
0000
1300
0010
2000
0000
,
3100
0010
0001
0100
0000
0010
1010
0000
,
0002
0000
0023
0000
0031
0100
0001
0000
,
1000
1000
0100
0100
0010
0001
1001
0000
,
0000
0001
0002
0000
0003
1000
2000
0000
,
3000
0100
0200
0000
0300
0010
0020
0000
,
0030
0001
0002
0000
0003
0010
0020
0000
,
0030
1000
2000
0000
3000
0010
0020
0000
,
0030
0001
0002
0000
0003
1000
2000
0000
,
3000
0010
0020
0000
0030
0100
0200
0000
,
0300
0001
0002
0000
0003
1000
2000
0000
,
3001
0001
0100
0100
1001
1001
0110
0000
;

//---------------dance-single - ----------------
#NOTES:
     dance-single:
     :
     Hard:
     7:
     0.448,0.444,0.413,0.257,0.140: // measure 1
0000
0000
0000
0000
,  // measure 2
0000
0000
0000
0000
,  // measure 3
0000
0000
0000
0000
,  // measure 4
0000
0000
0000
0000
,  // measure 5
1001
0000
0000
0000
0010
0000
0000
0000
0001
0000
0100
0001
0000
0000
0000
0000
,  // measure 6
1010
0000
0000
1000
0000
0000
0001
0000
0000
0000
0010
0000
1001
0000
0000
0000
,  // measure 7
0001
0000
0000
0000
0100
0000
0010
0000
0010
0000
0000
1000
0000
0000
0001
0000
,  // measure 8
0100
0001
1000
0010
1000
0110
1001
0000
,  // measure 9
0011
0000
0001
0000
0001
0000
1000
0000
0100
0000
1000
0010
0000
0000
0100
0000
,  // measure 10
1001
0000
0010
0000
0001
0000
0100
0000
0010
0000
1000
0001
0000
0000
0001
0000
,  // measure 11
0101
0000
0001
0000
0100
0000
1000
0000
0100
0000
0000
0010
0000
0000
1000
0000
,  // measure 12
1100
1000
0001
0100
0010
1001
1001
0010
,  // measure 13
0110
0000
1000
0000
1000
0000
0001
0000
0001
0000
0100
0001
0000
0000
0100
0000
,  // measure 14
1001
0000
0010
0000
1000
0000
0001
0000
0200
0000
0000
0320
0000
0000
2030
0000
,  // measure 15
3001
0000
0000
0100
0000
0000
0001
0000
0000
0010
0000
0000
0100
0000
0000
1000
,  // measure 16
0000
0000
0010
0000
0100
0000
0001
0000
1000
0000
0001
0010
0000
0000
0100
0000
,  // measure 17
2001
3010
0102
1003
,  // measure 18
0210
0301
0012
1003
,  // measure 19
0001
0100
0001
0100
0001
0100
0001
0100
,  // measure 20
0010
1000
0010
1000
0000
0101
1001
0000
,  // measure 21
0110
0000
0000
0000
1010
0000
0000
0000
0001
0100
0001
0000
1000
0000
0000
0010
,  // measure 22
0100
0000
0000
0010
0000
0000
1000
0000
0001
0000
0100
0000
0002
0000
0000
0000
,  // measure 23
0013
0000
0000
0000
0001
0000
1000
0000
0010
1000
0010
0000
0100
0000
0000
0000
,  // measure 24
0001
0000
0000
0010
0000
0000
0100
0000
1000
0000
0001
0000
0200
0000
0000
0000
,  // measure 25
0310
0000
0000
0000
0010
0000
0000
0000
1000
0000
0100
1000
0000
0000
0010
0000
,  // measure 26
0100
0000
0000
0001
0000
0000
0010
0000
0001
0000
1000
0000
0020
0000
0000
0000
,  // measure 27
0130
0000
0000
0000
0001
0000
0000
0001
0010
0000
0010
0001
0000
0000
1000
0000
,  // measure 28
0001
0001
0010
0100
1001
1010
1001
0000
,  // measure 29
0120
0000
0000
0000
1030
0000
0000
0000
0001
0100
0001
0000
1000
0000
0000
0010
,  // measure 30
0200
0000
0000
0302
0000
0000
2003
0000
3001
0000
1100
0000
1001
0000
0000
0000
,  // measure 31
0102
0000
0000
0000
0013
0000
0000
0000
0001
0100
0001
0000
1000
0000
0000
0000
,  // measure 32
0010
0000
0010
0100
0000
0100
0001
0000
1000
0000
0010
0000
0100
0000
0000
0000
,  // measure 33
2100
0000
0000
0000
3001
0000
0000
0000
0001
0000
0100
0001
0000
0000
1000
0000
,  // measure 34
0010
0000
0010
1000
0000
1000
0001
0000
0100
0000
0010
0000
1001
0000
0000
0000
,  // measure 35
0210
0000
0000
0000
0301
0000
0000
1000
0100
0000
0100
1000
0000
0000
1000
0000
,  // measure 36
0001
0001
0010
0100
1001
1010
1001
0000
,  // measure 37
0012
0000
0000
0000
1003
0000
0010
0000
0100
0001
0100
0000
0002
0000
0000
0000
,  // measure 38
1003
0100
0010
0001
0000
1001
0110
0000
,  // measure 39
0002
0000
0000
0000
0203
0000
0000
0000
0310
1000
0010
0000
0100
0000
0000
0000
,  // measure 40
0010
1000
0100
1000
0000
0101
1010
0000
,  // measure 41
2000
0000
0000
0000
3200
0000
0000
0000
0310
0001
0010
0000
0001
0000
0000
0000
,  // measure 42
0100
0010
1000
0001
0000
1100
0011
0000
,  // measure 43
2000
0000
0000
0000
3002
0000
0000
0000
0013
0000
0001
0100
0000
0000
0010
0000
,  // measure 44
1000
1000
0100
0010
1001
0011
1001
0000
,  // measure 45
0010
1000
2000
0100
3010
1000
0002
0010
,  // measure 46
0103
0001
2000
0010
3001
0100
0002
0000
,  // measure 47
1003
0001
0020
0001
0130
0010
0002
1000
,  // measure 48
0103
0010
2000
0001
3010
1000
0002
0000
,  // measure 49
0013
0001
0011
0000
0010
1000
1010
0000
,  // measure 50
1000
0001
0101
0000
0010
0100
1001
0000
,  // measure 51
1000
0100
0011
0000
0001
0100
1010
0000
,  // measure 52
0001
0001
1000
0001
1010
0011
0110
0000
;

//---------------dance-single - ----------------
#NOTES:
     dance-single:
     :
     Challenge:
     9:
     0.662,0.585,0.670,0.304,0.483: // measure 1
0000
0000
0000
0000
,  // measure 2
0000
0000
0000
0000
,  // measure 3
0000
0000
0000
0000
,  // measure 4
0000
0000
0020
0000
,  // measure 5
1030
0000
0001
0100
0001
0000
1000
0000
0001
0000
0010
0001
0000
0001
0100
0010
,  // measure 6
1000
0000
0100
0001
0000
0001
0100
0000
1000
0000
0101
0000
1001
0000
0010
0100
,  // measure 7
0010
0000
1000
0100
0010
0000
0100
0010
0001
0000
0001
0100
0000
0010
1000
0000
,  // measure 8
0001
0000
0110
0000
0001
0000
1100
0000
0011
0000
0101
0000
1001
0000
0001
0100
,  // measure 9
1001
0000
0001
0100
0001
1000
0100
1000
0010
0000
0100
0001
1000
0000
0020
0000
,  // measure 10
1030
0000
0001
1000
0001
0010
0001
0000
0100
0000
0010
1000
0100
0000
1000
0000
,  // measure 11
1001
0000
0010
0100
0010
0000
1000
0100
0010
0000
0010
0001
0000
0001
0100
0000
,  // measure 12
0001
1000
0001
0100
0000
0010
1000
0001
1000
0000
0010
0000
1000
0100
0010
0001
,  // measure 13
1001
0000
0100
0000
0010
0000
0001
0100
0010
0000
0010
1000
0001
0000
0010
0000
,  // measure 14
0011
0000
0001
0000
0100
0010
1000
0010
2000
0000
0000
3020
0000
0000
0230
0000
,  // measure 15
0301
0000
0010
0001
0000
0001
0100
0000
0010
1000
0000
1000
0100
0000
0100
0010
,  // measure 16
0000
0001
0100
0000
0001
1000
0001
0000
0100
0000
0010
0100
0010
0000
1000
0001
,  // measure 17
2000
0000
0000
3001
0010
0100
1000
0100
0010
0001
0010
0100
,  // measure 18
1000
0000
0000
0000
0100
0000
0000
0000
0010
0000
0000
0000
0001
0000
0000
0000
0010
0000
0000
0000
0000
0000
0001
0000
0000
0000
0000
0100
0000
0000
0001
0000
0000
0100
0000
0000
0001
0000
0000
0000
0000
0000
1000
0000
0000
0001
0000
0000
,  // measure 19
1000
0100
0010
0001
0010
0100
1000
0100
0010
0001
0010
0100
,  // measure 20
1000
0000
0000
0000
0100
0000
0000
0000
0010
0000
0000
0000
0001
0000
0000
0000
1000
0000
0000
0000
0010
0000
0000
0000
0100
0000
0000
0001
0000
0000
1000
0000
0000
0000
0000
0000
1001
0000
0000
0000
0000
0000
0000
0000
0000
0000
0000
0000
,  // measure 21
0110
0000
0010
0000
1010
0000
0001
0000
0101
0000
0011
0000
1010
0000
1000
0001
,  // measure 22
0100
0000
0100
0010
0000
0010
1000
0000
0001
0000
0101
0000
0101
0000
0001
0010
,  // measure 23
1000
0000
1000
0010
0001
0000
0100
0000
0010
0100
0020
0000
2030
0000
3001
1000
,  // measure 24
0001
0000
0001
0100
0000
0100
0010
0000
1000
0000
1010
0000
0101
0000
1000
0100
,  // measure 25
0010
0000
0100
0010
0001
0000
0100
0000
0001
0000
0001
0100
0010
0000
1000
0001
,  // measure 26
1000
0000
1000
0100
0000
0100
0010
0000
0001
0000
0011
0000
1100
0000
0001
0000
,  // measure 27
0110
0000
0001
0100
0001
0000
1000
0100
0010
0000
0100
1000
0100
0000
0010
0000
,  // measure 28
0002
0103
2000
3100
0101
1100
0022
0033
,  // measure 29
1001
0000
0001
0000
1010
0000
0100
0000
0011
0000
0110
0000
1001
0000
1000
0100
,  // measure 30
0001
0000
0001
0100
1000
0001
0100
0000
0010
0000
1001
0000
0110
0000
0001
0000
,  // measure 31
1100
0000
0001
0010
0100
0000
0100
0010
0001
0000
1000
0000
1010
0000
0001
0100
,  // measure 32
0001
0000
0010
0001
0100
0010
1000
0000
0001
0000
1010
0000
1001
0000
0001
0100
,  // measure 33
0001
0000
0010
0100
1000
0000
0100
0010
0001
0100
1000
0100
0010
0000
1000
0001
,  // measure 34
0010
0000
0010
0001
0000
1000
0001
0000
0100
0000
0110
0000
1001
0000
0010
0000
,  // measure 35
0011
0000
0100
0000
1010
0000
0010
1000
0001
0000
0100
0001
1000
0000
0010
0000
,  // measure 36
2000
3100
0002
0103
0011
1010
0202
0303
,  // measure 37
1001
0000
0010
0000
0011
0000
0100
0000
1010
0000
0110
0000
0101
0000
1000
0100
,  // measure 38
0010
0000
0010
0100
0000
0001
0100
0000
0001
0000
1010
0000
0101
0000
0010
0001
,  // measure 39
0100
0000
0010
0000
1001
0000
0100
0000
0001
1000
0001
0000
1010
0000
0001
0100
,  // measure 40
0001
0000
0001
0100
0000
0100
1000
0000
0100
0000
0011
0000
1001
0000
1000
0100
,  // measure 41
0001
0000
0100
1000
0010
0000
0100
0001
1000
0000
0010
0000
1001
0000
0010
0100
,  // measure 42
0010
0000
0100
0001
0000
0001
0010
0000
0001
0000
1100
0000
0011
0000
0100
0000
,  // measure 43
1001
0000
0001
0100
0001
0000
1000
0100
1000
0000
1000
0010
0000
0100
0010
0100
,  // measure 44
0002
0013
2000
3010
0101
0011
2020
3030
,  // measure 45
0101
0001
2010
3001
0010
0100
0102
0013
,  // measure 46
0001
0100
2001
3010
0100
0011
0022
0033
,  // measure 47
1001
0010
0210
0301
1000
0001
0021
0130
,  // measure 48
1000
0001
0102
1003
0010
1001
2002
3003
,  // measure 49
1010
0100
0012
1003
0010
1000
2010
3001
,  // measure 50
0010
0100
2001
3001
0010
0110
0220
0330
,  // measure 51
0001
0100
1200
1300
0001
0100
0102
1003
,  // measure 52
0020
0130
0002
1003
1100
0110
1001
0000
;
