#TITLE:SWAGGA;
#SUBTITLE:;
#ARTIST:EXCISION & DATSIK;
#TITLETRANSLIT:;
#SUBTITLETRANSLIT:;
#ARTISTTRANSLIT:;
#CREDIT:;
#BANNER:[Week 5] SWAGGA.png;
#BACKGROUND:[Week 5] SWAGGA-bg.png;
#LYRICSPATH:;
#CDTITLE:;
#MUSIC:[Week 5] SWAGGA.mp3;
#OFFSET:-0.080;
#SAMPLESTART:5.210;
#SAMPLELENGTH:15.600;
#SELECTABLE:YES;
#BPMS:0.000=140.000,12.000=70.000,14.000=140.000,18.000=280.000,20.000=140.000,21.000=70.000,22.000=140.000,50.000=280.000,52.000=140.000,53.000=70.000,54.000=140.000,78.000=70.000,82.000=140.000,101.000=280.000,103.000=140.000,106.000=280.000,108.000=140.000,135.000=280.000,137.000=140.000,140.000=280.000,142.000=140.000,146.000=280.000,148.000=140.000,149.000=70.000,150.000=140.000,151.000=280.000,153.000=140.000,179.000=280.000,181.000=140.000,182.000=70.000,183.000=140.000,207.000=70.000,211.000=140.000,230.000=280.000,232.000=140.000,235.000=280.000,237.000=140.000,264.000=280.000,266.000=140.000,269.000=280.000,271.000=140.000;
#STOPS:;
#BGCHANGES:;

//---------------dance-single - Rygon----------------
#NOTES:
     dance-single:
     Rygon:
     Hard:
     9:
     0.573,0.595,0.371,0.536,0.696:
0000
0000
0000
0000
,
0000
0000
0000
0000
,
0000
0000
0000
0000
,
2002
0000
0000
0000
0000
0000
3003
0000
0000
0000
0000
0000
1000
0000
0000
0000
0001
0000
0000
0000
0000
0001
0000
0000
,
0010
0100
0010
0100
2000
0000
0000
0000
,
0000
0000
0000
3000
1020
0000
0000
0000
,
0100
0000
0000
0230
0002
0000
0300
0000
,
2000
0000
0000
3003
0000
0000
1000
0000
0100
0000
0001
0000
,
0101
0000
1100
0000
1001
0000
0001
0000
0100
0000
1000
0000
,
1100
0000
0101
0000
1001
0000
0220
0000
0000
0330
0000
2000
,
0002
0000
0000
3003
0000
0000
0220
0000
0000
0330
0000
0002
,
2000
0000
3003
0000
0001
0100
1000
0100
,
0001
0010
1000
0010
0002
0000
0000
0000
,
0000
0000
0000
0000
0000
0000
0000
0000
0000
0003
0000
0000
0021
0000
0000
0000
0000
0000
0030
0000
0000
0000
0010
0000
,
0200
0000
0000
0000
0300
0000
2100
0000
0000
3000
0000
2000
,
0002
0000
0000
3003
0000
0000
0001
0000
0100
0000
1000
0000
,
1100
0000
0101
0000
1001
0000
1000
0000
0100
0000
0001
0000
,
0101
0000
1100
0000
1001
0000
0220
0000
0000
0330
0000
0002
,
2000
0000
0000
3003
0000
0000
0220
0000
0000
0330
0000
2000
,
0002
3003
0002
0000
,
2003
0000
0000
0000
0000
0000
3001
0000
0100
1000
0000
0100
,
0001
0000
1000
0001
0010
0100
1000
0000
0100
0001
0000
0100
,
1000
0000
0001
1000
0100
0010
0001
0000
0010
0100
0010
0100
,
1000
0000
0001
1000
0001
1000
0001
0000
0100
0010
0100
0010
,
1000
0000
0001
1000
0001
1000
0001
0000
0100
1000
0000
0001
,
0010
0000
1000
0002
0000
0000
0000
0000
0000
1003
0000
0100
,
0001
0000
1000
0010
0000
0001
2000
0000
0000
0000
0000
0000
,
3010
0000
0000
0000
0000
0000
0110
0000
0000
0000
0010
0000
1000
0000
0000
0000
0000
0000
1001
0000
0000
1000
0000
0000
,
0001
0000
0000
1001
0000
1000
0010
0000
0000
0110
0000
0000
,
1000
0000
0100
0001
0000
0100
1000
0000
0001
1000
0010
0100
,
0001
0000
0100
1000
0000
0100
0001
0000
1000
0001
0100
0010
,
1000
0000
0010
0100
0010
0100
0001
0000
1000
0001
1000
0001
,
1000
0000
0100
0010
0100
0010
0001
0000
1000
0001
1000
0001
,
1000
0000
0100
0001
0000
1000
0010
0000
0001
2000
0000
0000
,
0000
0000
3001
0100
1000
0000
0001
0010
,
2000
0000
0000
0000
0000
0000
0000
0000
0000
0000
0000
0000
3001
0000
0000
0000
1000
0000
0000
0000
0000
1000
0000
0000
,
0100
0010
0100
0010
0002
0000
0000
0000
,
0000
0000
0000
0003
0021
0000
0230
0000
,
0000
0000
0000
2300
0000
0000
3000
0000
0000
1000
0100
0010
,
0001
0010
0100
2000
0000
0000
0000
0000
0000
3001
0000
0010
,
0000
0100
0000
0101
0000
1100
0000
1001
0000
1000
0000
0010
,
0000
0100
0000
1100
0000
0101
0000
1001
0000
0220
0000
0000
,
0330
0000
2000
0002
0000
0000
3003
0000
0000
0220
0000
0000
,
0330
0000
0000
0000
0002
0000
2000
0000
0000
0000
0000
0000
3003
0000
0000
0000
0000
0000
1000
0000
0000
0100
0000
0000
,
0001
0100
1000
0010
0001
0010
2000
0000
,
0000
0000
0000
0000
0000
0000
0000
0000
0000
0000
0000
0000
0000
0000
0000
3000
0000
0000
0001
0000
0010
0000
0100
0000
,
0001
0100
0010
0001
0000
1001
0000
1001
0000
1000
0010
0100
,
1000
0100
0010
2000
0000
0000
0000
0000
0000
3001
0000
0100
,
0000
0010
0000
0011
0000
1010
0000
1001
0000
1000
0000
0100
,
0000
0010
0000
1010
0000
0011
0000
1001
0000
0220
0000
0000
,
0330
0000
0002
2000
0000
0000
3003
0000
0000
0220
0000
0000
,
0330
0000
2000
0002
0000
0000
3003
0000
0000
2000
0000
0000
,
0000
0000
0000
3002
0000
0000
0000
0000
0000
1003
0000
0100
,
0010
0000
1000
0001
0000
0100
1000
0001
0010
0001
0000
0100
,
0010
0000
0001
1000
0000
0100
0010
1000
0001
1000
0000
0100
,
0001
1000
0001
0100
0000
0100
0001
0100
0010
0001
0000
0100
,
1000
0100
0010
1000
0000
0100
0001
1000
0010
0001
0000
1000
,
0010
0000
0001
1000
0000
0100
0002
0000
0000
0000
0000
0000
,
1003
0000
0001
0010
0000
1000
0001
0000
0100
2000
0000
0000
,
0000
0000
0000
3001
0000
0000
0100
0000
0010
0100
0000
0000
,
1001
0000
1000
0001
0000
0000
1000
0000
0100
0010
0000
0000
,
1001
0000
0000
1000
0000
0001
0001
0000
1000
1000
0000
0001
,
1000
0100
0010
0001
0000
1000
1000
0000
0001
0001
0000
1000
,
0010
0100
0010
0100
0000
0010
0010
0100
0100
0001
0000
1000
,
1000
0001
0001
0010
0000
0100
0100
0010
0010
0001
0000
1000
,
1000
0001
0001
1000
0000
0100
0001
0000
0100
1000
0000
0010
,
0200
0000
0000
0000
0301
0100
1000
0000
,
0100
0001
0020
0000
0000
0000
0230
0000
,
0000
0000
0000
0300
;

//---------------dance-single - Rygon----------------
#NOTES:
     dance-single:
     Rygon:
     Medium:
     6:
     0.404,0.453,0.494,0.709,0.008:
0000
0000
0000
0000
,
0000
0000
0000
0000
,
0000
0000
0000
0000
,
2002
0000
0000
3003
0000
0000
1000
0000
0001
0000
0000
0000
,
0100
0010
2000
0000
,
0000
0000
0000
3000
2100
0000
0000
0000
,
0002
3003
0202
0300
,
2000
3003
1000
0100
,
0110
0010
0001
0100
,
0110
0010
2000
0000
,
3002
0000
0023
0000
,
0230
0000
1300
0100
,
0001
1000
0020
0000
,
0000
0000
0000
0030
0022
0000
0030
0000
,
0200
0303
2010
0000
,
0200
3300
0010
0001
,
0101
0100
0010
1000
,
1100
0100
0220
0330
,
2002
3003
0220
0330
,
2002
3003
2000
0000
,
3002
0000
1003
0100
,
0102
0103
1000
0010
,
0012
0013
1000
0100
,
0012
0103
0001
0100
,
2010
3100
1000
0001
,
0210
2300
0000
3001
,
0100
0120
2030
0000
,
3001
0000
1001
0000
,
1000
0000
1001
0000
,
0001
0100
2100
3100
,
0001
0010
2010
3010
,
0001
0100
2010
3100
,
1000
0100
0012
0103
,
0001
1000
0210
0302
,
0000
1003
0000
1002
,
2003
0000
0000
0000
0000
0000
3001
0000
1000
0000
0000
0000
,
0100
0010
0002
0000
,
0000
0000
0000
0003
0201
0000
0302
0000
,
0000
0023
0030
0100
,
0100
2002
3003
1000
,
0001
0110
1000
0001
,
1000
0110
0001
2000
,
3000
0220
0330
0002
,
0003
0220
0330
1000
,
0100
0011
1010
0002
,
0000
0000
0000
0000
0000
0003
0101
0000
,
1100
0202
0303
1100
,
0101
2200
3300
0001
,
0100
1010
0001
1000
,
0100
0011
1000
0002
,
0003
0202
0303
0020
,
0030
2020
3030
2000
,
0000
3002
0000
1003
,
0100
0201
0301
1000
,
0010
0021
0031
1000
,
0010
0021
0031
1000
,
0100
0201
0301
1000
,
0001
0120
0032
0000
,
1003
0001
0120
2030
,
0000
3001
0000
1001
,
0000
1000
0000
1001
,
0000
0001
0100
1200
,
1300
0001
0010
1020
,
1030
0001
0010
1020
,
1030
0001
0100
1200
,
1300
0001
1000
0120
,
0032
0000
1003
0100
,
0011
0220
0300
0230
,
0000
0000
0000
0300
;

//---------------dance-single - Rygon----------------
#NOTES:
     dance-single:
     Rygon:
     Easy:
     4:
     0.214,0.283,0.173,0.074,0.000:
0000
0000
0000
0000
,
0000
0000
0000
0000
,
0000
0000
0000
0000
,
2002
3003
1000
0000
,
0001
0000
0200
0000
,
0000
0000
0000
0300
0010
0000
0000
0000
,
0100
0000
0001
0000
,
1000
0000
0100
0100
,
0010
0010
0100
0100
,
0010
0010
0001
0000
,
1000
0000
0110
0000
,
1001
0000
1000
0000
,
0001
0000
0020
0000
,
0000
0000
0000
0030
0100
0000
0000
0000
,
1000
0000
0010
0000
,
0100
0000
0001
0001
,
1000
1000
0001
0001
,
1000
1000
0001
0000
,
0010
0000
0100
0000
,
1000
0000
0010
0000
,
0100
0000
0001
0010
,
0011
0000
0010
0100
,
0110
0000
0100
1000
,
1100
0000
1000
0001
,
1001
0000
1000
0001
,
2000
3000
0000
0001
,
1000
0002
0003
0000
,
1000
0000
0000
0000
,
0001
0000
0000
0000
,
1000
0010
1010
0000
,
0010
0100
0110
0000
,
0100
0001
0101
0000
,
0001
1000
1001
0000
,
0001
0000
1000
0000
,
0000
1000
0000
0001
,
0000
0000
0001
0000
,
1000
0000
0200
0000
,
0000
0000
0000
0300
0010
0000
0000
0000
,
0000
0100
0000
1000
,
0000
0001
0000
0100
,
0100
0010
0010
0100
,
0100
0010
0010
1000
,
0000
0001
0000
0110
,
0000
1001
0000
0001
,
0000
1000
0000
0020
,
0000
0000
0000
0000
0000
0030
0100
0000
,
0000
0001
0000
0010
,
0000
0100
0000
1000
,
1000
0001
0001
1000
,
1000
0001
0001
1000
,
0000
0010
0000
0100
,
0000
0001
0000
0010
,
0000
0100
0000
1000
,
0010
1010
0000
0010
,
0100
0110
0000
0100
,
0001
0101
0000
0001
,
1000
1001
0000
1000
,
0000
0001
0000
0000
,
0001
0000
1000
0000
,
0000
0010
0000
0000
,
0000
0100
0000
0000
,
0000
0001
0100
0101
,
0000
0100
0010
0110
,
0000
0010
1000
1010
,
0000
1000
0001
1001
,
0000
1000
0000
0001
,
0000
0000
0001
0000
,
1000
0000
0000
0200
,
0000
0000
0000
0300
;

//---------------dance-single - Rygon----------------
#NOTES:
     dance-single:
     Rygon:
     Beginner:
     2:
     0.120,0.142,0.008,0.008,0.000: // measure 1
0000
0000
0000
0000
,  // measure 2
0000
0000
0000
0000
,  // measure 3
0000
0000
0000
0000
,  // measure 4
1001
0000
1000
0000
,  // measure 5
0000
0000
0010
0000
,  // measure 6
0000
0000
0100
0000
,  // measure 7
0000
0000
0001
0000
,  // measure 8
0000
0000
1000
0000
,  // measure 9
1000
0000
0001
0000
,  // measure 10
0001
0000
0100
0000
,  // measure 11
0000
0000
0010
0000
,  // measure 12
0000
0000
1000
0000
,  // measure 13
0001
0000
0100
0000
,  // measure 14
0000
0000
0010
0000
,  // measure 15
0000
0000
0100
0000
,  // measure 16
0000
0000
0001
0000
,  // measure 17
1000
0000
0001
0000
,  // measure 18
1000
0000
0100
0000
,  // measure 19
0000
0000
0010
0000
,  // measure 20
0000
0000
0001
0000
,  // measure 21
0001
0000
1000
0000
,  // measure 22
1000
0000
0100
0000
,  // measure 23
0100
0000
0010
0000
,  // measure 24
0010
0000
0001
0000
,  // measure 25
0001
0000
1000
0000
,  // measure 26
0001
0000
0000
0100
,  // measure 27
0000
0010
0000
0000
,  // measure 28
1000
0000
0000
0000
,  // measure 29
1000
0000
0000
0000
,  // measure 30
0001
0000
0001
0000
,  // measure 31
0100
0000
0100
0000
,  // measure 32
0010
0000
0010
0000
,  // measure 33
1000
0000
1000
0000
,  // measure 34
0001
0000
1000
0000
,  // measure 35
0000
0010
0000
0100
,  // measure 36
0000
0000
0001
0000
,  // measure 37
0000
0000
0010
0000
,  // measure 38
0000
0000
0100
0000
,  // measure 39
0000
0000
0000
1000
,  // measure 40
0000
0000
0000
0001
,  // measure 41
0000
0001
0000
1000
,  // measure 42
0000
1000
0000
0100
,  // measure 43
0000
0000
0000
0010
,  // measure 44
0000
0000
0000
0001
,  // measure 45
0000
1000
0000
0100
,  // measure 46
0000
0000
0000
0010
,  // measure 47
0000
0000
0000
0100
,  // measure 48
0000
0000
0000
1000
,  // measure 49
0000
0001
0000
1000
,  // measure 50
0000
0001
0000
0100
,  // measure 51
0000
0000
0000
0010
,  // measure 52
0000
0000
0000
1000
,  // measure 53
0000
1000
0000
0001
,  // measure 54
0000
0001
0000
0100
,  // measure 55
0000
0100
0000
0010
,  // measure 56
0000
0010
0000
1000
,  // measure 57
0000
1000
0000
0001
,  // measure 58
0000
1000
0000
0000
,  // measure 59
0100
0000
0010
0000
,  // measure 60
0000
0001
0000
0000
,  // measure 61
0000
0001
0000
0000
,  // measure 62
0000
1000
0000
1000
,  // measure 63
0000
0100
0000
0100
,  // measure 64
0000
0010
0000
0010
,  // measure 65
0000
0001
0000
0001
,  // measure 66
0000
1000
0000
0001
,  // measure 67
0000
0000
1000
0000
,  // measure 68
0001
0000
0000
0200
,  // measure 69
0000
0000
0000
0300
;
