#TITLE:Right Back;
#SUBTITLE:;
#ARTIST:TANUKI;
#TITLETRANSLIT:;
#SUBTITLETRANSLIT:;
#ARTISTTRANSLIT:;
#GENRE:;
#CREDIT:Telperion;
#BANNER:rightback-bn.png;
#BACKGROUND:rightback-bg.png;
#LYRICSPATH:;
#CDTITLE:;
#MUSIC:rightback.ogg;
#OFFSET:-0.014000;
#SAMPLESTART:34.971001;
#SAMPLELENGTH:16.417000;
#SELECTABLE:YES;
#DISPLAYBPM:175;
#BPMS:0.000000=175.000000,6.000000=350.000000,8.000000=131.250000,8.500000=262.500000,9.000000=175.000000,37.000000=131.250000,37.250000=262.500000,37.500000=350.000000,39.000000=131.250000,39.750000=262.500000,40.500000=350.000000,41.000000=175.000000,57.000000=262.500000,57.500000=131.250000,58.000000=175.000000,64.000000=262.500000,64.500000=131.250000,65.000000=245.000015,69.000000=350.000000,71.000000=175.000000,133.000000=131.250000,133.500000=262.500000,134.000000=350.000000,136.000000=131.250000,136.500000=262.500000,137.000000=175.000000,165.000000=350.000000,169.000000=175.000000,197.500000=262.500000,198.000000=131.250000,198.500000=175.000000,199.000000=131.250000,199.500000=262.500000,200.000000=350.000000,201.000000=175.000000,229.000000=116.666000,229.500000=127.273010,230.000000=140.000000,230.500000=155.556000,231.000000=200.000000,231.500000=233.332993,232.000000=280.000000,232.500000=350.000000,233.000000=175.000000,265.000000=131.250000,265.500000=262.500000,266.000000=175.000000,293.000000=131.250000,293.500000=262.500000,294.000000=350.000000,297.000000=87.500000;
#STOPS:6.000000=0.042000
,6.250000=0.043000
,6.500000=0.043000
,6.750000=0.043000
,7.000000=0.042000
,7.250000=0.043000
,7.500000=0.043000
,7.750000=0.043000
,37.500000=0.043000
,37.750000=0.043000
,38.000000=0.042000
,38.250000=0.043000
,38.500000=0.043000
,38.750000=0.043000
,40.500000=0.043000
,40.750000=0.043000
,65.000000=0.049000
,65.500000=0.049000
,66.000000=0.049000
,66.500000=0.049000
,67.000000=0.049000
,67.500000=0.049000
,68.000000=0.049000
,68.500000=0.049000
,69.000000=0.042000
,69.250000=0.043000
,69.500000=0.043000
,69.750000=0.043000
,70.000000=0.042000
,70.250000=0.043000
,70.500000=0.043000
,70.750000=0.043000
,134.000000=0.042000
,134.250000=0.043000
,134.500000=0.043000
,134.750000=0.043000
,135.000000=0.042000
,135.250000=0.043000
,135.500000=0.043000
,135.750000=0.043000
,165.000000=0.042000
,165.250000=0.043000
,165.500000=0.043000
,165.750000=0.043000
,166.000000=0.043000
,166.250000=0.042000
,166.500000=0.043000
,166.750000=0.043000
,167.000000=0.043000
,167.250000=0.043000
,167.500000=0.042000
,167.750000=0.043000
,168.000000=0.043000
,168.250000=0.043000
,168.500000=0.043000
,168.750000=0.043000
,200.000000=0.042000
,200.250000=0.043000
,200.500000=0.043000
,200.750000=0.043000
,294.000000=0.043000
,294.250000=0.042000
,294.500000=0.043000
,294.750000=0.043000
,295.000000=0.043000
,295.250000=0.043000
,295.500000=0.042000
,295.750000=0.043000
,296.000000=0.043000
,296.250000=0.043000
,296.500000=0.043000
,296.750000=0.042000
;
#DELAYS:;
#TIMESIGNATURES:0.000000=4=4
;
#BGCHANGES:0.616=[Week 5] - Right Back.avi=1.000=0=0=1=====,
99999=-nosongbg-=1.000=0=0=0 // don't automatically add -songbackground-
;
#KEYSOUNDS:;
#ATTACKS:;

//---------------dance-single - Telperion----------------
#NOTES:
     dance-single:
     Telperion:
     Hard:
     9:
     0.555,0.669,0.198,0.368,0.377,352.000,21.000,39.000,0.000,0.000,0.000,0.000,0.555,0.669,0.198,0.368,0.377,352.000,21.000,39.000,0.000,0.000,0.000,0.000: // measure 1
0000
0000
0000
0000
,  // measure 2
0000
0000
0000
0000
,  // measure 3
0000
0000
1002
0000
0003
0020
0000
0030
,  // measure 4
0100
0000
0000
1000
0001
1000
0000
1000
,  // measure 5
0001
0000
0200
0000
0300
0020
0000
0030
,  // measure 6
1000
0000
0000
0001
1000
0001
0000
0001
,  // measure 7
1000
0000
2100
0000
3000
0020
0000
0030
,  // measure 8
1000
0000
0000
0001
0010
0001
0000
0001
,  // measure 9
1000
0000
0200
0000
1300
0100
0010
0001
,  // measure 10
0010
0000
0010
0100
0001
0100
2000
0000
,  // measure 11
3000
0000
0001
1000
0002
0000
0000
0000
0003
0000
0200
0000
0000
0000
0300
0000
,  // measure 12
0010
0000
0000
0000
0000
0000
1000
0000
0000
0010
0000
0000
0100
0000
0000
0000
,  // measure 13
0100
0000
0000
0000
0000
0000
0001
0000
0000
0010
0000
0000
0100
0000
0000
0000
,  // measure 14
0100
0000
0000
0000
0000
0000
1000
0000
0000
0001
0000
0000
0100
0000
0010
0000
,  // measure 15
0200
0300
0110
1000
,  // measure 16
0011
0001
1100
1000
,  // measure 17
0001
0000
0100
0010
1000
0010
0100
0001
,  // measure 18
0010
0000
0100
0000
1000
0001
1000
0001
1000
0100
1000
0100
0020
0000
0000
0000
,  // measure 19
0000
0030
1002
0000
0000
0000
0000
0000
,  // measure 20
0000
0000
0000
0003
0000
0000
0100
0000
,  // measure 21
0000
0000
0020
0000
0000
0030
0000
0000
,  // measure 22
0000
2000
0000
0000
,  // measure 23
0000
3020
0000
0000
,  // measure 24
0000
0030
0000
0000
,  // measure 25
0100
0010
2000
0000
0000
0000
0000
0000
,  // measure 26
0000
0000
3200
0000
0000
1300
0100
0010
,  // measure 27
0000
0010
0002
0000
0000
0000
0000
0000
,  // measure 28
0000
0000
0000
0003
0000
0001
0100
0010
,  // measure 29
0000
2000
0000
3020
0000
0230
0000
0301
,  // measure 30
0000
2000
0000
3002
0000
0023
0000
0230
,  // measure 31
0000
2300
0000
0000
0000
0000
0000
0000
,  // measure 32
0000
0000
3000
0000
0000
0000
1000
0002
,  // measure 33
0000
0200
0000
0000
,  // measure 34
0000
0000
0003
0020
,  // measure 35
0030
0301
0001
1000
,  // measure 36
0100
1000
0001
0000
0001
0000
1000
0000
,  // measure 37
0010
0100
0001
0000
1000
0000
0001
0000
,  // measure 38
1000
0100
0010
0000
0100
0000
1000
0001
,  // measure 39
1000
0000
0010
0000
0100
0000
0001
1000
0000
0000
0100
0000
0010
0000
0100
1000
,  // measure 40
0000
0000
0001
0000
1000
0000
0001
0100
0000
0000
0010
0000
0100
0000
0001
1000
,  // measure 41
0000
0000
0100
0000
0010
0000
0100
1000
0001
0000
1000
0100
0010
0000
0001
1000
,  // measure 42
0010
0000
0100
0010
0200
0000
0000
0000
0000
0000
0000
0000
0000
0000
0000
0000
,  // measure 43
0000
0000
0000
0000
0301
0000
0000
1000
0000
0000
0100
0000
0000
0001
0000
0000
,  // measure 44
0100
0000
1000
0000
0010
0000
0000
1000
0000
0000
0100
0000
0000
0001
0000
0000
,  // measure 45
0100
0010
0100
1000
0001
0000
0000
0100
0000
0000
0010
0000
0000
0100
0000
0000
,  // measure 46
1000
0100
0010
0100
0001
0000
0000
1000
0000
0000
0010
0000
0000
1000
0000
0000
,  // measure 47
0100
0010
0100
1000
0001
0000
0000
0100
0000
0000
1000
0000
0000
0100
0000
0000
,  // measure 48
0010
0000
1000
0010
1000
0000
0000
0100
0000
0000
0001
0000
0000
0100
0000
0000
,  // measure 49
0010
0000
0100
0010
0001
0000
0000
0001
0000
0000
0010
0000
0000
0100
0000
0000
,  // measure 50
1000
0010
0100
0010
0000
0010
0100
0000
,  // measure 51
0001
1000
0001
1000
0100
0000
0010
0000
0100
0000
1000
0000
0100
0000
0010
0000
,  // measure 52
0001
1000
0010
0100
0001
0100
0010
0100
,  // measure 53
0001
1000
0100
0010
0001
0000
0010
0000
0100
0000
0010
0000
0001
0000
0010
0000
,  // measure 54
0100
1000
0010
0100
0010
1000
0010
0100
,  // measure 55
0001
0100
0010
1000
0010
0000
0000
0010
0000
0000
0100
0000
0000
0100
0000
0000
,  // measure 56
0001
0000
1000
0001
0100
0000
0000
0010
0000
0000
1000
0000
0000
0010
0000
0000
,  // measure 57
0100
0000
0001
1000
0100
0000
0000
0010
0000
0000
0100
0000
0000
1000
0000
0000
,  // measure 58
0001
1000
0020
0000
0000
0000
0000
0000
,  // measure 59
0000
0000
0000
0000
0130
0000
0000
0000
0101
0000
0000
1000
0000
0000
1100
0000
,  // measure 60
0000
0100
0000
0000
0011
0000
0000
0000
1001
0000
0000
0001
0000
0000
0110
0000
,  // measure 61
0000
0100
0000
0000
1010
0000
0000
0000
0011
0000
0000
0100
0000
0000
0011
0000
,  // measure 62
0000
1000
0000
0000
1010
0000
0000
0000
0110
0000
0000
1000
0000
0000
0110
0000
,  // measure 63
0000
0001
0000
0000
1000
0000
0000
0000
0200
0000
0000
0010
0000
0000
1300
0000
,  // measure 64
0000
0001
0000
0000
0100
0000
0000
0000
0020
0000
0000
1000
0000
0000
0130
0000
,  // measure 65
0000
0001
0000
0000
0010
0000
0000
0000
0100
0000
0000
0001
0000
0000
0100
0000
,  // measure 66
0000
1000
0000
0000
0010
0000
0000
0000
0100
0000
0010
0000
1000
0000
0002
0000
,  // measure 67
0000
0000
0000
0000
1003
0000
0000
0000
0110
0000
0000
0001
0000
0000
1000
0000
,  // measure 68
0000
0001
0000
0000
0100
0000
0000
0000
1100
0000
0000
1000
0000
0000
0001
0000
,  // measure 69
0000
0100
0000
0000
0010
0000
0000
0000
0011
0000
0000
0010
0000
0000
0100
0000
,  // measure 70
0000
1000
0000
0000
0010
0000
0000
0000
0011
0000
0000
0001
0000
0000
1000
0000
,  // measure 71
0000
0010
0000
0000
0200
0000
0000
0000
0010
0000
0000
0000
0000
0000
0000
0000
,  // measure 72
0310
1000
0010
0200
,  // measure 73
0000
0002
0000
0000
,  // measure 74
0000
0000
0000
0000
0303
0000
0000
0000
1000
0001
1000
0001
1000
0100
1000
0100
,  // measure 75
0010
0001
0010
0001
0200
0000
0000
0000
0000
0000
0000
0000
0300
0000
0000
0000
;

//---------------dance-single - Telperion----------------
#NOTES:
     dance-single:
     Telperion:
     Medium:
     7:
     0.421,0.455,0.057,0.273,0.132,278.000,6.000,29.000,0.000,0.000,0.000,0.000,0.421,0.455,0.057,0.273,0.132,278.000,6.000,29.000,0.000,0.000,0.000,0.000:
0000
0000
0000
0000
,
0000
0000
0000
0000
,
0000
0000
0001
0000
0000
0010
0000
0000
,
0100
0000
1000
0001
,
1000
0000
0010
0000
0010
1000
0010
0100
,
0002
0003
1000
0001
,
0000
0000
1000
0000
1000
0010
0000
0010
,
0100
0000
0001
1000
,
0001
0000
0010
0000
0010
0001
0010
0100
,
2000
3010
0100
0002
,
0000
0003
1000
0000
1100
0000
0001
0000
,
1000
0000
0001
0000
0101
0000
0100
0001
,
1000
0000
0100
0000
0010
0100
0010
0100
,
1000
0000
0001
0000
0011
0000
0001
0100
,
0020
0000
0100
0030
1000
0000
0100
0000
,
1000
0001
0010
0000
0001
0000
0100
0001
,
1000
0000
0010
0100
0010
0000
1000
0001
,
1000
0000
0100
0010
0001
0010
0200
0000
,
0000
0300
2002
0000
0000
0000
0000
0000
,
0000
0000
0000
3003
0000
0000
2000
0000
,
0000
3020
0000
0030
,
0000
0200
0000
0300
,
0000
0002
0000
0000
,
0000
0003
0000
0100
,
0000
0020
0000
0000
,
0000
0030
0000
0000
,
0000
2002
0000
0000
,
0000
0000
0000
3003
0000
0000
0002
0000
,
0000
0000
0013
0000
0000
0100
0000
1000
,
0000
0000
0010
0000
0000
0100
0000
0010
,
0000
2000
0000
0000
,
0000
3000
0000
0200
,
0000
0020
0000
0000
,
0000
0330
0100
0010
,
0100
1000
0010
0100
,
0001
1000
0010
0001
,
0010
1000
0010
0100
,
0001
1000
0100
0001
,
0100
1000
0010
0010
,
0001
1000
0010
0010
,
0001
0000
1000
0010
0010
0000
0001
0010
,
0010
0200
0000
0000
,
0000
0310
0100
0001
,
1000
0100
0010
0000
0100
0000
0001
0000
,
0100
1000
0010
0000
0100
0000
0001
0000
,
0100
0010
1000
0000
0001
0000
1000
0000
,
0100
0010
0001
0000
0010
0000
0100
0000
,
0001
0100
1000
0000
0100
0000
0010
0000
,
1000
0010
0001
0000
1000
0000
0010
0000
,
0100
0010
2000
0000
3000
0002
0000
0003
,
1000
0000
0100
0000
0010
0000
0000
0100
0000
0000
1000
0000
0000
0100
0000
0000
,
0010
0000
1000
0000
0010
0000
0000
0100
0000
0000
1000
0000
0000
0001
0000
0000
,
0010
0000
0001
0000
0100
0000
0000
0010
0000
0000
1000
0000
0000
0010
0000
0000
,
0100
0000
0001
0000
0010
0000
0000
0100
0000
0000
0001
0000
0000
0100
0000
0000
,
0010
0000
0001
0000
1000
0000
0000
1000
0000
0000
0100
0000
0000
0100
0000
0000
,
0010
0000
0001
0000
0100
0000
0000
0100
0000
0000
0010
0000
0000
0010
0000
0000
,
0100
0000
0001
0000
1000
0000
0000
0001
0000
0000
0010
0000
0000
0100
0000
0000
,
1000
0100
0020
0000
0000
0000
0000
0000
,
0000
0000
0230
0000
0001
0000
1000
0300
,
0100
0000
0020
0000
0001
0000
1000
0030
,
0010
0001
2000
0000
0010
0000
0100
0000
,
3010
1000
0002
0000
0010
0000
0100
0000
,
0013
0001
0200
0000
1000
0000
0001
0300
,
0100
0010
1000
0200
,
0001
0310
0001
0010
,
0100
1000
0001
1000
,
0001
0000
0000
0000
0110
0000
0000
0000
0001
0000
0000
0100
0000
0000
0010
0000
,
0000
1000
0000
0000
0010
0000
0000
0000
0100
0000
0000
0001
0000
0000
0010
0000
,
0000
1000
0000
0000
0010
0000
0000
0000
0100
0000
0000
0001
0000
0000
0100
0000
,
0000
1000
0000
0000
0001
0000
0000
0000
0100
0000
0000
0001
0000
0000
1000
0000
,
0000
0001
0000
0000
0100
0000
0000
0000
0010
0000
0000
0100
0000
0000
1000
0000
,
0000
0100
0000
0000
0001
0000
0000
0000
0010
0000
0000
0100
0000
0000
0001
0000
,
0000
0100
0000
0000
0010
0000
0000
0000
0001
0000
0000
0010
0000
0000
0100
0000
,
0000
1000
0000
0000
0002
0000
0000
0000
0000
0000
0000
0000
0000
0000
0000
0000
,
0000
0103
0000
0000
;

//---------------dance-single - Telperion----------------
#NOTES:
     dance-single:
     Telperion:
     Easy:
     4:
     0.252,0.280,0.000,0.075,0.000,179.000,0.000,8.000,0.000,0.000,0.000,0.000,0.252,0.280,0.000,0.075,0.000,179.000,0.000,8.000,0.000,0.000,0.000,0.000:
0000
0000
0000
0000
,
0000
0000
0000
0000
,
0000
1000
0001
1000
,
0100
1000
0000
0000
,
0000
0010
0001
0010
,
1000
0100
0000
0000
,
0000
0001
0010
0001
,
1000
0001
0000
0000
,
0000
0010
0100
0001
,
0100
1000
0001
0200
,
0000
0300
0010
0000
0100
0000
0001
0000
,
0000
0010
0100
0010
,
0000
0010
0100
1000
,
0000
0010
0100
0010
,
0000
1000
1000
0100
,
0000
0001
0001
0100
,
0000
1000
0100
0010
,
0100
0001
0100
0010
,
0000
0002
0000
0000
,
0000
0003
0000
0000
,
0000
1000
0000
0000
,
0000
0010
0000
0000
,
0000
0100
0000
0000
,
0000
0000
0000
0000
,
0000
0010
0000
0000
,
0000
1000
0000
0000
,
0000
0002
0000
0000
,
0000
0003
0000
0000
,
0000
0010
0000
0000
,
0000
0100
0000
0000
,
0000
1000
0000
0000
,
0000
0100
0000
0000
,
0000
0010
0000
0000
,
0000
0001
1000
0010
,
0100
0010
0000
0010
,
0000
0010
0000
0010
,
0000
0010
0000
0010
,
0000
0010
0000
0010
,
0000
1000
0010
0100
,
0001
1000
0010
0100
,
0001
1000
0100
0010
,
0001
0200
0000
0000
,
0000
0301
0010
0100
,
0000
1000
0100
0010
,
0000
0001
0100
0010
,
0000
1000
0100
0001
,
0100
1000
0100
0010
,
0000
0001
0010
0100
,
0000
1000
0010
0100
,
0000
0002
0000
0000
,
0000
1003
0001
0100
,
0010
1000
0001
0100
,
0000
0001
0010
0100
,
1000
0001
0100
0001
,
0000
0010
0100
1000
,
0001
0100
0010
1000
,
0010
0100
0001
0010
,
0100
2000
0000
0000
,
0000
3100
0100
0010
,
0000
0100
0100
0010
,
0000
0001
1000
0001
,
0000
1000
1000
0001
,
1000
0010
0010
0100
,
0000
0010
0010
0100
,
0000
0001
1000
0001
,
0000
1000
1000
0001
,
0000
0020
0030
0100
,
0010
0100
0100
0010
,
0100
1000
1000
0001
,
1000
0001
0001
0100
,
0000
0010
0000
0000
,
0000
0100
0000
0010
,
0000
1000
0000
0000
,
0000
0002
0000
0000
,
0000
0103
0000
0000
;

//---------------dance-single - Telperion----------------
#NOTES:
     dance-single:
     Telperion:
     Beginner:
     1:
     0.088,0.105,0.000,0.000,0.000,65.000,0.000,0.000,0.000,0.000,0.000,0.000,0.088,0.105,0.000,0.000,0.000,65.000,0.000,0.000,0.000,0.000,0.000,0.000:
0000
0000
0000
0000
,
0000
0000
0000
0000
,
0000
0001
0000
0000
,
0000
0000
0000
0000
,
0000
1000
0000
0000
,
0000
0000
0000
0000
,
0000
0100
0000
0000
,
0000
0000
0000
0000
,
0000
0010
0000
0000
,
0000
0001
0000
0000
,
0000
0100
0000
0000
,
0000
0000
0000
0000
,
0000
0010
0000
0000
,
0000
0000
0000
0000
,
0000
1000
0000
0000
,
0000
0000
0000
0000
,
0000
0001
0000
0000
,
0000
0010
0000
0000
,
0000
0100
0000
0000
,
0000
0000
0000
0000
,
0000
1000
0000
0000
,
0000
0100
0000
0000
,
0000
0010
0000
0000
,
0000
0000
0000
0000
,
0000
0001
0000
0000
,
0000
0100
0000
0000
,
0000
0010
0000
0000
,
0000
0000
0000
0000
,
0000
1000
0000
0000
,
0000
0001
0000
0000
,
0000
0010
0000
0000
,
0000
0000
0000
0000
,
0000
0100
0000
0000
,
0000
1000
0000
0000
,
0000
0001
0000
0000
,
0000
0001
0000
0000
,
0000
0001
0000
0000
,
0000
0001
0000
0000
,
0000
1000
0000
0000
,
0000
1000
0000
0000
,
0000
1000
0000
1000
,
0000
1000
0000
0000
,
0000
0010
0000
0000
,
0000
0010
0000
0000
,
0000
0100
0000
0000
,
0000
0100
0000
0000
,
0000
0001
0000
0000
,
0000
0001
0000
0000
,
0000
1000
0000
0000
,
0000
0100
0000
0000
,
0000
0010
0000
0000
,
0000
0010
0000
0000
,
0000
0100
0000
0000
,
0000
0100
0000
0000
,
0000
1000
0000
0000
,
0000
1000
0000
0000
,
0000
0001
0000
0000
,
0000
0100
0000
0000
,
0000
0010
0000
0000
,
0000
0010
0000
0000
,
0000
1000
0000
0000
,
0000
0010
0000
0000
,
0000
0100
0000
0000
,
0000
0100
0000
0000
,
0000
0001
0000
0000
,
0000
0010
0000
0000
,
0000
0100
0000
0000
,
0000
0100
0000
0000
,
0000
1000
0000
0000
,
0000
0100
0000
0000
,
0000
0010
0000
0000
,
0000
0010
0000
0000
,
0000
0010
0000
0000
,
0000
0010
0000
0010
,
0000
0010
0000
0000
;
