#TITLE:ノイジーラバーソウル;
#SUBTITLE:;
#ARTIST:Last Note. feat. りょーくん;
#TITLETRANSLIT:Noisy Lover Soul;
#SUBTITLETRANSLIT:;
#ARTISTTRANSLIT:Last Note. feat. Ryo-kun;
#GENRE:Colorful Paradise;
#CREDIT:AznPunk07/Frozen_Heat;
#MENUCOLOR:#54ff91;
#METERTYPE:DDR;
#BANNER:Noisy Lover Soul-bn.png;
#BACKGROUND:Noisy Lover Soul-bg.png;
#LYRICSPATH:Noisy Lover Soul.lrc;
#CDTITLE:!cdtitle.png;
#MUSIC:Noisy Lover Soul.mp3;
#OFFSET:-0.083;
#SAMPLESTART:48.060;
#SAMPLELENGTH:16.440;
#SELECTABLE:YES;
#LISTSORT:;
#BPMS:0.000=190.000;
#STOPS:45.500=0.157
,46.000=0.158
,151.500=0.947
,152.500=0.947
,318.500=0.157
,319.000=0.158
;
#BGCHANGES:;
#ATTACKS:;

//---------------dance-single - ----------------
#NOTES:
     dance-single:
     :
     Hard:
     10:
     0.833,0.947,0.608,0.133,0.296: // measure 1
0000
0000
0000
0000
,  // measure 2
0000
0000
0000
0000
,  // measure 3
0000
0000
0000
0000
,  // measure 4
0000
0000
0000
0000
,  // measure 5
0001
0010
0100
0010
0001
1000
0001
0100
,  // measure 6
0000
0010
1000
0100
0000
0010
0001
0000
,  // measure 7
1000
0010
0100
0010
1000
0001
1000
0100
,  // measure 8
0000
0010
0001
1000
0001
0000
1001
0000
,  // measure 9
0101
0000
0010
0000
1000
0010
0001
0010
,  // measure 10
0000
0100
0001
0100
0010
1000
0001
0000
,  // measure 11
0010
0000
0001
0010
1000
0010
0100
1000
,  // measure 12
0000
0100
0010
0001
1000
0010
0100
0000
,  // measure 13
0001
0100
0001
0100
1000
0100
0000
0010
,  // measure 14
1000
0010
1000
0001
0010
0000
0100
1000
,  // measure 15
0100
0001
0100
1000
0100
0010
0000
0001
,  // measure 16
0010
0100
1000
0000
1100
0000
1010
0000
,  // measure 17
0100
0000
0001
0010
0001
1000
0000
0100
,  // measure 18
0010
0001
1000
0100
0010
0000
0100
1000
,  // measure 19
0001
0000
0100
0000
0010
0001
0000
0010
,  // measure 20
0100
0010
1000
0010
0100
0000
0001
0100
,  // measure 21
0000
0000
0100
0000
0000
0000
0100
0000
0000
0000
0010
1000
0010
0000
0100
0000
,  // measure 22
0000
0100
0000
2002
3003
0000
1000
0010
,  // measure 23
0000
0000
0010
0000
0000
0000
0010
0000
0000
0000
0100
0001
0100
0000
0010
0000
,  // measure 24
0000
0010
0000
2002
3003
0000
0010
0001
,  // measure 25
0000
0000
1000
0000
0000
0000
0001
0000
0000
0000
0100
0010
0100
0000
0001
0000
,  // measure 26
0000
0000
1000
0000
0000
0000
2002
0000
3003
0000
0000
0000
0001
0000
1000
0100
,  // measure 27
0010
0000
0001
0010
0100
0000
1000
0100
0010
0000
0001
0010
0100
0000
1000
0000
,  // measure 28
0001
1000
0001
0000
0000
0000
1001
0000
0000
0000
0001
0000
1000
0000
0010
0000
,  // measure 29
0100
0000
0010
0000
0000
0000
1000
0000
0001
0000
0100
0010
1000
0000
0001
0000
,  // measure 30
0001
0100
0000
2002
3003
0000
0010
0000
,  // measure 31
1000
0000
1000
0000
1010
0000
0000
0000
0101
0000
0010
0100
0001
0000
0010
0000
,  // measure 32
0100
0100
0000
2002
3003
0000
0001
0001
,  // measure 33
0010
0000
0100
0000
1000
0000
0100
0000
0010
0000
0001
0100
0001
0000
1000
0000
,  // measure 34
0010
0000
0100
0000
0000
0000
2002
0000
3003
0000
0000
0000
1000
0000
0001
0100
,  // measure 35
1000
0000
0001
0010
1000
0000
0001
0100
1000
0000
0001
0010
1000
0000
0010
0000
,  // measure 36
0100
0001
0000
0001
0010
0100
2000
0000
,  // measure 37
3100
0020
0031
1000
,  // measure 38
1010
0000
0001
0000
0011
0000
1001
0100
,  // measure 39
1001
0100
0011
0100
1000
0000
1010
0100
,  // measure 40
0001
0000
0000
0000
1001
0000
0000
0010
0000
0000
0100
0000
1001
0000
0000
0100
,  // measure 41
0000
0000
0010
0000
1000
0000
0001
0000
0100
0000
1000
0100
0010
0000
1000
0000
,  // measure 42
0100
0000
0010
0000
0001
0000
0100
0000
0010
0000
0001
0010
0100
0000
0001
0000
,  // measure 43
0010
0100
1001
0100
0000
1001
0100
0100
,  // measure 44
0000
0000
0110
0000
0000
0000
1001
0000
0000
0000
0010
0000
1000
0001
1000
0001
,  // measure 45
1000
0001
1000
0001
1000
0000
0100
0000
0010
0000
0001
0100
0010
0000
1000
0000
,  // measure 46
0001
0000
0010
0000
0100
0000
1000
0000
0010
0000
1000
0010
0100
0000
0001
0000
,  // measure 47
1000
0010
0101
0010
1000
0000
1100
0010
,  // measure 48
0001
0000
0000
0001
1000
0000
0000
1100
0000
0000
1010
0000
0001
0000
0000
0101
,  // measure 49
0000
0000
1001
0000
0100
0000
0010
0000
0001
0000
1000
0100
0010
0000
0001
0010
,  // measure 50
1000
0000
0010
0000
0001
0000
1000
0000
0010
0000
0001
0010
0100
0000
0001
0010
,  // measure 51
1000
0010
0100
1100
0000
0101
0000
1001
,  // measure 52
0010
0000
0100
0000
0000
0000
1100
0000
0000
0000
0011
0000
0001
0010
0100
1000
,  // measure 53
0001
1000
0001
1000
0001
0000
0100
0000
0010
0000
1000
0100
0010
0000
0100
0010
,  // measure 54
0001
0000
0100
0000
0010
0000
1000
0000
0001
0000
0010
0100
1000
0000
0001
0010
,  // measure 55
0100
0000
0000
1000
0100
0000
1000
0000
0010
0000
0000
0100
0001
0000
0010
0000
,  // measure 56
0100
0000
0000
0010
0001
0000
0000
0011
0000
0000
1001
0000
1100
0000
0000
1010
,  // measure 57
0000
0000
0101
0000
1000
0000
0010
0000
0001
0000
0010
0100
0001
0000
0010
0100
,  // measure 58
1000
0000
0010
0000
0100
0000
0001
0000
1000
0000
0100
1000
0010
0000
0100
0001
,  // measure 59
0010
0100
0011
0100
0000
1010
0100
0100
,  // measure 60
0000
0000
1001
0000
0000
0000
0110
0000
0000
0000
1001
0000
0010
0001
1000
0100
,  // measure 61
0010
0001
1000
0100
0010
0000
0100
0000
1000
0000
0001
0100
1000
0000
0100
0010
,  // measure 62
0100
0000
0001
0000
0010
0000
0001
0000
0100
0000
0001
0010
1000
0000
0010
0100
,  // measure 63
0010
0000
0110
0000
0001
0010
0001
0000
0101
0000
0001
0000
1000
0010
1000
0000
,  // measure 64
1100
0000
1000
0000
0101
0000
0000
1010
0000
0000
0101
0000
1100
0000
0000
0011
,  // measure 65
0000
0000
1100
0000
0001
0010
0100
0000
0010
0000
0001
0100
1000
0000
0100
0010
,  // measure 66
1000
0000
0100
0000
0010
0100
1000
0000
0010
0000
0100
0001
0010
0000
0100
1000
,  // measure 67
0010
0100
0001
0001
0000
0110
1000
1000
,  // measure 68
0000
0110
0000
1001
0000
0010
0001
0010
,  // measure 69
0100
0000
1000
0000
0001
0000
0100
0000
1000
0000
0000
1000
0100
0000
0001
0000
,  // measure 70
0010
0000
0000
0010
0100
0000
0000
1100
0000
0000
0110
0000
0011
0000
0000
0110
,  // measure 71
0000
1100
0001
1000
0110
0000
1000
0001
,  // measure 72
0110
1200
0010
0001
,  // measure 73
0010
0000
1300
0001
0100
0001
1000
0100
,  // measure 74
0010
0100
0000
0100
1000
0001
0100
0010
,  // measure 75
0100
0000
0001
0010
1000
0010
0100
1000
,  // measure 76
0100
0010
0000
0001
1000
0100
1100
0000
,  // measure 77
0011
0000
1001
0000
0100
0000
0010
0100
,  // measure 78
0001
1000
0000
0010
0100
0001
1000
0100
,  // measure 79
0001
0000
0100
0010
0001
1000
0010
0001
,  // measure 80
0010
0100
0000
0010
0100
0001
1010
0101
,  // measure 81
1000
0100
0001
0100
0010
0001
1000
0010
,  // measure 82
0001
0010
0100
0001
0010
0100
1000
0000
,  // measure 83
0010
1000
0010
0001
0010
0100
0001
0100
,  // measure 84
1000
0100
0010
1000
0101
0000
0011
0000
,  // measure 85
0100
0010
0100
1000
0100
0010
0001
1000
,  // measure 86
0001
0100
0010
1000
0001
0100
0010
0000
,  // measure 87
1000
0100
0001
0100
1000
0100
0010
0001
,  // measure 88
1000
0010
0001
1000
0100
0010
0100
0001
,  // measure 89
0020
0000
0000
0000
,  // measure 90
0000
0000
0000
0000
,  // measure 91
0000
0000
0000
0000
0000
0000
0000
0130
,  // measure 92
0100
0000
0000
0000
;

//---------------dance-single - ----------------
#NOTES:
     dance-single:
     :
     Medium:
     7:
     0.570,0.568,0.192,0.200,0.042: // measure 1
0000
0000
0000
0000
,  // measure 2
0000
0000
0000
0000
,  // measure 3
0000
0000
0000
0000
,  // measure 4
0000
0000
0000
0000
,  // measure 5
1000
0000
0100
0010
0100
0000
0000
1000
,  // measure 6
0000
0001
0100
0000
0010
0100
0010
0000
,  // measure 7
0100
0000
0001
0010
0001
0000
0000
1000
,  // measure 8
0000
0100
0010
0000
0110
0000
0110
0000
,  // measure 9
0001
0000
0100
0010
0100
0000
0000
0001
,  // measure 10
0000
0010
0100
0000
1000
0001
1000
0000
,  // measure 11
0001
0000
0010
0100
0010
0000
0100
1000
,  // measure 12
0000
1000
0001
1000
0001
1000
0001
0000
,  // measure 13
0010
0100
0010
0000
0000
0001
0000
1000
,  // measure 14
0010
0000
0100
0010
0100
0000
0010
0000
,  // measure 15
1000
0100
1000
0000
0000
0001
0000
0010
,  // measure 16
0100
0110
0110
1000
,  // measure 17
0010
0100
0010
0000
0000
1000
0000
0100
,  // measure 18
0010
0000
0001
1000
0001
0000
1000
0000
,  // measure 19
0100
0010
0100
0000
0010
0001
0000
0001
,  // measure 20
1000
0001
1000
0001
1000
0000
0001
0000
,  // measure 21
0100
0001
0000
0001
0100
0000
0010
0000
,  // measure 22
1000
0100
0000
0200
0000
0300
1000
0000
,  // measure 23
0010
0000
0100
0010
0100
0000
0001
0000
,  // measure 24
1000
0100
0000
0200
0000
0300
0010
0000
,  // measure 25
0001
0000
1000
0001
1000
0000
0010
0000
,  // measure 26
1000
0100
0000
0200
0000
0300
1000
0000
,  // measure 27
1100
0001
0101
1000
,  // measure 28
0001
0010
0000
0011
0000
0000
0001
0000
,  // measure 29
0100
0010
0000
0100
0001
0000
1000
0000
,  // measure 30
0100
0010
0000
0020
0000
0030
0100
0000
,  // measure 31
1000
0001
0100
0000
0001
1000
0100
0000
,  // measure 32
0100
0010
0000
0020
0000
0030
0100
1000
,  // measure 33
0100
0000
0010
0001
0010
0000
0001
0000
,  // measure 34
1000
0010
0000
0020
0100
0030
1000
0100
,  // measure 35
0010
0100
1000
0000
0001
0010
0100
0010
,  // measure 36
0001
1000
0000
0001
0100
0000
0002
0000
,  // measure 37
0103
2000
3100
0020
,  // measure 38
0100
0000
0000
0000
0000
0000
0000
0000
0000
0000
0000
0000
0100
0000
0000
0000
0000
0000
0000
0000
0000
0000
0000
0000
0130
0000
0000
0000
0000
0000
0000
0000
0000
0000
0000
0000
2020
0000
0000
0000
0000
0000
0000
3030
0000
0000
0000
0000
,  // measure 39
0202
0000
0000
0000
0000
0000
0000
0303
0000
0000
0000
0000
1000
0000
0000
0000
0000
0000
0100
0000
0000
0000
0000
0000
0010
0000
0000
0000
0000
0000
0000
0000
0000
0000
0000
0000
1000
0000
0000
0000
0000
0000
0100
0000
0000
0000
0000
0000
,  // measure 40
0010
0000
0000
0000
0100
0000
0000
1000
0000
0000
0100
0000
0010
0000
0000
0001
,  // measure 41
0000
0010
0001
0100
0000
0001
0000
0010
,  // measure 42
0001
0000
1000
0100
0000
1000
0000
0010
,  // measure 43
1000
0000
0100
0100
0000
0010
0100
0100
,  // measure 44
0000
1100
0000
0010
0000
0011
0000
0001
,  // measure 45
1000
0000
0001
0100
0000
1000
0000
0100
,  // measure 46
0001
0000
0001
0010
0000
1000
0000
0010
,  // measure 47
0001
0012
0103
2010
,  // measure 48
3100
0000
0000
0000
1000
0000
0000
0010
0000
0000
1000
0000
0001
0000
0000
0010
,  // measure 49
0000
0001
1000
0100
0000
0001
0000
0100
,  // measure 50
1000
0000
1000
0010
0000
0001
0000
0010
,  // measure 51
1000
0100
0000
0110
0000
0010
0000
0110
,  // measure 52
0000
0001
0000
0001
0000
1000
0000
0001
,  // measure 53
1000
0000
0001
0200
0000
1000
0000
0310
,  // measure 54
1000
0000
0100
0020
0000
0001
0000
0130
,  // measure 55
1000
0000
0001
0010
0100
0000
1000
0010
,  // measure 56
0100
0000
0000
0000
0001
0000
0000
0100
0000
0000
0001
0000
1000
0000
0000
0010
,  // measure 57
0000
1000
0001
0010
0000
1000
0000
0010
,  // measure 58
0100
0000
1000
0010
0000
0001
0000
0010
,  // measure 59
0100
0000
0100
0001
0000
0100
0001
0100
,  // measure 60
0000
0001
0000
0001
0000
1000
0000
0100
,  // measure 61
1000
0000
0100
0020
0000
0001
0000
0130
,  // measure 62
1000
0000
0010
0200
0000
1000
0000
0310
,  // measure 63
0001
0000
0010
1000
0010
0000
0100
0001
,  // measure 64
0100
0000
0000
0000
0010
0000
0000
1000
0000
0000
0001
0000
0100
0000
0000
0001
,  // measure 65
0000
1000
0001
0010
0000
0100
0000
1000
,  // measure 66
0010
0000
0100
0001
0000
0010
0000
0100
,  // measure 67
1000
0100
1000
0100
0000
0010
0001
0010
,  // measure 68
0000
0001
0000
0001
0000
1000
0000
0001
,  // measure 69
1000
0001
0101
1000
,  // measure 70
1100
0000
0000
0000
0001
0000
0000
0010
0000
0000
0100
0000
1000
0000
0000
0001
,  // measure 71
0000
0010
0100
0000
1010
0000
0100
0000
,  // measure 72
0011
2000
3200
0320
,  // measure 73
0032
0000
1003
0000
0100
0010
0100
0000
,  // measure 74
0100
1000
0000
0001
0100
0000
0010
0100
,  // measure 75
0010
0000
0100
0000
0001
0010
0001
0000
,  // measure 76
0001
1000
0000
0100
0010
0000
0110
0000
,  // measure 77
0110
0000
0001
0000
0100
0010
0100
0000
,  // measure 78
0100
0001
0000
0010
0100
0000
1000
0001
,  // measure 79
1000
0000
0001
0000
0010
0100
0010
0000
,  // measure 80
0100
1000
0000
1000
0001
1000
0001
1000
,  // measure 81
0001
0000
0010
0100
0010
0000
0010
0001
,  // measure 82
0000
1000
0010
0000
0100
0010
0100
0000
,  // measure 83
0010
0000
1000
0100
1000
0000
1000
0001
,  // measure 84
0000
0010
0100
0000
0110
0000
0110
0000
,  // measure 85
1000
0000
0010
0100
0010
0000
0010
1000
,  // measure 86
0000
0100
0010
0000
0001
1000
0001
0000
,  // measure 87
1000
0000
0100
0010
0100
0000
0010
0001
,  // measure 88
0000
0001
1000
0001
0010
0100
0010
0001
,  // measure 89
2000
0000
0000
0000
,  // measure 90
0000
0000
0000
0000
,  // measure 91
0000
0000
0000
0000
,  // measure 92
3000
0000
0000
0000
;

//---------------dance-single - ----------------
#NOTES:
     dance-single:
     :
     Beginner:
     2:
     0.099,0.147,0.000,0.000,0.000:
0000
0000
0000
0000
,
0000
0000
0000
0000
,
0000
0000
0000
0000
,
0000
0000
0000
0000
,
0001
0000
0000
0000
,
1000
0000
0000
0000
,
0100
0000
0000
0000
,
0010
0000
0000
0000
,
0001
0000
0000
0000
,
0100
0000
0000
0000
,
0010
0000
0000
0000
,
1000
0000
0000
0001
,
0000
0000
0000
1000
,
0000
0000
0000
0100
,
0000
0000
0000
0010
,
0000
0000
0000
0100
,
0000
0000
0000
1000
,
0000
0000
0000
0001
,
0000
0000
0000
0100
,
0000
0000
0000
0001
,
0000
0000
0000
0000
,
0000
0000
0000
1000
,
0000
0000
0000
0000
,
0000
0000
0000
0100
,
0000
0000
0000
0000
,
0000
0000
0000
0010
,
0000
0010
0000
0000
,
0000
0000
0000
0001
,
0000
0000
0000
0000
,
0000
0000
0000
1000
,
0000
0000
0000
0000
,
0000
0000
0000
0010
,
0000
0000
0000
0000
,
0000
0000
0000
0100
,
0000
0100
0000
0000
,
0000
0000
0000
0001
,
0000
0000
0000
1000
,
0000
0000
0000
0010
,
0000
0000
0000
0000
,
0000
0001
0000
0001
,
0000
0001
0000
0000
,
0000
0000
0000
0000
,
0000
1000
0000
0000
,
0000
1000
0000
1000
,
0000
1000
0000
0000
,
0000
0000
0000
0000
,
0000
0010
0000
0000
,
0000
0010
0000
0010
,
0000
0010
0000
0000
,
0000
0000
0000
0000
,
0000
0100
0000
0000
,
0000
0100
0000
0100
,
0000
0100
0000
0000
,
0000
0001
0000
0000
,
0000
1000
0000
0000
,
0000
0001
0000
0000
,
0000
0010
0000
0000
,
0000
0100
0000
0000
,
0000
1000
0000
0000
,
0000
0100
0000
0000
,
0000
1000
0000
0000
,
0000
0010
0000
0000
,
0000
0100
0000
0000
,
0000
0001
0000
0000
,
0000
0001
0000
0000
,
0000
1000
0000
0000
,
0000
0100
0000
0000
,
0000
0100
0000
0000
,
0000
0010
0000
0000
,
0000
0100
0000
0100
,
0000
0100
0000
0000
,
0000
0010
0000
0000
,
0000
0010
0000
0000
,
0000
0001
0000
0000
,
0000
1000
0000
0000
,
0000
0010
0000
0010
,
0000
0010
0000
0000
,
0000
0100
0000
0000
,
0000
0001
0000
0000
,
0000
1000
0000
0000
,
0000
0000
0000
0000
,
0001
0000
0000
0000
,
1000
0000
0000
0000
,
0001
0000
0001
0000
,
0001
0000
0000
0000
,
0010
0000
0000
0000
,
0100
0000
0000
0000
,
1000
0000
1000
0000
,
1000
0000
0000
0000
;

//---------------dance-single - ----------------
#NOTES:
     dance-single:
     :
     Easy:
     5:
     0.337,0.455,0.158,0.025,0.000: // measure 1
0000
0000
0000
0000
,  // measure 2
0000
0000
0000
0000
,  // measure 3
0000
0000
0000
0000
,  // measure 4
0000
0000
0000
0000
,  // measure 5
0001
0010
0100
0000
,  // measure 6
0010
0000
0001
0000
,  // measure 7
1000
0010
0100
0000
,  // measure 8
0010
0000
1000
0000
,  // measure 9
0001
0100
0010
0000
,  // measure 10
0100
0000
0001
0000
,  // measure 11
1000
0100
0010
0000
,  // measure 12
0100
0000
1000
0001
,  // measure 13
0001
0001
0000
0100
,  // measure 14
0000
0010
0000
1000
,  // measure 15
1000
1000
0000
0100
,  // measure 16
0000
0010
0000
0001
,  // measure 17
0100
1000
0000
0100
,  // measure 18
0000
0001
0000
1000
,  // measure 19
0100
0001
0000
0100
,  // measure 20
0000
1000
0000
0001
,  // measure 21
0000
0000
0000
1000
,  // measure 22
0000
0001
0000
0100
,  // measure 23
0000
0000
0000
0010
,  // measure 24
0000
1000
0000
0100
,  // measure 25
0000
0000
0000
0010
,  // measure 26
0000
0001
0000
1000
,  // measure 27
0010
0100
0001
1000
,  // measure 28
0010
0100
0001
1000
,  // measure 29
0000
0000
0000
0100
,  // measure 30
0000
0010
0000
0001
,  // measure 31
0000
0000
0000
0100
,  // measure 32
0000
0010
0000
1000
,  // measure 33
0000
0000
0000
0001
,  // measure 34
0000
0010
0000
0100
,  // measure 35
0100
0010
0010
0001
,  // measure 36
0001
1000
1000
0002
,  // measure 37
0000
0103
0000
2000
,  // measure 38
0000
3100
0000
0001
,  // measure 39
1000
0001
0001
1000
,  // measure 40
1000
0001
0010
0100
,  // measure 41
0010
0001
0000
0100
,  // measure 42
0000
0010
0000
1000
,  // measure 43
0000
0100
0100
1000
,  // measure 44
0000
0010
0010
0100
,  // measure 45
0100
0001
1000
0100
,  // measure 46
0010
0100
1000
0010
,  // measure 47
0100
0001
0000
1000
,  // measure 48
0000
0100
0000
0010
,  // measure 49
0000
0001
0001
0100
,  // measure 50
0000
0010
0010
1000
,  // measure 51
0000
0001
0010
0001
,  // measure 52
1000
0010
0100
0001
,  // measure 53
0000
1000
0100
0010
,  // measure 54
0100
1000
0010
0001
,  // measure 55
0010
1000
1000
0100
,  // measure 56
0100
0010
0001
1000
,  // measure 57
0000
0001
0001
0100
,  // measure 58
0010
0100
0100
0001
,  // measure 59
0010
0100
0100
1000
,  // measure 60
1000
0100
0010
0001
,  // measure 61
0000
1000
0010
0100
,  // measure 62
0001
1000
0100
0001
,  // measure 63
0100
0010
0010
0001
,  // measure 64
0001
1000
0010
0001
,  // measure 65
0010
0100
0100
0001
,  // measure 66
0001
1000
0100
0010
,  // measure 67
0100
1000
1000
0001
,  // measure 68
0001
0100
0010
1000
,  // measure 69
0001
0011
0000
1010
,  // measure 70
0000
1001
0110
1001
,  // measure 71
0000
0100
0000
0010
,  // measure 72
0000
1001
0110
1001
,  // measure 73
0110
1000
1000
0100
,  // measure 74
0100
1000
0100
1100
,  // measure 75
1100
0001
0001
0100
,  // measure 76
0100
0001
0100
0101
,  // measure 77
0101
1000
1000
0010
,  // measure 78
0010
1000
0010
1010
,  // measure 79
1010
0001
0001
0010
,  // measure 80
0010
0001
0010
0011
,  // measure 81
0011
0010
0100
0100
,  // measure 82
1000
0001
0100
0010
,  // measure 83
1000
1000
0010
0100
,  // measure 84
0001
0001
1001
1001
,  // measure 85
0001
0010
0100
0010
,  // measure 86
0001
0100
0010
1000
,  // measure 87
0100
0010
0100
1000
,  // measure 88
0010
0100
0001
1000
,  // measure 89
0200
0000
0000
0000
,  // measure 90
0000
0000
0000
0000
,  // measure 91
0000
0000
0000
0000
,  // measure 92
0300
0000
0000
0000
;
