#TITLE:Libra;
#SUBTITLE:;
#ARTIST:Megaera;
#TITLETRANSLIT:;
#SUBTITLETRANSLIT:;
#ARTISTTRANSLIT:;
#CREDIT:348 with Timer Rabbit;
#BANNER:Libra Banner.png;
#BACKGROUND:Libra Background.png;
#LYRICSPATH:;
#CDTITLE:;
#MUSIC:Libra.ogg;
#OFFSET:-0.047;
#SAMPLESTART:26.529;
#SAMPLELENGTH:15.000;
#SELECTABLE:YES;
#BPMS:0.000=72.500,16.000=145.000;
#STOPS:;
#BGCHANGES:;

//---------------dance-single - ----------------
#NOTES:
     dance-single:
     :
     Beginner:
     1:
     0.101,0.131,0.000,0.000,0.000:
0000
0000
0000
0000
,
0000
0000
0000
0000
,
0000
0000
0000
0000
,
0000
0000
0000
0000
,
1000
0000
0000
0000
,
1000
0000
0000
0000
,
0100
0000
0000
0000
,
0100
0000
0000
0000
,
0010
0000
0000
0000
,
0010
0000
0000
0000
,
0001
0000
0000
0000
,
0001
0000
0000
0000
,
1000
0000
0000
0000
,
0100
0000
0000
0000
,
1000
0000
0000
0000
,
0100
0000
0000
0000
,
0010
0000
0000
0000
,
0001
0000
0000
0000
,
0010
0000
0000
0000
,
0001
0000
0000
0000
,
1000
0000
0100
0000
,
0000
0000
0100
0000
,
0010
0000
0001
0000
,
0000
0000
0001
0000
,
0100
0000
0010
0000
,
0000
0000
0010
0000
,
1000
0000
0001
0000
,
0000
0000
0001
0000
,
1000
0000
0000
0000
,
1000
0000
1000
0000
,
0001
0000
0000
0000
,
0001
0000
0001
0000
,
0100
0000
0000
0000
,
0100
0000
0100
0000
,
0010
0000
0000
0000
,
0010
0000
0010
0000
,
1000
0000
0000
0001
,
0001
0000
1000
0000
,
0010
0000
0000
0100
,
0100
0000
0010
0000
,
1000
0000
0000
1000
,
0001
0000
0001
0000
,
0100
0000
0000
0100
,
0010
0000
0010
0000
,
1000
0000
0100
0000
,
1000
0000
0000
0001
,
0001
0000
0010
0000
,
0001
0000
0000
1000
,
0010
0000
1000
0000
,
0010
0000
0000
0100
,
0100
0000
0001
0000
,
0100
0000
0000
0010
,
1000
0000
0000
0000
,
0100
0000
0000
0000
,
0010
0000
0000
0000
,
0001
0000
0000
0000
,
1000
0000
0000
0000
,
0010
0000
0000
0000
,
0100
0000
0000
0000
,
0001
0000
0000
0000
;

//---------------dance-single - ----------------
#NOTES:
     dance-single:
     :
     Easy:
     3:
     0.221,0.271,0.124,0.124,0.000:
0000
0000
0000
0000
,
0000
0000
0000
0000
,
0000
0000
0000
0000
,
0000
0000
0000
0000
,
1000
0000
0000
0000
,
0001
0000
0000
0000
,
1000
0000
0000
0000
,
0001
0000
0000
0000
,
1000
0000
0001
0000
,
0100
0000
0010
0000
,
1000
0100
0010
0001
,
1000
0010
0100
0001
,
1000
0000
0001
0000
,
0100
0000
0010
0000
,
0100
0000
0010
0000
,
1000
0000
0001
1000
,
0001
0000
0100
0000
,
0010
0000
1000
0000
,
0010
0000
0100
0000
,
0001
0000
1000
0001
,
1000
0100
2000
0000
,
3001
0010
0002
0000
,
0103
0010
0200
0000
,
0310
0000
1001
0000
,
0100
0001
0200
0000
,
0310
1000
0020
0000
,
1030
0001
2000
0000
,
3001
0000
0110
0000
,
1000
1000
1100
0000
,
0001
0001
0011
0000
,
1000
0001
0100
0010
,
1000
0000
1001
0000
,
0100
0100
0101
0000
,
0010
0010
1010
0000
,
0100
0010
1000
0001
,
1000
0000
0110
0000
,
1000
0100
0010
0100
,
2000
0000
0001
3001
,
0001
0010
0100
0010
,
0001
0000
1100
0011
,
1000
0010
0100
0010
,
2000
0000
0001
3001
,
0001
0100
0010
0100
,
0001
0000
1010
0101
,
1000
0100
1000
0010
,
1000
0001
2000
0000
,
3001
0010
0100
1000
,
0001
0000
1001
0000
,
0001
0010
0001
0100
,
0001
1000
0002
0000
,
0103
0001
1000
0010
,
0100
0000
0110
0000
,
1000
0000
0100
0000
,
0010
0000
0001
0000
,
0001
0000
0010
0000
,
0100
0000
1000
0000
,
0002
0000
0000
0003
,
2000
0000
0000
3000
,
0020
0000
0000
0030
,
0200
0000
0000
0000
,
0000
0000
0000
0000
,
0300
0000
0000
0000
;

//---------------dance-single - ----------------
#NOTES:
     dance-single:
     :
     Medium:
     5:
     0.297,0.406,0.213,0.195,0.000:
0000
0000
0000
0000
,
0000
0000
0000
0000
,
0000
0000
0000
0000
,
0000
0000
0000
0000
,
1000
0000
1000
0000
,
0100
0000
0100
0000
,
0010
0000
0010
0000
,
0001
0000
0001
0000
,
1000
1000
1000
1000
,
0100
0100
0100
0100
,
0010
0010
0010
0010
,
0001
0001
0001
0001
,
1000
0100
0010
0100
,
1000
0001
1000
0000
,
0001
0100
0010
1000
,
0002
0000
0000
0000
1003
0001
1000
0000
,
0001
0100
0010
0100
,
0001
1000
0001
0000
,
1000
0100
0010
0001
,
2000
0000
0000
0000
3001
1000
0001
0000
,
1000
1100
1010
0000
,
0001
0011
0101
0000
,
1000
0001
0100
0010
,
0110
0000
0000
0000
1000
0010
1000
0000
,
0001
0011
0101
0000
,
1000
1100
1010
0000
,
0010
0100
0001
1000
,
1001
0000
0000
0000
0001
0100
0001
0000
,
2000
3200
2300
3001
,
0002
0023
0032
1003
,
0001
0000
1000
0100
1000
0000
0001
0000
,
0100
0000
0010
0010
,
2000
3020
2030
3001
,
0002
0203
0302
1003
,
1000
0000
0001
0010
0001
0000
1000
0000
,
0001
0000
1000
1000
,
0011
0000
0000
0001
0010
0000
0000
0000
,
1100
0000
0000
1000
0100
0000
0000
0000
,
1001
0000
0100
0000
0010
1000
0010
0000
,
1000
0000
0001
1001
,
0101
0000
0000
0001
0100
0000
0000
0000
,
1010
0000
0000
1000
0010
0000
0000
0000
,
0110
0000
1000
0000
0001
0100
0001
0000
,
0010
0000
0100
0110
,
1000
0100
0010
0001
,
1000
0100
0001
0100
,
1000
0000
0001
0000
1000
0001
1000
0000
,
0110
0000
0020
0130
,
0001
0010
0100
1000
,
0001
0010
1000
0010
,
0001
0000
0100
0000
0010
0100
0010
0000
,
1001
0000
2000
3001
,
1000
0000
1100
0000
,
0001
0000
0011
0000
,
0100
0000
0101
0000
,
0010
0000
1010
0000
,
2000
0000
0002
3003
,
0200
0000
0020
0330
,
2000
0000
0000
3000
,
0002
0000
0000
0000
,
0000
0000
0000
0000
,
0003
0000
0000
0000
;

//---------------dance-single - ----------------
#NOTES:
     dance-single:
     :
     Hard:
     7:
     0.429,0.460,0.204,0.213,0.000: // measure 1
0000
0000
0000
0000
,  // measure 2
0000
0000
0000
0000
,  // measure 3
0000
0000
0000
0000
,  // measure 4
0000
0000
0000
0000
,  // measure 5
1000
0100
0100
1000
,  // measure 6
0001
0010
0010
0001
,  // measure 7
1000
0100
0100
0010
,  // measure 8
0001
0010
0010
0100
,  // measure 9
1000
0100
0010
0000
0001
0010
0100
0000
,  // measure 10
1000
0010
0100
0000
0001
0100
0010
0000
,  // measure 11
1000
0100
0010
0001
0100
0010
1000
0001
,  // measure 12
1000
0001
1000
0010
0100
0010
0100
0001
,  // measure 13
1000
1100
0010
0011
,  // measure 14
1001
0000
1000
0010
0100
0001
1000
0000
,  // measure 15
0001
0011
0100
1100
,  // measure 16
1001
0000
0001
0010
0100
1000
0001
0000
,  // measure 17
0100
0101
0001
0101
,  // measure 18
2000
0000
3001
0100
0010
0000
0110
0000
,  // measure 19
1000
1010
0010
1010
,  // measure 20
0002
0000
1003
0010
0100
0000
0110
0000
,  // measure 21
0001
0100
0010
0000
0010
0100
0001
0000
,  // measure 22
1000
0100
0001
0100
1000
0001
1000
0000
,  // measure 23
1000
0010
0100
0000
0100
0010
1000
0000
,  // measure 24
0001
0010
1000
0010
0001
1000
0001
0000
,  // measure 25
1000
0100
0010
0000
0010
0100
1000
0000
,  // measure 26
0001
0100
1000
0100
0001
0000
1010
0000
,  // measure 27
0001
0010
0100
0000
0100
0010
0001
0000
,  // measure 28
1000
0010
0001
0010
1000
0000
0101
0000
,  // measure 29
2000
0000
0100
0000
0010
0000
3001
0010
,  // measure 30
0002
0000
0010
0000
0100
0000
1003
0001
,  // measure 31
2000
0000
3010
0000
0200
0000
0301
1000
,  // measure 32
0001
0000
1000
0001
0100
0010
1000
0000
,  // measure 33
0002
0000
0100
0000
0010
0000
1003
0100
,  // measure 34
2000
0000
0010
0000
0100
0000
3001
1000
,  // measure 35
0002
0000
0103
0000
0020
0000
1030
0001
,  // measure 36
1000
0000
0001
1000
0100
0010
0001
0000
,  // measure 37
0200
0001
1000
0310
,  // measure 38
0020
1000
0001
0130
,  // measure 39
0100
0000
0001
1000
0100
0000
0100
1000
,  // measure 40
0001
0000
0100
0010
0100
0000
1001
0000
,  // measure 41
0020
0001
1000
0130
,  // measure 42
0200
1000
0001
0310
,  // measure 43
0010
0000
1000
0001
0010
0000
0010
0001
,  // measure 44
1000
0000
0010
0100
0010
0000
1001
0000
,  // measure 45
1000
0100
1000
0010
1000
0001
0100
0010
,  // measure 46
1000
0001
1100
0101
,  // measure 47
0001
0010
0001
0100
0001
1000
0100
0010
,  // measure 48
0001
1000
0011
1010
,  // measure 49
0010
1000
0010
0100
0010
0001
0010
1000
,  // measure 50
0001
2000
3010
1010
,  // measure 51
0100
0001
0100
0010
0100
1000
0100
0001
,  // measure 52
1000
0002
0103
0101
,  // measure 53
1000
0000
1000
0000
1000
0100
0001
0000
,  // measure 54
0001
0000
0001
0000
0001
0100
1000
0000
,  // measure 55
0001
0000
0001
0000
0001
0010
1000
0000
,  // measure 56
1000
0000
1000
0000
1000
0010
0001
0000
,  // measure 57
0002
1003
2000
3001
,  // measure 58
0200
0310
0020
0130
,  // measure 59
2000
0000
0002
3003
,  // measure 60
0220
0000
0000
0000
,  // measure 61
0000
0000
0000
0000
,  // measure 62
0330
0000
0000
0000
;

//---------------dance-single - ----------------
#NOTES:
     dance-single:
     :
     Challenge:
     9:
     0.594,0.785,0.497,0.258,0.204: // measure 1
0000
0000
0000
0000
,  // measure 2
0000
0000
0000
0000
,  // measure 3
0000
0000
0000
0000
,  // measure 4
0000
0000
0000
0000
,  // measure 5
1000
1100
1000
1010
,  // measure 6
0001
0011
0001
0101
,  // measure 7
0100
0110
0010
1001
,  // measure 8
0010
0110
0100
1001
,  // measure 9
1000
0100
0010
0001
0100
0010
1000
0010
,  // measure 10
0100
0001
0010
0100
1000
0001
0100
0010
,  // measure 11
1000
0000
0001
0010
0001
0000
1000
0100
1000
0000
0010
1000
0100
0000
0010
0001
,  // measure 12
0100
0001
0100
0001
1000
0010
1000
0010
1000
0100
1000
0100
0010
0001
0010
0001
,  // measure 13
1000
0000
0100
0000
0001
0000
0100
0000
2000
0000
0000
0000
3001
0000
1000
0100
,  // measure 14
1000
0000
0010
0000
0001
0000
0010
0000
2000
0000
0000
0000
3001
0000
0100
0010
,  // measure 15
0100
0000
0001
0000
1000
0000
0001
0000
0200
0000
0000
0000
0301
0000
0100
0010
,  // measure 16
0100
1001
0110
1001
,  // measure 17
0001
0000
0010
0000
1000
0000
0010
0000
0002
0000
0000
0000
1003
0000
0001
0010
,  // measure 18
0001
0000
0100
0000
1000
0000
0100
0000
0002
0000
0000
0000
1003
0000
0010
0100
,  // measure 19
0010
0000
1000
0000
0001
0000
1000
0000
0010
0000
0000
0000
1000
0000
0010
0100
,  // measure 20
0010
0110
1001
0110
,  // measure 21
1000
0000
0100
1000
0010
0000
0100
0000
0001
0000
0000
0000
0101
0000
0000
0000
,  // measure 22
0001
0000
0010
0001
0100
0000
0010
0000
1000
0000
0000
0000
1010
0000
0000
0000
,  // measure 23
0001
1000
0100
0010
0100
0010
0001
1000
,  // measure 24
0012
0103
2010
3100
,  // measure 25
0001
0000
0100
0010
1000
0000
0010
0000
0100
0000
0000
0000
0011
0000
0000
0000
,  // measure 26
1000
0000
0010
0100
0001
0000
0100
0000
0010
0000
0000
0000
1100
0000
0000
0000
,  // measure 27
0001
0100
0001
1000
0001
1000
0010
1000
,  // measure 28
2100
3010
0102
0013
,  // measure 29
1100
0000
0001
0010
1100
0000
1001
0000
,  // measure 30
0011
0000
1000
0100
0011
0000
1001
0000
,  // measure 31
0110
0000
1000
0100
1010
0100
1000
0001
,  // measure 32
2000
0000
0000
0000
3010
0000
0100
0001
0100
0000
0000
0000
1001
0000
0000
0000
,  // measure 33
0101
0000
1000
0010
0101
0000
0110
0000
,  // measure 34
1010
0000
0001
0100
1010
0000
0110
0000
,  // measure 35
1001
0000
0001
0100
0011
0100
0001
1000
,  // measure 36
0002
0000
0000
0000
0013
0000
0100
1000
0100
0000
0000
0000
0110
0000
0000
0000
,  // measure 37
0011
0000
0000
0000
1000
0000
0001
0010
0001
0000
0100
0000
0010
0000
1000
0000
,  // measure 38
1100
0000
0000
0000
1000
0000
0001
0010
0001
0000
0100
0000
0010
0000
1000
0000
,  // measure 39
0110
0000
0000
0000
0001
0000
1000
0001
1000
0000
0010
0000
0100
0000
0010
0000
,  // measure 40
1000
0000
0100
0010
0001
0000
0010
0000
0100
0000
1000
0000
0001
0000
0000
0000
,  // measure 41
1010
0000
0000
0000
0010
0000
0100
0001
0100
0000
0010
0000
1000
0000
0001
0000
,  // measure 42
0101
0000
0000
0000
0100
0000
0010
1000
0010
0000
0100
0000
0001
0000
1000
0000
,  // measure 43
1001
0000
0000
0000
1000
0000
0001
0100
0001
0000
1000
0010
1000
0000
0001
0000
,  // measure 44
0100
0100
0010
0010
0100
0010
0110
0000
,  // measure 45
1000
0000
0100
0001
0100
0000
1000
0000
0100
0000
0010
0000
0001
0000
0100
0000
,  // measure 46
0001
0000
0010
1000
0010
0000
0001
0000
0100
0000
0010
0000
1000
0000
0001
1000
,  // measure 47
0001
0000
0100
1000
0100
0000
0001
0000
0100
0000
0001
0000
1000
0000
0010
0000
,  // measure 48
1000
0000
0010
0001
0010
0000
1000
0000
0001
0000
0000
0000
0110
0000
0000
0000
,  // measure 49
0001
0000
1000
0100
0010
0000
0100
0000
1000
0000
0001
0000
0100
0000
0010
0000
,  // measure 50
1000
0000
0001
0010
0100
0000
1000
0000
0001
0000
1000
0000
0010
0000
0100
0010
,  // measure 51
0100
0000
0001
1000
0001
0000
0100
0000
0010
0000
1000
0000
0001
0000
0100
0000
,  // measure 52
0010
0000
1000
0001
1000
0000
0010
0000
0100
0000
0000
0000
1001
0000
0000
0000
,  // measure 53
0002
0000
0000
0103
0020
0000
0000
0000
1000
0000
1000
0000
1030
0000
0000
0000
,  // measure 54
2000
0000
0000
3010
0200
0000
0000
0000
0001
0000
0001
0000
0301
0000
0000
0000
,  // measure 55
0200
0000
0000
0301
2000
0000
0000
0000
0010
0000
0010
0000
3010
0000
0000
0000
,  // measure 56
0020
0000
0000
1030
0002
0000
0000
0000
0100
0000
0100
0000
0103
0000
0000
0000
,  // measure 57
0201
0310
1020
0130
,  // measure 58
2100
3001
0012
1003
,  // measure 59
2002
3003
0220
0330
,  // measure 60
2002
0000
0000
0000
,  // measure 61
0000
0000
0000
0000
,  // measure 62
3003
0000
0000
0000
;
