#TITLE:Desperado;
#SUBTITLE:;
#ARTIST:Noriyuki Kamikura;
#TITLETRANSLIT:;
#SUBTITLETRANSLIT:;
#ARTISTTRANSLIT:;
#GENRE:;
#CREDIT:Meseki;
#MENUCOLOR:0.7,0.15,0.15,1.0;
#BANNER:Desperado-bn.png;
#BACKGROUND:Desperado-bg.png;
#LYRICSPATH:;
#CDTITLE:cdtitle.png;
#MUSIC:Desperado.mp3;
#OFFSET:-0.045;
#SAMPLESTART:36.751;
#SAMPLELENGTH:12.000;
#SELECTABLE:YES;
#LISTSORT:;
#BPMS:0.000=170.000;
#STOPS:;
#TICKCOUNT:0.000=2;
#BGCHANGES:;
#KEYSOUNDS:;
#ATTACKS:;

//---------------dance-single - ----------------
#NOTES:
     dance-single:
     :
     Medium:
     7:
     0.396,0.467,0.061,0.192,0.025:
0000
0000
0000
0000
,
0000
0000
0000
0000
,
0000
0000
0000
0000
,
0000
0000
0000
0000
,
0000
0000
0000
0000
,
0000
0000
0000
0000
,
1000
0100
1000
0100
,
1000
0010
1000
0010
,
0100
0010
0100
0010
,
0100
0000
0001
0000
0010
0100
0010
0000
,
0001
0000
0010
0000
0001
0100
0010
0000
,
1000
0000
0010
0000
1000
0100
0010
0000
,
0001
0000
0100
0000
0001
0010
0100
0000
,
1000
0000
0100
0000
1000
0000
0010
0100
,
0001
0000
0010
0000
0100
0000
1000
0010
,
0100
0000
0001
0000
0010
0000
0100
1000
,
0010
0000
0100
0000
0001
0000
1000
0001
,
0010
0000
0100
0000
1000
0010
1000
0010
,
1000
0100
0000
0100
0000
0010
0000
0001
,
0000
0100
0000
0100
0000
0001
0000
0100
,
0000
0001
0000
0001
0000
0100
0000
0010
,
0000
1000
0000
1000
0000
0100
0000
1000
,
0100
0010
0000
0010
0000
0001
0000
1000
,
0000
0010
0000
0010
0000
0100
0000
0010
,
0000
0100
0000
0100
0000
0010
0000
1000
,
0000
0100
0000
0100
0010
0001
0010
0001
,
2000
0000
3010
0000
0100
0001
0010
0000
,
1000
0000
0010
0000
0001
0100
0010
0000
,
0200
0000
0301
0000
0010
0100
1000
0000
,
0100
0000
0001
0100
1000
0000
0001
0000
,
2000
0000
3100
0000
0010
0001
0100
0000
,
1000
0000
0000
0000
0100
0000
0000
0000
0001
0000
0000
0100
0000
0000
0001
0000
,
0020
0000
0130
0000
1000
0001
0100
0000
,
0010
0000
0100
0000
1000
0100
0001
1000
,
0002
0000
0103
0000
,
0010
1000
0100
0000
,
0020
0000
0000
0000
0031
0000
0100
0010
,
0000
0000
1000
0000
0001
0100
0010
0100
,
0020
0000
1030
0000
,
0200
0000
0302
0000
,
0203
0000
0000
0000
1300
0000
0010
0100
,
0000
0001
0001
1000
,
0200
0000
0310
0000
,
0200
0000
0320
0000
,
0032
0000
0000
0000
0103
0000
0010
1000
,
0000
0000
0000
0100
0000
0010
0001
0000
,
2000
0000
3001
0000
,
0010
0000
0000
0000
0000
0000
0000
0000
0100
0000
0000
0010
0000
0000
0100
0000
,
2000
0000
0000
0000
3010
0000
0000
0200
,
0000
0000
0301
0000
,
1000
0000
0010
0100
0010
1000
0000
0000
,
0100
0000
0010
0001
1000
0001
0000
0000
,
0010
0000
0100
1000
0001
0100
0000
0000
,
0010
0100
0010
0000
0010
0001
0010
0000
,
1000
0000
0000
0000
0100
0000
0000
0000
0010
0000
0000
0001
0000
0000
0010
0000
,
0001
0000
0000
0000
0100
0000
0000
0000
0010
0000
0000
1000
0000
0000
0010
0000
,
1000
0000
0000
0000
0001
0000
0000
0000
0100
0000
0000
0010
0000
0000
0100
0000
,
0010
1000
0100
0001
,
0100
0010
0100
0000
1000
0000
1010
0000
,
0010
1000
0010
0000
0100
0000
0101
0000
,
0001
0010
0100
0000
0001
0000
0110
0000
,
1000
0010
0100
0000
1000
0000
1001
0000
,
0220
0000
0000
0000
,
0000
0000
0000
0000
0330
0000
0000
0001
,
1000
0000
0000
0000
,
0100
0100
0010
0010
,
1001
0000
0000
0000
;

//---------------dance-single - ----------------
#NOTES:
     dance-single:
     :
     Hard:
     8:
     0.481,0.534,0.142,0.243,0.051: // measure 1
0000
0000
0000
0000
,  // measure 2
0000
0000
0000
0000
,  // measure 3
0000
0000
0000
0000
,  // measure 4
0000
0000
0000
0000
,  // measure 5
0000
0000
0000
0000
,  // measure 6
0000
0000
0000
0000
,  // measure 7
1000
0010
1000
0000
0001
0010
0001
0000
,  // measure 8
0100
0010
0100
0000
0010
1000
0010
0000
,  // measure 9
1000
0001
1000
0000
0100
0010
0100
0000
,  // measure 10
0010
0001
0010
0000
0001
0100
1000
0100
,  // measure 11
0001
0000
0100
0010
1000
0100
0010
0000
,  // measure 12
0001
0000
1000
0010
0100
0001
0010
0000
,  // measure 13
0100
0000
1000
0010
0100
0010
1000
0000
,  // measure 14
0100
0000
0010
0001
0200
0000
1300
0100
,  // measure 15
0001
0000
0010
0000
0001
0100
0020
0000
,  // measure 16
1030
0000
0100
0000
1000
0010
0200
0000
,  // measure 17
0301
0000
1000
0000
0100
1000
0020
0000
,  // measure 18
0130
0000
0000
0100
0000
0000
0001
0000
0100
0000
0001
0000
0020
0000
0100
0000
,  // measure 19
0130
1000
0000
1000
0000
0100
0000
0110
,  // measure 20
0000
0010
0000
0001
0000
0010
0000
0010
,  // measure 21
0000
0001
0000
0001
0000
0100
0000
0110
,  // measure 22
0000
0010
0000
1000
0000
0010
0000
0010
,  // measure 23
1000
0100
0000
0100
0000
1000
0000
1010
,  // measure 24
0000
0010
0000
0100
0000
0010
0000
0010
,  // measure 25
0000
0100
0000
0100
0000
0001
0000
0011
,  // measure 26
0000
0010
0000
0010
0100
0100
1000
0100
,  // measure 27
2000
0000
3010
0000
0100
0001
0010
0000
,  // measure 28
0100
0000
1100
0000
1000
0001
0100
0000
,  // measure 29
0020
0000
1030
0000
0001
0010
0100
0000
,  // measure 30
1000
0000
0010
1000
0001
0000
0101
0000
,  // measure 31
0200
0000
0310
0000
1000
0100
0001
0000
,  // measure 32
0100
0000
0000
0000
0010
0000
0000
0000
0001
0000
0000
0100
0000
0000
0010
0000
,  // measure 33
2000
0000
3100
0000
0010
0001
0100
0000
,  // measure 34
0010
1000
0100
0000
1000
0100
0010
0001
,  // measure 35
2000
0000
0010
0000
3010
0000
0000
1000
,  // measure 36
0000
0001
0010
0100
,  // measure 37
0020
0000
0001
0000
0031
0000
0010
0100
,  // measure 38
0000
0000
1000
0000
0001
1000
0100
1000
,  // measure 39
0020
1000
1030
0000
,  // measure 40
0200
0000
0302
0000
,  // measure 41
0203
0000
0000
0000
1300
0000
0010
0001
,  // measure 42
0000
0010
1000
0100
,  // measure 43
0020
0001
0031
0000
,  // measure 44
0200
0000
0320
0000
,  // measure 45
2030
0000
0000
0000
3000
0000
0100
0010
,  // measure 46
0000
0000
0000
0100
0000
1000
0100
0010
,  // measure 47
0002
0000
0100
0000
0103
0000
0000
0001
,  // measure 48
0000
0000
0000
0000
1000
0000
0000
0000
0100
0000
0000
0010
0000
0000
0100
0000
,  // measure 49
2000
0000
0001
0000
3001
0000
0000
0200
,  // measure 50
0000
0000
0001
0000
0300
0000
0001
0100
,  // measure 51
0010
1000
0010
0100
0001
0010
0000
0100
,  // measure 52
1000
0010
0100
0010
1000
0001
0000
0010
,  // measure 53
0100
1000
0010
0100
0001
0010
0000
0100
,  // measure 54
1000
0100
1000
0100
0010
0010
0001
0001
,  // measure 55
1000
0000
0100
0000
0010
0000
0001
0000
0100
0000
0000
0010
0000
0000
0100
0000
,  // measure 56
0001
0000
1000
0000
0010
0000
0100
0000
0001
0000
0000
1000
0000
0000
0100
0000
,  // measure 57
0010
0000
0100
0000
1000
0000
0010
0000
0100
0000
0000
0001
0000
0000
1000
0000
,  // measure 58
0001
0010
0100
0010
0001
0100
0010
1000
,  // measure 59
0100
0000
0010
0000
0001
0000
0000
0000
1001
0000
0000
1000
0000
0000
0010
0000
,  // measure 60
0100
0000
0001
0000
0010
0000
0000
0000
0110
0000
0000
0100
0000
0000
1000
0000
,  // measure 61
0001
0000
0100
0000
0010
0000
0000
0000
1010
0000
0000
1000
0000
0000
0001
0000
,  // measure 62
0100
0000
1000
0000
0100
0000
0000
0000
0101
0000
0000
0001
0000
0000
0010
0000
,  // measure 63
0220
0000
0000
0000
,  // measure 64
0000
0000
0000
0000
0000
0030
0300
1000
,  // measure 65
0001
0000
0000
0000
,  // measure 66
0011
0001
1100
1000
,  // measure 67
0110
0000
0000
0000
;

//---------------dance-single - ----------------
#NOTES:
     dance-single:
     :
     Easy:
     4:
     0.266,0.367,0.051,0.303,0.000:
0000
0000
0000
0000
,
0000
0000
0000
0000
,
0000
0000
0000
0000
,
0000
0000
0000
0000
,
0000
0000
0000
0000
,
0000
0000
0000
0000
,
1000
0000
0010
0000
,
1000
0000
0010
0000
,
0100
0000
0001
0000
,
0100
0000
0001
0010
,
0100
0000
1000
1000
,
0010
0000
0100
0100
,
0001
0000
0010
0010
,
0100
0000
1000
0001
,
1000
0000
1000
0000
,
0001
0000
0001
0000
,
0100
0000
0100
0000
,
0010
0000
0010
1000
,
0000
0001
0000
0000
0000
0001
0000
0010
,
0000
0001
0000
0000
0000
0100
0000
0000
,
0000
0010
0000
0000
0000
0010
0000
1000
,
0000
0010
0000
0000
0000
0010
0000
0000
,
0000
1000
0000
0000
0000
1000
0000
0001
,
0000
1000
0000
0000
0000
0100
0000
0000
,
0000
0010
0000
0000
0000
0010
0000
0001
,
0000
0100
0000
0000
0010
0000
0010
0000
,
2000
3000
0020
0030
,
0200
0300
0002
0003
,
0020
0030
0002
0003
,
2000
3000
0020
0030
,
2000
3000
0002
0003
,
0020
0000
0030
0000
0100
0000
0000
0100
,
0020
0030
0002
0003
,
0200
0300
0020
0030
,
2000
0000
0000
3000
,
0100
0000
0010
0000
,
0002
0000
0000
0000
0003
0000
0000
0100
,
0000
0000
0010
1000
,
0020
0000
0030
0000
,
2000
3000
0002
0003
,
2000
0000
0000
0000
3000
0000
0000
0100
,
0000
0000
0000
0100
,
0020
0000
0000
0030
,
0200
0300
0020
0030
,
0002
0000
0000
0000
0003
0000
0000
1000
,
0000
0000
0000
0100
0000
0000
0100
0000
,
2000
0000
0000
0000
,
3000
0000
0000
0000
0010
0000
0000
0010
,
0200
0000
0000
0000
0300
0000
0000
0002
,
0000
0000
0003
0000
,
1000
0000
0001
0000
1000
0010
0000
0000
,
0100
0000
0001
0000
0100
0010
0000
0000
,
1000
0000
0010
0000
1000
0100
0000
0000
,
0010
0010
0001
0001
,
0100
0000
0001
0000
0100
0000
0000
0001
,
1000
0000
0100
0000
1000
0000
0000
0100
,
0010
0000
0001
0000
0010
0000
0000
0001
,
1000
0010
0100
0001
,
1000
0100
0010
0110
,
0100
1000
0010
1010
,
0010
0100
0001
0101
,
0100
0010
1000
0001
,
0220
0000
0000
0000
,
0000
0000
0030
0000
0300
0000
0000
0010
,
0100
0000
0000
0000
,
1000
0001
1000
0001
,
1001
0000
0000
0000
;

//---------------dance-single - ----------------
#NOTES:
     dance-single:
     :
     Beginner:
     3:
     0.152,0.234,0.020,0.142,0.000:
0000
0000
0000
0000
,
0000
0000
0000
0000
,
0000
0000
0000
0000
,
0000
0000
0000
0000
,
0000
0000
0000
0000
,
0000
0000
0000
0000
,
1000
0000
0000
0000
,
0001
0000
0000
0000
,
1000
0000
0000
0000
,
0100
0000
0010
0000
,
0001
0000
1000
0000
,
0001
0000
0000
0000
,
0010
0000
0100
0000
,
0010
0000
0000
0000
,
0001
0000
0100
0000
,
0001
0000
0000
0000
,
1000
0000
0010
0000
,
1000
0000
0000
0000
,
0000
1000
0000
0000
0000
0000
0000
0010
,
0000
0000
0000
0000
0000
0100
0000
0000
,
0000
0100
0000
0000
0000
0000
0000
0001
,
0000
0000
0000
0000
0000
0010
0000
0000
,
0000
0010
0000
0000
0000
0000
0000
0100
,
0000
0000
0000
0000
0000
1000
0000
0000
,
0000
1000
0000
0000
0000
0000
0000
0001
,
0000
0000
0100
0000
,
0010
0000
1000
0000
,
0200
0000
0300
0000
,
0010
0000
0001
0000
,
2000
0000
3000
0000
,
0010
0000
1000
0000
,
0200
0000
0300
0000
,
0010
0000
0001
0000
,
0100
0000
0001
0000
,
0020
0000
0030
0000
,
0000
0000
0000
0000
,
0200
0000
0300
0000
,
0000
0000
1000
0000
,
0020
0000
0030
0000
,
0100
0000
0001
0000
,
0200
0000
0300
0000
,
0000
0000
0000
0000
,
0020
0000
0030
0000
,
1000
0000
0100
0000
,
0020
0000
0030
0000
,
0000
0000
0000
0000
,
0002
0000
0003
0000
,
0000
0000
0100
0000
,
0020
0000
0000
0000
0030
0000
0000
2000
,
0000
0000
3000
0000
,
0001
0000
0100
0000
,
0010
0000
1000
0000
,
0001
0000
0010
0000
,
0100
0000
0010
0000
,
0001
0000
1000
0000
,
0100
0000
1000
0000
,
0010
0000
0100
0000
,
0001
0000
0100
0000
,
0010
0000
1000
1000
,
1000
0000
0100
0100
,
0100
0000
0010
0010
,
0010
0000
0100
0000
,
0220
0000
0000
0000
,
0000
0030
0300
0000
,
0010
0000
0000
0000
,
0001
0000
1000
0000
,
1001
0000
0000
0000
;

//---------------dance-single - ----------------
#NOTES:
     dance-single:
     :
     Challenge:
     9:
     0.605,0.701,0.131,0.243,0.248: // measure 1
0000
0000
0000
0000
,  // measure 2
0000
0000
0000
0000
,  // measure 3
0000
0000
0000
0000
,  // measure 4
0000
0000
0000
0000
,  // measure 5
0000
0000
0000
0000
,  // measure 6
0000
0000
0000
0000
,  // measure 7
1000
0001
0100
0001
1000
0100
0010
0000
,  // measure 8
0001
1000
0100
1000
0001
0010
0100
0000
,  // measure 9
1000
0010
0100
0010
1000
0001
0010
0000
,  // measure 10
0100
0000
1000
0000
0010
0000
0100
0000
0001
0010
0001
0000
0100
0000
0010
0000
,  // measure 11
1000
0000
0000
0010
0100
0000
0001
0000
0010
0000
0001
0000
1000
0000
0000
0000
,  // measure 12
0100
0000
0000
0010
0001
0000
1000
0000
0010
0000
1000
0000
0100
0000
0000
0000
,  // measure 13
0010
0000
0000
0001
0100
0000
0010
0000
1000
0000
0001
0000
0010
0000
0000
0000
,  // measure 14
0100
0000
0000
1000
0010
0000
0100
0000
2000
0000
3100
0010
0100
0000
0001
0000
,  // measure 15
0010
0000
0001
0100
0001
0000
0010
0000
0100
0000
1000
0000
0020
0000
0000
0000
,  // measure 16
0130
0000
0001
0010
0001
0000
0100
0000
0010
0000
1000
0000
0200
0000
0000
0000
,  // measure 17
0310
0000
0001
1000
0001
0000
0010
0000
0100
0000
0001
0000
0200
0000
0000
0000
,  // measure 18
1300
0000
0010
0100
0000
0000
0100
0000
0001
0010
0001
0010
0002
0000
1000
0000
,  // measure 19
1003
0100
0000
0100
0000
0010
0000
0011
,  // measure 20
0000
0001
0000
0100
0000
0001
0000
0001
,  // measure 21
0000
1000
0000
1000
0000
0010
0000
0110
,  // measure 22
0000
0100
0000
0001
0000
0100
0000
0100
,  // measure 23
0010
1000
0000
1000
0010
0100
0000
0101
,  // measure 24
0000
0001
0000
0010
0000
0001
0000
0001
,  // measure 25
0000
0100
0000
0100
0000
0010
0000
1010
,  // measure 26
0000
0000
1000
0000
0000
0000
0100
0000
0010
0000
0001
0010
0001
0010
0001
0010
,  // measure 27
0200
0000
1300
0010
0100
0001
0010
0000
,  // measure 28
0001
0000
0100
0001
0010
1000
0010
0000
,  // measure 29
0200
0000
1300
0001
0100
0010
1000
0000
,  // measure 30
0100
0000
0010
0000
0001
0100
0000
0100
0010
0000
0000
0000
1010
0000
0000
0000
,  // measure 31
2000
0000
3100
0010
0001
0100
0010
0000
,  // measure 32
1000
0000
0100
0000
1000
0000
0000
0000
0010
0000
0000
1000
0000
0000
0100
0000
,  // measure 33
0002
0000
0103
1000
0001
0100
0010
0000
,  // measure 34
0100
0000
0001
0000
0010
0000
0000
0000
0100
0000
1000
0100
1000
0100
1000
0100
,  // measure 35
2000
0000
0100
3100
0010
0000
0001
0100
,  // measure 36
0000
0001
0100
0000
0010
0000
1000
0100
,  // measure 37
0020
0000
0001
0031
1000
0000
0010
0100
,  // measure 38
0000
0010
0100
0000
0001
0100
0010
1000
,  // measure 39
0002
0000
1000
1003
0100
0000
0010
0001
,  // measure 40
0200
0000
2300
0000
,  // measure 41
3200
0000
0010
0310
1000
0000
0001
0010
,  // measure 42
0000
0001
0010
0000
0001
0000
0100
0010
,  // measure 43
2000
0000
0001
3001
0010
0000
0100
0010
,  // measure 44
0200
0000
0320
0000
,  // measure 45
0032
0000
0100
0103
0010
0000
1000
0001
,  // measure 46
0000
0000
0000
0100
0000
0010
1000
0100
,  // measure 47
0020
0000
0001
0031
0100
0000
0010
1000
,  // measure 48
0000
0000
0010
0000
1000
0000
0000
0000
0100
0000
0000
0001
0000
0000
0100
0000
,  // measure 49
2000
0000
0001
3001
0100
0000
0001
0020
,  // measure 50
0000
0001
0001
0000
0030
0000
0001
0100
,  // measure 51
0010
0000
1000
0000
0010
0100
0000
0010
1000
0000
0001
0000
0000
0000
0010
0000
,  // measure 52
0100
0000
1000
0000
0001
0100
0000
0001
0010
0000
0100
0000
0000
0000
1000
0000
,  // measure 53
0010
0000
1000
0000
0100
0010
0000
0100
1000
0000
0001
0000
0000
0000
1000
0000
,  // measure 54
0001
0000
0010
0001
0010
0000
0100
0000
1000
0000
0001
1000
0001
0000
0100
0000
,  // measure 55
0010
0000
1000
0000
0100
0000
0010
0000
0001
0010
0000
0001
0010
0000
0001
0100
,  // measure 56
0001
0000
0100
0000
0010
0000
1000
0000
0100
1000
0000
0100
1000
0000
0010
1000
,  // measure 57
0010
0000
0100
0000
0001
0000
0010
0000
0100
0010
0000
0100
0010
0000
0100
1000
,  // measure 58
0100
0000
0010
0001
0010
0000
0100
0000
1000
0000
0010
0100
0010
0000
1000
0000
,  // measure 59
0001
0000
0100
0010
0100
0000
0010
0000
1000
0000
0000
1100
0000
0000
0100
0000
,  // measure 60
0010
0000
0001
1000
0001
0000
0100
0000
0010
0000
0000
1010
0000
0000
1000
0000
,  // measure 61
0100
0000
0010
0001
0010
0000
0001
0000
0100
0000
0000
0110
0000
0000
0010
0000
,  // measure 62
1000
0000
0001
0100
0001
0000
1000
0000
0010
0000
0000
0110
0000
0000
0100
0000
,  // measure 63
2002
0000
0000
0000
,  // measure 64
0000
0000
0000
0000
0000
0003
3000
0001
,  // measure 65
1000
0000
0000
0000
,  // measure 66
1100
0001
0101
1000
,  // measure 67
1001
0000
0000
0000
;
