#TITLE:Curry Up;
#SUBTITLE:;
#ARTIST:OR-IF-IS;
#TITLETRANSLIT:;
#SUBTITLETRANSLIT:;
#ARTISTTRANSLIT:;
#CREDIT:;
#BANNER:Curry Up.png;
#BACKGROUND:Curry Up-bg.png;
#LYRICSPATH:;
#CDTITLE:./CDTITLES/DanceDanceRevolution 2010.png;
#MUSIC:Curry Up.mp3;
#OFFSET:1.403;
#SAMPLESTART:8.040;
#SAMPLELENGTH:15.000;
#SELECTABLE:YES;
#BPMS:0.000=165.000;
#STOPS:;
#BGCHANGES:;

//---------------dance-single - ----------------
#NOTES:
     dance-single:
     :
     Beginner:
     2:
     0.174,0.229,0.104,0.000,0.000:
0000
0000
0000
0000
,
0000
0000
0000
0000
,
0000
0000
0000
0000
,
0000
0000
0000
0000
,
0000
0000
0000
0000
,
1000
0000
0000
0000
,
0001
0000
0000
0000
,
1000
0000
0001
0000
,
1000
0000
0000
0000
,
0100
0000
1000
0000
,
0100
0000
0000
0000
,
1000
0000
0000
0000
,
0001
0000
0000
0000
,
1000
0000
0001
0001
,
0001
0000
0000
0000
,
1000
0000
0100
0100
,
0100
0000
1000
1000
,
1000
0000
0001
0001
,
0001
0000
0010
0000
,
1000
0000
0100
0100
,
0100
0000
1000
1000
,
1000
0000
0001
0001
,
0001
1000
0000
0000
,
1000
0001
1000
1001
,
0000
0000
0000
1100
,
0000
0000
0100
1100
,
0000
0000
0100
1001
,
0000
0000
0000
0000
,
1001
0000
0000
0000
,
0100
1000
0100
0000
,
1000
1000
1000
0000
,
0001
0000
1001
0000
,
0000
0000
0100
0000
,
1100
0000
0000
0000
,
1000
0000
0000
0000
,
0001
0000
0000
0000
,
1000
0000
0000
1100
,
0100
0000
0000
0000
,
1100
0000
0000
0000
,
1000
0000
0000
0000
,
0100
0000
1000
0000
,
0100
0000
0000
0000
,
1000
0000
0100
0000
,
0000
0000
1000
0000
,
0100
0000
1000
0000
,
0100
0000
0000
0000
,
1000
0000
0000
0000
,
0001
1000
0001
0010
,
0000
0000
1000
0001
,
0000
0000
1000
1000
,
0000
0000
0001
0001
,
0000
0000
1000
1000
,
0000
0000
0010
0010
,
0000
0000
0100
0100
,
0000
0000
1000
1000
,
0000
0000
0001
0001
,
0000
1000
0000
1000
,
0000
0010
0000
0010
,
0000
0100
0000
0100
,
0000
1000
0000
1000
,
0000
0001
0000
0001
,
0000
1000
0000
1000
,
0000
0100
0000
1100
;

//---------------dance-single - ----------------
#NOTES:
     dance-single:
     :
     Easy:
     5:
     0.291,0.425,0.146,0.062,0.000:
0000
0000
0000
0000
,
0000
0000
0000
0000
,
0000
0000
0000
0000
,
0000
0000
0000
0000
,
0000
0000
0000
0000
,
1000
0100
1000
0000
,
0001
1000
0000
0000
,
1000
0100
0010
0001
,
1000
0000
0000
0000
,
0100
1000
0100
0010
,
0000
0000
0001
0010
,
0100
1000
0000
0000
,
1000
0100
0010
0100
,
0001
1000
0001
1000
,
0000
0000
0100
1000
,
0100
0000
0000
0000
,
0100
1000
0100
0010
,
0000
0000
1000
0100
,
1000
0100
0000
0000
,
0001
1000
0001
0010
,
0001
1000
0001
0010
,
0001
0000
0000
0000
,
1000
1000
0000
0000
,
1000
1100
0100
1100
,
0100
0100
0100
0101
,
0001
0001
0101
0100
,
0100
1100
1000
1100
,
0100
0100
0110
0010
,
0011
0000
1000
1000
,
0000
0100
0100
0100
,
0000
0000
1000
0001
,
1000
0000
0100
0000
,
1000
0100
1000
0100
,
0010
0000
1000
0100
,
0010
0001
1000
0100
,
0001
0010
0100
1000
,
0001
0010
0001
0100
,
0001
0010
0001
1000
,
0001
1000
0000
0000
,
1000
0100
0010
0000
,
1000
0000
0100
0000
,
2200
0000
0000
0000
,
0000
0000
0000
3300
,
0202
0000
0000
0000
,
0000
0000
0000
0303
,
0220
0000
0000
0000
,
1330
0000
0000
0000
,
1000
0100
0010
0001
,
1000
0100
1000
0100
,
0010
0001
0010
0001
,
1000
0100
1000
0100
,
0010
0100
0010
0100
,
0001
0100
0001
0100
,
1000
0100
1000
0100
,
1000
0100
1000
0100
,
0010
0100
0010
0100
,
0010
0001
0010
0001
,
0010
0100
0010
0100
,
0010
0100
1000
0100
,
1000
0100
0010
0100
,
0010
0100
1000
0100
,
1000
0100
0010
0100
,
0010
0011
0011
0011
;

//---------------dance-single - ----------------
#NOTES:
     dance-single:
     :
     Medium:
     7:
     0.436,0.599,0.489,0.104,0.000:
0000
0000
0000
0000
,
0000
0000
0000
0000
,
0000
0000
0000
0000
,
0000
0000
0000
0000
,
0000
0000
0000
0000
,
1000
0001
1000
0000
0001
1000
0001
0000
,
0010
1000
0010
0000
0000
0000
0000
0000
,
1000
0100
1000
0000
0001
1000
0001
0000
,
1000
0100
1000
0000
0001
1000
0001
0000
,
0010
1000
0010
0000
0100
1000
0100
0000
,
0000
1001
1000
0000
0000
0000
0000
0000
,
0100
1000
0100
0000
0001
1000
0001
0000
,
1000
0010
1000
0000
0100
1000
0100
0000
,
0000
1001
0001
0000
0000
0000
0000
0000
,
1000
0100
1000
0100
,
0000
0001
0100
0000
0001
0000
1000
0000
,
0100
1000
0100
0010
,
0100
0010
0001
0010
,
0100
0000
0000
0000
0000
1000
0000
0100
,
1000
0000
0100
0000
1000
0000
0100
1000
,
0000
0100
0000
0000
1000
0100
0010
0001
,
1000
0000
0000
0100
1000
0100
1000
0000
,
0100
1000
0100
0000
0000
0000
0000
0000
,
1001
1100
1001
1010
,
1100
1001
1010
1100
,
1001
1100
1010
1100
,
1001
1010
1100
1001
,
1010
1100
1001
1010
,
1100
1001
1010
1100
,
1001
1010
1100
1001
,
0110
1001
0110
1001
,
0110
0000
0000
0000
0001
1000
0000
0000
,
0100
1000
0100
0001
,
0100
0000
1100
0000
,
0001
0000
0000
0000
0000
0100
0000
0000
,
0001
0000
0000
0000
1000
0100
0000
0000
,
0000
0000
1000
0100
,
0000
1000
0000
0100
0000
1000
0000
0000
,
0000
0000
0000
0000
,
2002
0000
0000
0000
,
0000
0000
0000
3003
,
2200
0000
0000
0000
,
0000
0000
0000
3300
,
2002
0000
0000
0000
,
0000
0000
0000
3003
,
2020
0000
0000
0000
,
0000
0000
0000
3030
,
1000
0100
1000
0100
1000
0100
1000
0000
,
0001
1000
0001
1000
0001
1000
0001
0000
,
0010
1000
0010
1000
0010
1000
0010
0000
,
0100
1000
0100
1000
0100
1000
0100
0000
,
0001
1000
0001
1000
0001
1000
0001
0000
,
0010
1000
0010
1000
0010
1000
0010
0000
,
0000
1100
0100
1000
0100
1000
0100
0000
,
0000
0001
1001
0000
1000
1001
0001
0000
,
1000
0010
1000
0010
1000
0010
1000
0000
,
0100
1000
0100
1000
0100
1000
0100
0000
,
0001
1000
0001
1000
0001
1000
0001
0000
,
1000
0010
1000
0010
1000
0010
1000
0000
,
0100
1000
0100
1000
0100
1000
0100
1000
,
0000
0001
0000
1000
0100
0000
1000
0000
,
0100
1000
0001
1000
,
1010
1100
1001
2002
,
0000
0000
0000
0000
,
3003
0000
0000
0000
;

//---------------dance-single - ----------------
#NOTES:
     dance-single:
     :
     Hard:
     9:
     0.621,0.616,0.114,0.156,0.167: // measure 1
0000
0000
0000
0000
,  // measure 2
0000
0000
0000
0000
,  // measure 3
0000
0000
0000
0000
,  // measure 4
0000
0000
0000
0000
,  // measure 5
1000
0000
0001
0100
0010
1000
0001
0000
,  // measure 6
1000
0000
0010
0001
0100
0010
1000
0000
,  // measure 7
2002
0000
0000
3003
,  // measure 8
1000
0100
0001
0100
1000
0010
0001
0000
,  // measure 9
0010
0100
0010
1000
0010
0100
0010
0000
,  // measure 10
0001
0010
1000
0010
0001
0100
1000
0000
,  // measure 11
1000
0100
0010
0001
0010
0100
1000
0000
,  // measure 12
0001
0010
0100
1000
0100
0010
0001
0000
,  // measure 13
1000
0001
0100
0010
1000
0001
0010
0000
,  // measure 14
1000
0100
0010
0100
1000
0100
0010
0000
,  // measure 15
0001
0010
0100
0010
0001
0010
0100
0000
,  // measure 16
1000
0100
0001
0100
1000
0010
0001
0000
,  // measure 17
1000
0100
0010
0001
0010
0100
1000
0000
,  // measure 18
0001
1000
0010
0100
0001
0010
0100
0000
,  // measure 19
1000
0100
0010
0100
1000
0001
1000
0000
,  // measure 20
0010
0100
0010
1000
0010
0100
0010
0000
,  // measure 21
1000
0100
1000
0010
1000
0001
1000
0000
,  // measure 22
0010
0100
0010
0001
0010
0100
0010
0000
,  // measure 23
2002
0000
0000
3003
,  // measure 24
1000
0100
1000
0000
0001
0000
1000
0001
1000
0000
0010
0000
1000
0000
0000
0000
,  // measure 25
0010
0100
0010
0000
1000
0000
0001
0010
0001
0000
0100
0000
0010
0000
0000
0000
,  // measure 26
1000
0000
0001
0000
0100
0000
0010
0100
0010
0000
1000
0000
0100
0000
0000
0000
,  // measure 27
0001
0000
0010
0000
1000
0000
0010
0100
0010
0000
1000
0000
0100
0000
0000
0000
,  // measure 28
1000
0000
0100
0000
0001
0000
1000
0100
1000
0000
0100
0000
0010
0000
0000
0000
,  // measure 29
1000
0000
0100
0000
0010
0000
0100
0010
0100
0000
0010
0000
0100
0000
0000
0000
,  // measure 30
1000
0000
0100
0000
0010
0000
0001
0010
0001
0000
0010
0000
0100
0000
0000
0000
,  // measure 31
1000
0000
0100
0000
0010
0000
0001
0010
0001
0000
0010
0000
0100
0000
0000
0000
,  // measure 32
0200
0000
0000
0000
0300
0000
1000
0001
1000
0000
0100
0000
0010
0000
0000
0000
,  // measure 33
0002
0000
0000
0000
0003
0000
1000
0100
1000
0000
0100
0000
0010
0000
0000
0000
,  // measure 34
2000
0000
0000
0000
3000
0000
0001
0100
0001
0000
0010
0000
0100
0000
0000
0000
,  // measure 35
0020
0000
0000
0000
0030
0000
0100
1000
0100
0000
0010
0000
0100
0000
0000
0000
,  // measure 36
0200
0000
0000
0000
0300
0000
1000
0001
1000
0000
0100
0000
0010
0000
0000
0000
,  // measure 37
0002
0000
0000
0000
0003
0000
1000
0000
0010
0100
0010
0000
1000
0000
0000
0000
,  // measure 38
2000
0000
0000
0000
3000
0000
0001
0010
0001
0000
0010
0000
0100
0000
0000
0000
,  // measure 39
2002
0000
0000
3003
,  // measure 40
1000
0001
1000
0001
1000
0000
0000
0100
,  // measure 41
0100
0000
0100
0010
0000
1000
0000
0000
,  // measure 42
0100
0010
0100
0010
0100
0000
0000
1000
,  // measure 43
1000
0000
0010
0100
0000
0000
0001
0000
,  // measure 44
0010
0001
0010
0100
0010
0000
1000
0000
,  // measure 45
0100
0100
0000
1000
0100
0000
0100
0000
,  // measure 46
0110
0110
0000
0000
0000
1001
0000
1100
,  // measure 47
1100
1100
0000
0000
1100
0000
0000
0000
,  // measure 48
1000
0000
0010
0000
1000
0000
0010
1000
0010
0000
1000
0000
0100
0000
0000
0000
,  // measure 49
0001
0000
1000
0000
0001
0000
1000
0001
1000
0000
0001
0000
0010
0000
0000
0000
,  // measure 50
1000
0000
0100
0000
1000
0000
0100
1000
0100
0000
1000
0000
0010
0000
0000
0000
,  // measure 51
0001
0000
1000
0000
0010
0000
0100
0010
0100
0000
1000
0000
0010
0000
0000
0000
,  // measure 52
1000
0000
0001
0000
0100
0000
0010
0100
0010
0000
1000
0000
0001
0000
0000
0000
,  // measure 53
1000
0000
0100
0000
0010
0000
0001
0010
0001
0000
0100
0000
1000
0000
0000
0000
,  // measure 54
1000
0000
0100
0000
0010
0000
0100
0010
0100
0000
1000
0000
0100
0000
0000
0000
,  // measure 55
0001
0000
0010
0000
0001
0000
0010
0100
0010
0000
0100
0000
0010
0000
0000
0000
,  // measure 56
1000
0000
0100
0000
1000
0000
0100
0010
0100
0000
0010
0000
0100
0000
0000
0000
,  // measure 57
1000
0000
0100
0000
0010
0000
0001
0010
0001
0000
0010
0000
0100
0000
0000
0000
,  // measure 58
1000
0000
0100
0000
0010
0000
0100
0010
0100
0000
0010
0000
1000
0000
0000
0000
,  // measure 59
0010
0000
0100
0000
0010
0100
0001
0000
0010
0000
0100
0000
0000
0000
0000
0000
,  // measure 60
1000
0000
0100
0000
1000
0000
0010
0100
1000
0000
0100
0000
0010
0000
0000
0000
,  // measure 61
1000
0000
0010
0000
1000
0000
0100
0010
0100
0000
1000
0000
0100
0000
0000
0000
,  // measure 62
0001
0000
0010
0000
0001
0000
0100
0010
0100
0000
0010
0000
0100
0000
0000
0000
,  // measure 63
1000
0100
0010
0001
1000
0001
0220
0000
,  // measure 64
0000
0000
0000
0000
,  // measure 65
0000
0000
0000
0000
,  // measure 66
0000
0000
0000
0330
;
