#TITLE:center piercing;
#SUBTITLE:;
#ARTIST:paraoka/yusuke;
#TITLETRANSLIT:;
#SUBTITLETRANSLIT:;
#ARTISTTRANSLIT:;
#GENRE:;
#CREDIT:Meseki;
#MENUCOLOR:0.8,0.9,1,1;
#BANNER:center piercing-bn.png;
#BACKGROUND:center piercing-bg.png;
#LYRICSPATH:;
#CDTITLE:cdtitle.png;
#MUSIC:center piercing.mp3;
#OFFSET:-0.028;
#SAMPLESTART:56.528;
#SAMPLELENGTH:16.833;
#SELECTABLE:YES;
#LISTSORT:;
#BPMS:0.000=180.000;
#STOPS:;
#TICKCOUNT:0.000=2;
#BGCHANGES:;
#KEYSOUNDS:;
#ATTACKS:;

//---------------dance-single - ----------------
#NOTES:
     dance-single:
     :
     Easy:
     4:
     0.268,0.356,0.074,0.206,0.000:
0000
0000
0000
0000
,
0000
0000
0000
0000
,
0000
0000
0000
0000
,
1000
0000
0000
1000
0000
0010
0000
1000
,
0000
0000
0001
0010
,
0100
0000
0000
0100
0000
0010
0000
0100
,
0000
0000
1000
0010
,
0100
0000
0000
0100
0000
0001
0000
0100
,
0000
0000
0010
1000
,
0001
0000
0000
0001
0000
0100
0000
0010
,
0000
0000
0000
1000
0000
0002
0000
0003
,
0000
0010
0100
0000
,
1000
0010
1000
0000
,
0001
0020
0000
0000
,
0000
0000
0000
0030
,
0000
0100
1000
0000
,
0001
0100
0010
1000
,
0002
0000
0023
0000
,
0230
0000
2300
0000
,
3010
0000
0000
0100
0000
0000
0001
0000
,
0000
0010
0000
0000
0100
0000
0010
0000
,
0002
0000
0000
0013
,
0001
0100
0010
0010
,
1000
0000
0000
0100
0000
0000
0010
0000
,
0000
0100
0000
0000
1000
0000
0010
0000
,
2010
3000
0100
0000
,
0012
0003
0100
0000
,
1001
0000
0000
1000
,
0010
0000
0000
0100
0000
0001
0000
0200
,
0000
0000
0000
0000
,
0000
0300
0000
0000
0000
0000
0001
0000
,
0020
0030
0000
0100
,
1000
0000
0000
0100
0000
0010
0000
0002
,
0000
0000
0000
0000
0000
0000
0003
0100
,
0000
0000
0000
0000
,
2010
3000
0001
0000
,
0120
0030
1000
0000
,
0102
0003
0010
0000
,
1200
0000
0300
0000
1000
0000
0000
0010
,
0000
0000
0000
0000
0100
0000
0000
0001
,
0000
0000
0000
0000
0010
0000
0000
0200
,
0000
0000
0000
0000
0000
0000
0300
1000
,
0000
1001
0000
0000
,
1000
0010
1000
0000
,
0001
0010
0001
0000
,
0100
0010
1000
0000
,
0001
0010
0001
0010
,
0100
0000
1000
0000
,
0100
0000
0010
0010
,
0001
0000
0100
0000
,
0001
0000
0010
0000
,
0100
1000
0100
0000
,
0010
0001
0010
0000
,
0001
0100
0010
0000
,
1001
0000
0000
0000
,
1000
0000
0000
0010
0000
0000
1000
0000
,
0000
0010
0000
0000
0100
0000
0000
0001
,
0000
0000
0010
0000
0000
0001
0000
0000
,
0010
0000
0000
0100
0000
0010
0000
0100
,
0000
0000
1000
0000
0000
0010
0000
0000
,
1000
0000
0000
0001
0000
0000
0100
0000
,
0000
0001
0000
0000
0100
0000
0000
0010
,
0000
1000
0100
1000
,
0000
0010
0000
0100
,
0000
0000
0001
0000
0000
0020
0000
0000
,
0000
0000
0000
0000
,
0000
0030
0000
0000
0000
0000
0000
0000
,
0000
0100
0000
1000
,
0000
0000
0010
0000
0000
0200
0000
0000
,
0000
0000
0000
0000
0000
0300
0000
0001
,
0000
1000
0000
0100
,
0010
0000
0000
0001
,
0000
0100
0000
0000
0000
0000
0010
0000
,
1000
0000
0000
0001
,
0000
0001
0000
0000
0000
0000
0010
0000
,
0100
0000
0000
0000
0000
0000
0000
1000
,
0000
0001
0000
0010
,
0001
0000
0000
0000
0100
0000
0000
0010
,
0000
2000
3000
0001
,
0000
0001
0000
0010
0000
0001
0000
0000
,
0000
0010
0100
1000
,
0000
1000
0000
0100
0000
0010
0000
0000
,
0000
0001
0000
0010
0000
0000
0100
0000
,
0000
2000
0000
3020
,
0000
0000
0230
0000
0000
0302
0000
0000
,
0000
0000
0000
0000
0000
2003
0000
0000
,
0000
0001
3001
0000
;

//---------------dance-single - ----------------
#NOTES:
     dance-single:
     :
     Medium:
     6:
     0.370,0.392,0.066,0.181,0.012:
0000
0000
0000
0000
,
0000
0000
0000
0000
,
0000
0000
0000
0000
,
1000
0000
0000
0001
0000
0010
0000
0001
,
0000
0000
0000
0010
0100
0000
1000
0000
,
0100
0000
0000
0010
0000
0001
0000
0010
,
0000
0000
0000
0001
0010
0000
0100
0000
,
1000
0000
0000
0100
0000
0010
0000
0100
,
0000
0000
0000
1000
0010
0000
0100
0000
,
0001
0000
0000
0100
0000
0010
0000
0001
,
0000
0000
0000
0010
0000
2000
0000
3000
,
0000
0000
0100
0000
0010
0000
0000
0001
,
0010
0100
0010
0001
,
1000
0010
0200
0000
0000
0000
0000
0000
,
0000
0000
0000
0300
,
0000
0000
0001
0000
0010
0000
0000
0100
,
1000
0010
0100
0010
,
2000
0000
3020
0000
,
0230
0000
0302
0000
,
0013
0000
0000
0100
0000
0000
0001
0000
,
0000
0100
0000
0000
1000
0000
0100
0000
,
0020
0000
0000
0001
0000
0000
0031
0000
,
0100
0000
0010
0000
1000
0100
1000
0100
,
1000
0000
0000
0010
0000
0000
0100
0000
,
0000
0001
0000
0000
0010
0000
0001
0000
,
2001
0000
3010
0000
,
0201
0000
0310
0000
,
1001
0000
1000
0000
0001
0010
0000
0100
,
1000
0000
0000
0001
0000
0010
0000
0001
,
0000
0000
0100
0000
0010
1000
0000
0100
,
0000
0001
0000
0100
0000
0000
0010
0000
,
0002
0000
0103
0000
0010
1000
0000
0100
,
0010
0000
0000
0001
0000
0100
0000
0010
,
0000
0000
1000
0000
0100
0010
0000
0001
,
0000
1000
0000
0001
0000
0000
0100
0000
,
2001
0000
3010
0000
,
0102
0000
0013
0000
,
1200
0000
0310
0000
,
1002
0000
0000
0000
0103
0000
0000
0010
,
0000
0000
0000
0000
1000
0000
0000
0001
,
0000
0000
0000
1000
0100
1000
0000
0002
,
0000
0000
0000
0000
0000
0000
0003
0100
,
0000
0010
1000
0000
0000
0000
0000
0000
,
0001
0000
0010
0000
0001
0100
0010
0000
,
0100
0000
0010
0000
0100
0001
0010
0000
,
0001
0000
0010
0000
0100
1000
0010
0000
,
0100
0001
0100
1000
,
0100
0000
0010
0000
1000
0001
0000
0010
,
0000
0100
0000
1000
0010
0100
0010
0000
,
1000
0000
0100
0000
0010
0001
0000
1000
,
0000
0010
0000
0100
0001
0000
0001
0000
,
1000
0000
0001
0010
0001
0010
0000
0100
,
0000
0100
0000
1000
0010
0000
0100
0000
,
0001
0000
0010
0100
0010
0100
0000
0000
,
1001
0000
0000
1000
,
0010
0000
0000
1000
0000
0000
0001
0000
,
0000
0010
0000
0000
0001
0000
0100
0010
,
0000
0000
1000
0000
0000
0001
0000
0000
,
0010
0000
0001
0100
0000
0010
0000
0100
,
0000
0000
0001
0000
0000
0010
0000
0000
,
0100
0000
0000
1000
0000
0000
0010
0000
,
0000
0001
0000
0000
0010
0000
0000
1000
,
0000
0001
0010
0000
0100
0000
1000
0000
,
0000
0001
0000
0000
1000
0000
0000
0010
,
0000
0100
0010
0000
0000
1000
0100
0000
,
0000
0010
0000
0000
0001
0000
0000
0100
,
0000
0000
0010
0000
1000
0000
0000
0000
0000
0010
0000
0000
0100
0000
0000
0000
,
0000
0001
0000
0000
0010
0000
0000
0100
,
0000
1000
0010
0100
,
0000
0001
0000
0000
1000
0000
0000
0001
,
0010
0100
0100
0100
,
1000
0010
0000
0000
0100
0000
0001
0000
,
0000
0001
0010
0000
0100
0000
1000
0000
,
0010
0100
0000
0000
0001
0000
0010
0000
,
0100
0010
0000
0000
0001
0000
0010
0000
,
0001
0100
0000
0000
0010
0000
1000
0100
,
0000
0000
0000
1000
0000
0010
0000
1000
0000
0010
0000
0000
,
0100
0010
0000
0000
1000
0000
0001
1000
,
0000
0002
0003
0010
,
0000
0100
0000
1000
0000
0100
0000
0000
,
0000
1000
0010
0000
0100
0000
0001
0000
,
0000
0100
0000
0010
0000
0001
0000
0000
,
0000
0010
0000
2000
0000
3000
0100
0000
,
0000
2000
0000
3020
,
0000
0000
0230
0000
0000
0302
0000
0000
,
0000
0000
0000
0000
0000
0023
0000
0000
,
0000
0000
0130
1000
0100
1000
0000
0000
;

//---------------dance-single - ----------------
#NOTES:
     dance-single:
     :
     Hard:
     7:
     0.437,0.534,0.148,0.247,0.016: // measure 1
0000
0000
0000
0000
,  // measure 2
0000
0000
0000
0000
,  // measure 3
0000
0000
0000
0000
,  // measure 4
1000
0000
0000
1000
0000
0010
0000
1000
,  // measure 5
0000
0000
0000
0001
0010
0100
0010
0100
,  // measure 6
1000
0000
0000
1000
0000
0001
0000
1000
,  // measure 7
0000
0000
0000
0010
0100
0001
0100
0001
,  // measure 8
1000
0000
0000
1000
0000
0010
0000
1000
,  // measure 9
0000
0000
0000
0001
0010
0100
0010
0100
,  // measure 10
1000
0000
0000
1000
0000
0010
0000
0001
,  // measure 11
0000
0000
0000
0110
0000
2002
0000
3003
,  // measure 12
0000
0000
1000
0000
0010
0000
0000
0100
,  // measure 13
0001
0010
0001
0000
0100
0000
0010
0000
,  // measure 14
1000
0001
0020
0000
0000
0000
0000
0000
,  // measure 15
0000
0000
0000
0030
,  // measure 16
0000
0000
0001
0000
1000
0000
0020
0130
,  // measure 17
0001
0100
0001
0000
0010
0000
0100
0000
,  // measure 18
2200
0000
0000
3300
0220
0000
0000
0330
,  // measure 19
0022
0000
0000
0033
2002
0000
0003
3000
,  // measure 20
0001
0000
0000
0100
0000
0000
0010
0000
,  // measure 21
0000
1000
0000
0000
0100
0000
0001
0000
,  // measure 22
0020
0000
0000
1000
0000
0000
1030
0000
,  // measure 23
0100
0000
0010
0000
0001
0100
0010
1000
,  // measure 24
0001
0000
0000
0010
0000
0000
0001
0000
,  // measure 25
0000
0100
0000
0000
0010
0000
1000
0000
,  // measure 26
2001
0000
3100
0000
,  // measure 27
0120
0000
0031
0000
,  // measure 28
1001
0000
1000
0000
0100
0001
0000
0100
,  // measure 29
0010
0000
0000
0001
0000
0100
0000
0010
,  // measure 30
0000
0000
1000
0000
0010
0001
0000
0010
,  // measure 31
0000
1000
0001
0010
0000
0000
0100
0000
,  // measure 32
2000
0000
3100
0000
0010
0001
0000
0010
,  // measure 33
0100
0000
0000
0010
0000
0001
0000
0200
,  // measure 34
0000
0000
0310
0000
1000
0001
0000
0010
,  // measure 35
0000
1000
0000
0010
0000
0000
0100
0000
,  // measure 36
2001
0000
3010
0000
,  // measure 37
0102
0000
0013
0000
,  // measure 38
1200
0000
0301
0000
,  // measure 39
0021
0000
0000
0000
1030
0000
0000
0001
,  // measure 40
0000
0000
0000
0000
0010
0000
0000
0100
,  // measure 41
0000
0000
0000
1000
0010
0001
0000
0020
,  // measure 42
0000
0000
0000
0000
0000
0000
0030
0110
,  // measure 43
0000
1000
0001
0000
0000
0000
0000
0000
,  // measure 44
0100
0000
0010
1000
0100
1000
0010
0000
,  // measure 45
0100
0000
0001
1000
0010
1000
0001
0000
,  // measure 46
0010
0000
0001
0010
0100
1000
0010
0000
,  // measure 47
1000
0100
0001
0010
,  // measure 48
1000
0000
0001
0000
0100
0010
0000
1000
,  // measure 49
0000
0100
0000
0010
0001
1000
0001
0010
,  // measure 50
0100
0000
0010
0000
0001
0100
0000
0010
,  // measure 51
0000
1000
0000
0001
0010
0100
1000
0000
,  // measure 52
0010
0000
0001
0010
1000
0001
0000
0010
,  // measure 53
0000
0010
0000
0100
0010
0000
0001
0000
,  // measure 54
1000
0000
0010
0100
0010
1000
0000
0000
,  // measure 55
1001
0000
0000
0000
0000
0000
0001
0100
,  // measure 56
0010
0000
0000
1000
0000
0000
0001
0000
,  // measure 57
0000
0010
0000
0000
0001
0010
0100
0010
,  // measure 58
0000
0000
0001
0000
0000
1000
0000
0000
,  // measure 59
0010
0000
1000
0010
0100
0001
0000
1000
,  // measure 60
0000
0000
0010
0000
0000
0001
0000
0000
,  // measure 61
0010
0000
0000
1000
0000
0000
0100
0000
,  // measure 62
0000
0001
0000
0000
0100
0000
0000
1000
,  // measure 63
0000
0001
0010
0000
0100
0000
1000
0000
,  // measure 64
0000
0010
0000
0000
0100
0000
0000
0001
,  // measure 65
0000
0000
0010
0000
0100
0000
0000
1000
0000
0000
0010
0000
0100
0000
0000
0000
,  // measure 66
0000
0001
0000
0000
1000
0000
0000
0010
,  // measure 67
0000
0000
0100
0000
0010
0000
1000
0000
0000
0001
0000
0000
0010
0000
0000
0000
,  // measure 68
0000
0001
0000
0000
1000
0000
0000
0010
,  // measure 69
0000
0100
0001
0010
,  // measure 70
0000
0100
0000
0000
1000
0000
1000
0001
,  // measure 71
0010
0100
1000
0000
1000
0000
1001
0000
,  // measure 72
0001
0100
0000
0000
0010
0000
1000
0000
,  // measure 73
0001
1000
0100
0000
1000
0000
0001
0000
,  // measure 74
0010
0100
0000
0000
1000
0000
0001
0000
,  // measure 75
0100
0001
0010
0000
0010
0000
0100
0000
,  // measure 76
0001
0100
0000
0000
0010
0000
0001
1000
,  // measure 77
0000
0000
0000
0010
0000
0001
0000
0010
0000
0100
0000
0000
,  // measure 78
0001
0010
0000
0000
0100
0000
1000
0100
,  // measure 79
0000
0200
0300
1000
,  // measure 80
0000
1000
0000
0010
0000
1000
0000
0000
,  // measure 81
0000
0001
0010
0100
1000
0100
1000
0000
,  // measure 82
0000
1000
0000
0010
0000
0001
0000
0000
,  // measure 83
0000
0110
0000
2002
0003
3000
0001
0000
,  // measure 84
0000
0000
1000
0100
2000
0000
3010
1000
,  // measure 85
0020
0000
0130
0010
0200
0301
0000
0001
,  // measure 86
0000
0001
0100
0002
0013
0100
0000
0010
,  // measure 87
0000
0020
0031
0010
0100
1000
0000
0000
;

//---------------dance-single - ----------------
#NOTES:
     dance-single:
     :
     Beginner:
     3:
     0.141,0.212,0.016,0.074,0.000:
0000
0000
0000
0000
,
0000
0000
0000
0000
,
0000
0000
0000
0000
,
1000
0000
0000
0000
,
0000
0000
0001
0000
,
1000
0000
0000
0000
,
0000
0000
0001
0000
,
0100
0000
0000
0000
,
0000
0000
0010
0000
,
0100
0000
0000
0000
,
0000
0000
0000
0000
0000
0020
0000
0030
,
0000
1000
0000
0000
,
0000
0000
0000
0000
0000
0001
0000
0000
,
1000
0000
0000
0000
0000
0010
0000
0000
,
0000
0000
0000
0000
,
0100
0000
0000
0000
,
0100
0000
0000
0000
0000
0001
0000
0000
,
1000
0000
1000
0000
,
0001
0000
0001
0000
,
1000
0000
0000
0010
,
0000
0000
0100
0000
,
0001
0000
0000
0000
,
1000
0000
1000
0000
,
1000
0000
0000
0001
,
0000
0000
0010
0000
,
0100
0000
1000
0000
,
0010
0000
0100
0000
,
0110
0000
0000
0000
,
1000
0000
0000
0010
0000
0000
0000
0000
,
0000
0000
0000
1000
0000
0000
0000
0000
,
0100
0000
0000
0000
,
0010
0000
0000
0000
,
0001
0000
0000
0000
,
0000
0100
0000
0000
,
0000
0020
0000
0030
0000
0000
0000
0000
,
1000
0000
0010
0000
,
0100
0000
0001
0000
,
0010
0000
0100
0000
,
1000
0000
0000
0000
0000
0000
0000
0001
,
0000
0000
0000
0000
0000
0000
0000
0100
,
0000
0000
0000
0000
0000
0000
0000
0010
,
0000
0000
0000
0000
0000
0000
0000
1001
,
0000
0000
0000
0000
,
1000
0000
0001
0000
,
0010
0000
0001
0000
,
1000
0000
0010
0000
,
0100
0000
0001
0000
,
1000
0000
0000
0000
,
0000
0000
0010
0000
,
1000
0000
0000
0000
,
0000
0000
0010
0000
,
0100
0000
0001
0000
,
1000
0000
0000
0000
,
0001
0000
1000
0000
,
0100
0000
0000
0000
,
1000
0000
0000
0010
,
0000
0000
0100
0000
,
0000
0001
0000
0000
,
1000
0000
0000
0000
0000
0000
0000
0001
,
0000
0000
0000
0000
0000
0010
0000
0000
,
0000
0000
0000
0100
0000
0000
0000
0000
,
0000
1000
0000
0000
0000
0000
0000
0001
,
0000
0000
0000
0100
,
0000
0000
0001
0000
,
0000
0010
0000
0010
,
0000
0000
0100
0000
,
0000
1000
0000
1000
,
0000
0000
0001
0000
,
0000
0100
0000
0100
,
0000
0000
0000
0010
,
0000
0000
0000
1000
,
0000
0000
0000
0001
,
0000
0000
0000
0100
,
0000
0000
0000
0010
,
0000
0000
0000
1000
,
0000
0000
0000
0000
0000
0000
0000
0001
,
0000
0000
0000
0010
,
0000
0000
0100
0000
,
0000
0000
2000
3000
0000
0000
1000
0000
,
0000
0000
0000
0000
,
0000
0001
0000
0100
,
0000
0000
0000
0000
,
0000
0020
0000
0030
0000
0000
0000
0000
,
0000
2000
3000
0020
,
0030
0000
0200
0000
0300
0002
0000
0000
,
0000
0003
0000
0000
0000
2000
0000
0000
,
0000
3000
0000
0000
0000
0000
0000
0000
;
