#TITLE:Venus;
#SUBTITLE:Another Phaze Mix;
#ARTIST:Tatsh+RayZY;
#TITLETRANSLIT:;
#SUBTITLETRANSLIT:;
#ARTISTTRANSLIT:;
#GENRE:J-Rock;
#CREDIT:AznPunk07/Frozen_Heat/GuardianFrozen;
#MENUCOLOR:#d58b00;
#METERTYPE:DDR;
#BANNER:Venus (Another Phaze Mix)-bn.png;
#BACKGROUND:Venus (Another Phaze Mix)-bg.png;
#LYRICSPATH:;
#CDTITLE:!cdtitle.png;
#MUSIC:Venus (Another Phaze Mix).mp3;
#OFFSET:-0.149;
#SAMPLESTART:64.480;
#SAMPLELENGTH:15.000;
#SELECTABLE:YES;
#LISTSORT:;
#BPMS:0.000=97.500,16.000=195.000,254.000=97.500,256.000=195.000;
#STOPS:;
#BGCHANGES:;
#ATTACKS:;

//---------------dance-single - ----------------
#NOTES:
     dance-single:
     :
     Hard:
     8:
     0.588,0.602,0.503,0.141,0.000: // measure 1
0000
0000
0000
0000
,  // measure 2
0000
0000
0000
0000
,  // measure 3
0100
0010
1000
0000
0001
1000
0100
0000
,  // measure 4
0010
0100
1000
0000
0001
0000
0000
0000
,  // measure 5
0100
0000
0100
0000
0010
1000
0010
0100
,  // measure 6
0000
0000
0001
0000
1000
0000
0100
0010
,  // measure 7
0000
0000
1000
0000
0001
0000
0100
0010
,  // measure 8
0000
1000
0001
0010
,  // measure 9
0100
0000
0010
0000
0001
1000
0001
0100
,  // measure 10
0000
0010
1000
0000
0001
0000
1000
0100
,  // measure 11
0000
0010
0001
0000
1000
0000
0001
0100
,  // measure 12
0000
0010
1000
0000
0001
0000
1000
0000
,  // measure 13
0100
0000
0010
0000
0100
1000
0100
0000
,  // measure 14
0020
0000
0031
0100
0001
0000
0100
1000
,  // measure 15
0100
0001
1000
0001
0010
0200
0000
0000
,  // measure 16
0310
0000
0001
0010
0001
0000
1000
0000
,  // measure 17
0010
0000
1000
0100
0000
1000
0000
0001
,  // measure 18
0000
0000
0100
0001
0100
0010
0000
0010
,  // measure 19
1000
0000
1000
0100
0000
0100
0000
1000
,  // measure 20
0100
0000
0010
0000
0100
1000
0001
0000
,  // measure 21
0100
0000
0001
0100
0000
0010
0100
0000
,  // measure 22
0010
0000
0010
1000
0020
0000
0100
0000
,  // measure 23
1030
0000
0001
0000
1000
0100
0010
0000
,  // measure 24
0100
0000
0100
1000
0100
0010
0100
0001
,  // measure 25
0100
0000
0100
1000
0000
1000
0000
0001
,  // measure 26
0000
0000
0100
0001
1000
0100
0000
0100
,  // measure 27
0010
0000
0010
0001
0000
1000
0000
0001
,  // measure 28
1000
0000
0010
1000
0010
0100
0010
0000
,  // measure 29
1000
0000
0000
0001
0000
0000
0100
0000
,  // measure 30
0010
0000
0010
1000
0010
0000
0100
0000
,  // measure 31
0001
0000
0001
0000
1000
0000
1000
0001
,  // measure 32
2000
0000
0000
3100
0010
0000
0001
0000
,  // measure 33
0200
0000
0000
0310
1000
0000
0001
0000
,  // measure 34
0020
0000
0000
0031
1000
0000
0000
0010
,  // measure 35
0000
0100
0010
0000
1000
0001
1000
0000
,  // measure 36
0002
0000
0000
0013
0100
0000
1000
0000
,  // measure 37
0020
0000
0000
0130
0001
0000
0010
0000
,  // measure 38
0200
0000
0000
1300
0010
0000
0000
1000
,  // measure 39
0000
0001
0100
0000
0101
0000
1001
0000
,  // measure 40
1100
0000
0010
0100
1000
0000
0001
0000
,  // measure 41
1000
0000
0010
0100
0001
0000
1000
0000
,  // measure 42
0001
0000
1000
0001
0000
0001
1000
0000
,  // measure 43
0010
0000
0100
0000
0001
0000
0010
0100
,  // measure 44
1000
0000
1000
0100
0010
0000
0100
0000
,  // measure 45
1000
0000
0001
0000
0100
0000
0010
0100
,  // measure 46
0001
0000
0001
0100
0010
0000
0010
1000
,  // measure 47
0100
0010
0100
1000
0010
0100
0010
0000
,  // measure 48
0010
1000
0001
0010
0001
1000
0010
0200
,  // measure 49
0000
0000
0300
0001
0000
0000
1001
0000
,  // measure 50
0100
0000
0010
1000
0000
0000
0011
0000
,  // measure 51
0100
0000
1000
0010
0000
0000
0110
0000
,  // measure 52
1000
0000
0001
0100
0000
0000
1010
0000
,  // measure 53
0100
0000
0001
0010
0001
0000
0100
0001
,  // measure 54
0100
1000
0100
0001
,  // measure 55
0010
0000
0100
0000
1000
0000
0100
1000
,  // measure 56
0000
0010
1000
0000
0001
0000
0100
0001
,  // measure 57
0010
0000
0010
0100
0000
0010
0001
0000
,  // measure 58
1000
0000
0001
0100
0000
0001
1000
0000
,  // measure 59
0100
0000
0010
0100
0000
1000
0100
0010
,  // measure 60
0001
0010
0000
0001
0000
0000
1000
0000
,  // measure 61
0001
0000
1000
0001
1000
0000
1000
0010
,  // measure 62
0000
0010
0100
0000
0001
0000
0000
0101
,  // measure 63
0000
1001
1000
0100
,  // measure 64
0010
0001
2000
3002
,  // measure 65
0103
0101
0011
0100
,  // measure 66
1100
0000
1001
0000
1000
0010
0000
1010
,  // measure 67
0000
0000
0100
0000
0001
0010
0000
0011
,  // measure 68
0000
0000
1000
0000
0010
1000
0000
1100
,  // measure 69
0000
0000
0010
0100
2000
0000
3002
0000
,  // measure 70
0203
0000
0320
0000
1030
0001
0000
0001
,  // measure 71
0000
0001
1000
0001
0100
0010
0000
0010
,  // measure 72
1000
0000
0001
1000
0100
0000
0010
0100
,  // measure 73
1000
1100
1010
1000
,  // measure 74
0101
0000
0110
0000
0010
1000
0000
1001
,  // measure 75
0000
0000
0001
0010
0001
0000
1000
0001
,  // measure 76
0000
0000
0010
1000
0010
0000
1000
0100
,  // measure 77
0010
0000
0100
1000
0100
0000
1100
0000
,  // measure 78
0110
0000
0011
0000
0001
1000
0000
0001
,  // measure 79
0000
1000
0010
1000
0010
0100
0000
0001
,  // measure 80
0100
0000
0100
0000
0010
0100
0010
0100
,  // measure 81
0001
1100
1100
0010
,  // measure 82
0101
0101
1001
0101
,  // measure 83
0011
1001
1001
0100
,  // measure 84
0101
0010
1010
1001
,  // measure 85
1010
0011
0011
0100
,  // measure 86
0110
0110
1000
0101
,  // measure 87
1001
0010
1100
0101
,  // measure 88
0011
0110
1100
0001
,  // measure 89
1000
0000
0001
0100
0001
0000
0101
0000
,  // measure 90
1100
0000
1010
0000
0010
1000
0010
1000
,  // measure 91
0100
0010
0011
0110
,  // measure 92
0011
1000
1010
0110
,  // measure 93
1010
0101
0101
1000
,  // measure 94
0110
0000
0001
0000
1000
0100
0000
0011
,  // measure 95
0000
0000
1100
0000
0000
0110
0000
0000
,  // measure 96
2002
0000
0000
3003
;

//---------------dance-single - ----------------
#NOTES:
     dance-single:
     :
     Medium:
     6:
     0.454,0.527,0.346,0.259,0.000: // measure 1
0000
0000
0000
0000
,  // measure 2
0000
0000
0000
0000
,  // measure 3
1000
0010
1000
0000
0001
0100
0001
0000
,  // measure 4
0010
0001
0010
0000
1100
0000
0000
0000
,  // measure 5
0010
0000
0010
0000
0100
0000
0000
1100
,  // measure 6
0000
0000
0010
0000
0001
0000
0000
0011
,  // measure 7
0000
0000
0001
0000
0100
0000
0000
0101
,  // measure 8
0000
0010
1000
0100
,  // measure 9
1000
0000
0010
0000
1000
0000
0000
1010
,  // measure 10
0000
0000
1000
0000
0100
0000
0000
1100
,  // measure 11
0000
0000
0010
0000
0001
0000
0000
0011
,  // measure 12
0000
0001
1000
0100
,  // measure 13
1000
0001
0100
0001
,  // measure 14
0010
0010
0100
0100
,  // measure 15
0010
0001
1000
0010
,  // measure 16
0100
0000
0000
0000
,  // measure 17
0000
0000
0000
0000
,  // measure 18
0000
0000
0000
0000
,  // measure 19
0000
0000
0000
0002
,  // measure 20
0103
0010
0001
0010
,  // measure 21
1000
0000
0000
0010
0000
0000
1000
0000
,  // measure 22
0001
1000
0100
0010
,  // measure 23
0100
0000
0000
1000
0000
0000
0001
0000
,  // measure 24
0100
0000
0000
0000
,  // measure 25
0000
0000
0000
0000
,  // measure 26
0000
0000
0000
0000
,  // measure 27
0000
0000
0000
2000
,  // measure 28
3010
0100
1000
0100
,  // measure 29
0001
0000
0000
1000
0000
0000
0001
0000
,  // measure 30
0010
0100
1000
0010
,  // measure 31
0100
0000
0001
0000
0010
0100
1000
0000
,  // measure 32
0200
0000
0310
0100
,  // measure 33
2000
0000
3010
1000
,  // measure 34
0002
0000
0013
0001
,  // measure 35
0100
0000
0001
0000
0010
0100
0010
0100
,  // measure 36
0020
0000
0031
0010
,  // measure 37
0200
0000
1300
0100
,  // measure 38
2000
0000
3001
1000
,  // measure 39
0000
0010
0110
0110
,  // measure 40
0001
0010
1000
0010
,  // measure 41
0001
0100
1000
0100
,  // measure 42
0001
0010
0100
1000
,  // measure 43
0010
0000
0100
0000
0001
0000
1000
0001
,  // measure 44
1000
0000
0000
0001
1000
0000
0001
0000
,  // measure 45
0010
0000
0100
1000
,  // measure 46
0100
0100
0010
0010
,  // measure 47
0001
1000
0001
2000
,  // measure 48
3001
0000
1000
0000
0010
0000
0100
0002
,  // measure 49
0000
0000
0003
1000
0000
0000
1100
0000
,  // measure 50
0110
0000
0000
0001
0000
0000
0101
0000
,  // measure 51
0110
0000
0000
1000
0000
0000
1010
0000
,  // measure 52
0001
0011
1000
0001
,  // measure 53
1001
0000
0000
0000
0002
0000
0003
2000
,  // measure 54
0000
3000
0002
0000
0203
0000
0320
0000
,  // measure 55
2030
0000
3002
0000
0023
0000
0030
0200
,  // measure 56
0000
0300
2000
0000
3002
0000
0103
0000
,  // measure 57
2000
0000
3100
0001
0000
0000
0011
0000
,  // measure 58
0110
0000
0000
1000
0000
0000
1010
0000
,  // measure 59
0110
0000
0000
0001
0000
0000
1100
0000
,  // measure 60
1000
0101
0010
1001
,  // measure 61
0110
0100
0220
0000
,  // measure 62
0330
0000
2000
0000
3200
0000
0300
2000
,  // measure 63
0000
3000
0002
0000
0203
0000
0300
0000
,  // measure 64
0000
0000
0020
0230
,  // measure 65
0301
0010
0100
0010
,  // measure 66
0001
0000
1000
0000
0001
0000
0100
0010
,  // measure 67
0100
0010
1000
0001
,  // measure 68
1000
0000
0100
0000
0010
0100
1000
0100
,  // measure 69
0010
0001
0100
0001
,  // measure 70
0010
1000
0010
0100
,  // measure 71
1000
0001
0100
0010
,  // measure 72
1000
0100
1000
0000
0001
0100
0001
0000
,  // measure 73
0010
0100
0010
0001
,  // measure 74
1000
0000
0010
0000
0100
0010
0100
0000
,  // measure 75
0001
1000
0010
0100
,  // measure 76
1000
0100
0001
0010
,  // measure 77
0100
0000
1000
0100
0010
0000
0001
0100
,  // measure 78
0010
1000
0001
0010
,  // measure 79
0100
0000
1000
0001
0100
0000
0010
0000
,  // measure 80
1000
0010
0100
0001
,  // measure 81
0010
1100
0110
0001
,  // measure 82
1000
0010
0100
0001
,  // measure 83
1000
0101
0011
0100
,  // measure 84
0010
1010
1100
0001
,  // measure 85
1000
0010
0010
0100
,  // measure 86
0100
0001
1000
0100
,  // measure 87
0010
1100
1010
1100
,  // measure 88
0010
0010
0100
1000
,  // measure 89
0001
0101
1001
0100
,  // measure 90
0010
1000
0001
0010
,  // measure 91
0100
1100
0110
0010
,  // measure 92
0001
0101
0110
0010
,  // measure 93
1000
0001
1001
1000
,  // measure 94
1001
0000
0110
0000
1000
0000
0000
0001
,  // measure 95
0000
0000
0100
0000
0000
0010
0000
0000
,  // measure 96
0220
0000
0000
0330
;

//---------------dance-single - ----------------
#NOTES:
     dance-single:
     :
     Challenge:
     9:
     0.665,0.790,0.613,0.149,0.079:
0000
0000
0000
0000
,
0000
0000
0000
0000
,
0001
0010
0001
0000
0100
0010
0000
1000
0010
0000
0010
0001
0000
0010
0100
0010
,
1000
0100
1000
0000
0010
0100
0000
0000
0002
0000
0000
0000
0000
0000
0003
0000
,
1100
0000
0000
0000
0101
0000
0000
0000
1000
0001
1000
0000
0001
0000
0200
0000
,
0000
0310
1000
0100
1000
0010
0100
0002
,
0000
0013
0100
0001
0100
1000
0100
0020
,
0000
0130
1000
0000
0010
0100
0001
0000
,
0010
0100
1000
0100
0010
0001
1000
0002
,
0000
0103
0010
0001
0010
0100
0010
2000
,
0000
3100
0010
1000
0010
0001
1000
0200
,
0000
0310
0001
0000
0100
0010
1000
0000
,
0001
0010
0100
1000
0001
1000
0001
0000
,
0100
0100
0010
0010
1000
1000
0001
0001
,
0010
0000
0001
0000
0010
0000
0100
0000
1000
0000
0100
0000
0010
0000
0000
0002
0000
0000
0000
0000
0000
0000
0000
0000
,
2003
0000
0000
0000
,
0000
0000
0000
0000
0000
0000
0000
0001
,
0000
0000
0000
0000
,
0000
0000
0000
0000
3000
0010
0100
0000
,
1010
0000
0100
0001
0010
0100
1000
0000
,
0001
0000
0010
0100
0000
0010
0001
0000
,
1000
0000
0001
0100
0010
1000
0001
0000
,
1000
0000
0100
0010
0000
0100
1000
0000
,
0020
0000
0000
0000
,
0000
0000
0000
0000
,
0000
0000
0000
0000
,
0000
0000
0000
0130
,
0001
0000
0010
0001
1000
0010
0100
0000
,
0001
0000
1000
0100
0000
1000
0010
0000
,
0100
0000
0010
1000
0010
0100
0001
0000
,
1000
0000
0100
1000
0001
0010
0100
0100
,
0010
0000
0001
0000
0101
0000
0010
1000
,
0100
0000
0010
0000
1100
0000
0010
0001
,
0100
0000
0010
1000
0100
0000
0100
0010
,
0000
0100
1000
0001
0010
0100
1000
0001
,
0100
0000
0100
0010
0110
0000
0010
0000
,
1000
0000
0001
1000
1001
0000
0100
0000
,
0011
0000
0010
0001
0000
0001
1000
0001
,
0000
0000
0001
0000
0100
0000
0000
0000
0101
0000
0000
0000
1000
0010
1000
0000
,
0100
1100
0010
0011
,
1000
1001
0010
1010
,
0001
1100
0010
0101
,
1000
0000
0011
0000
1001
0000
0001
0010
,
0100
0000
0100
0010
0002
0000
0013
0000
,
0110
0000
0011
0000
0110
0000
1000
0001
,
0100
0000
0001
1000
0100
0000
1000
0001
,
0010
0001
1000
0010
1000
0001
0020
0000
,
0031
0100
0010
1000
0001
1000
0100
0020
,
0000
0000
0030
0100
0000
0000
1100
0000
,
0101
0000
0010
0001
1000
0000
1010
0000
,
0110
0000
0001
0010
0100
0000
1000
0100
,
0010
0000
0100
1000
0000
0000
0101
0000
,
1010
0000
1000
0010
1000
0000
0001
0100
,
0000
0010
1000
0000
1100
0000
0110
0000
,
0011
0000
1001
0000
0102
0000
0013
2100
,
0000
3010
0102
0000
1003
0100
0001
0100
,
1000
0010
0001
0010
0000
1000
0100
0000
,
1100
0000
1000
0001
0000
0001
0100
0000
,
0101
0000
0100
0010
0000
0010
1000
0001
,
0010
0100
0000
0010
0000
0100
1000
0000
,
1100
0000
0010
0001
0100
0000
0010
0000
,
1000
0000
0001
1000
0010
0000
0010
0001
,
0000
0010
0100
0000
1010
0000
0100
0000
,
0001
1000
0001
1000
0200
0000
0310
0000
,
1000
1010
1001
1100
,
0010
0000
1100
0000
0001
0010
0100
0010
,
0001
0000
1000
0000
0010
0100
1000
0100
,
0010
0000
0110
0000
1000
0100
0010
0100
,
1000
0011
1000
0011
,
0101
0000
1001
0000
1000
0010
0100
0010
,
1000
0000
0110
0000
0001
1000
0010
1000
,
0001
0000
0000
0000
0101
0000
0000
0000
0010
1000
0010
0000
0100
0000
0001
0000
,
1000
0101
1100
0010
,
0011
0000
1010
0000
0001
1000
0000
1001
,
0000
0010
0100
0000
1000
0010
0000
1010
,
0000
1000
0001
0000
0001
0010
0000
0011
,
0000
0100
1000
0000
1100
0000
0101
0000
,
1001
0000
0110
0000
1000
0010
0000
0101
,
0000
0001
1000
0000
0001
0010
0000
1100
,
0010
0001
0000
0000
0100
0010
0000
0000
1000
0100
0000
0000
0010
0001
0000
0000
,
1100
0000
0010
0100
1000
0000
1010
0000
,
0101
0000
1010
0000
0001
1000
0010
1000
,
0100
0000
0010
0100
1000
0010
0001
0010
,
0100
0000
0001
0010
0100
1000
0010
0100
,
0001
0000
1000
0100
0001
0100
0010
0100
,
1000
0000
1010
0000
0010
0001
0000
0010
,
0000
0010
1000
0010
0100
0001
0000
1000
,
0001
0000
0010
0000
0100
0000
1000
0000
0010
0100
0010
0000
1000
0000
0001
0000
,
1000
0000
0101
0000
0011
0000
0100
1000
,
1010
0000
1001
0000
0001
0100
0000
0101
,
0000
0001
1000
0100
1000
0001
0010
1000
,
0010
0000
0100
1000
0100
1000
0010
0100
,
0001
0000
1000
0001
0100
0000
0101
0000
,
1001
0000
1010
0000
1000
0100
0000
0110
,
0000
0000
1100
0000
0000
0101
0000
0000
,
2002
0000
0000
3003
;

//---------------dance-single - ----------------
#NOTES:
     dance-single:
     :
     Beginner:
     2:
     0.136,0.224,0.008,0.008,0.000:
0000
0000
0000
0000
,
0000
0000
0000
0000
,
1000
0000
0000
0000
,
0001
0000
0000
0000
,
0100
0000
0000
0000
,
0100
0000
0000
0000
,
0010
0000
0000
0000
,
1000
0000
0000
0000
,
0001
0000
0000
0000
,
0010
0000
0000
0000
,
0100
0000
0000
0000
,
1000
0000
0000
0000
,
0001
0000
0000
0000
,
0100
0000
0100
0000
,
0200
0000
0000
0000
,
0300
0000
0000
0000
,
0000
0000
0000
0000
,
0000
0000
0000
0000
,
0000
0000
0000
0000
,
0010
0000
0000
0000
,
0010
0000
0000
0000
,
1000
0000
0000
0000
,
0001
0000
0001
0000
,
0001
0000
0000
0000
,
0000
0000
0000
0000
,
0000
0000
0000
0000
,
0000
0000
0000
0000
,
1000
0000
0000
0000
,
0100
0000
0000
0000
,
1000
0000
0000
0000
,
0010
0000
0010
0000
,
0100
0000
0000
0000
,
0001
0000
0000
0000
,
1000
0000
0000
0000
,
0000
0000
0000
0000
,
0001
0000
0000
0000
,
0010
0000
0000
0000
,
0100
0000
0000
0000
,
0100
0000
0000
0000
,
0010
0000
0010
0000
,
0001
0000
0000
0000
,
1000
0000
1000
0000
,
0100
0000
0000
0000
,
0010
0000
0000
0000
,
0100
0000
0000
0000
,
1000
0000
0001
0000
,
1000
0000
0001
0000
,
1000
0000
0001
0000
,
0000
0000
0001
0000
,
0001
0000
1000
0000
,
1000
0000
0010
0000
,
0010
0000
0100
0000
,
0000
0000
0001
0000
,
0100
0000
0001
0000
,
0100
0000
1000
0000
,
0100
0000
1000
0000
,
0000
0000
0001
0000
,
0000
0000
1000
0000
,
0000
0000
0010
0000
,
0010
0000
0100
0000
,
0000
0000
0001
0000
,
0000
0000
1000
0000
,
0000
0000
0100
0000
,
0000
0000
0010
0000
,
0000
0000
0000
0000
,
0100
0000
0100
0000
,
0100
0000
0000
0000
,
0010
0000
0010
0000
,
0010
0000
0000
0000
,
0001
0000
0001
0000
,
0001
0000
0000
0000
,
1000
0000
1000
0000
,
0000
0000
0010
0000
,
0000
0000
0100
0000
,
0000
0000
0001
0000
,
1000
0000
0100
0000
,
0010
0000
0100
0000
,
0000
0000
1000
0000
,
0000
0000
0001
0000
,
0100
0000
0010
0000
,
1000
1000
1000
0000
,
0000
0000
0000
0000
,
0001
0001
0001
0000
,
0000
0000
0000
0000
,
0010
0010
0001
0000
,
0000
0000
0000
0000
,
0100
0100
1000
0000
,
0000
0000
0000
0000
,
0001
0000
0001
0000
,
1000
0000
1000
0000
,
0010
0000
0010
0000
,
0100
0100
0001
0000
,
1000
0000
1000
0000
,
0001
0000
1000
0000
,
0001
0000
1000
0000
,
1001
0000
0000
0000
;

//---------------dance-single - ----------------
#NOTES:
     dance-single:
     :
     Easy:
     5:
     0.308,0.411,0.197,0.055,0.000: // measure 1
0000
0000
0000
0000
,  // measure 2
0000
0000
0000
0000
,  // measure 3
0001
0100
0010
0000
,  // measure 4
1000
0100
0010
0000
,  // measure 5
0100
0100
0010
0010
,  // measure 6
0001
1000
1001
0000
,  // measure 7
1000
0001
1001
0000
,  // measure 8
0010
0100
0110
0000
,  // measure 9
0100
0000
0010
0000
,  // measure 10
1000
0001
1001
0000
,  // measure 11
0001
1000
1001
0000
,  // measure 12
0100
0010
0110
0000
,  // measure 13
0010
0000
0100
0000
,  // measure 14
1000
1000
0100
0000
,  // measure 15
0001
0001
0100
0000
,  // measure 16
0010
0000
0000
0000
,  // measure 17
0000
0000
0000
0000
,  // measure 18
0000
0000
0000
0000
,  // measure 19
0000
0000
0000
0000
,  // measure 20
1000
0000
0100
0000
,  // measure 21
0010
0000
0100
0000
,  // measure 22
1000
0000
0010
0000
,  // measure 23
0100
0000
0010
0000
,  // measure 24
1000
0000
0000
0000
,  // measure 25
0000
0000
0000
0000
,  // measure 26
0000
0000
0000
0000
,  // measure 27
0000
0000
0000
0000
,  // measure 28
0001
0000
0010
0000
,  // measure 29
0100
0000
0010
0000
,  // measure 30
0001
0000
0100
0000
,  // measure 31
0010
0000
0001
0000
,  // measure 32
0020
0000
0030
0000
,  // measure 33
2000
0000
3000
0000
,  // measure 34
0002
0000
0003
0000
,  // measure 35
1000
0001
1000
0000
,  // measure 36
0200
0000
0300
0000
,  // measure 37
0020
0000
0030
0000
,  // measure 38
0002
0000
0003
0000
,  // measure 39
1000
0010
1000
0000
,  // measure 40
0001
0000
0100
0000
,  // measure 41
0010
0000
1000
0000
,  // measure 42
0100
0000
0010
0000
,  // measure 43
0100
1000
0001
0100
,  // measure 44
0010
0000
1000
0000
,  // measure 45
0001
0000
0010
0000
,  // measure 46
0100
0000
0010
0000
,  // measure 47
0001
1000
0001
0000
,  // measure 48
1000
0001
1000
1000
,  // measure 49
0001
0000
1000
0010
,  // measure 50
1010
0000
0001
0010
,  // measure 51
0011
0000
1000
0100
,  // measure 52
1100
0000
0001
0100
,  // measure 53
0101
0000
1000
0000
,  // measure 54
0100
0000
0010
0100
,  // measure 55
1000
0010
0100
0000
,  // measure 56
0001
0000
0010
0001
,  // measure 57
0100
0000
0010
1000
,  // measure 58
1010
0000
0100
0001
,  // measure 59
0101
0000
0001
0010
,  // measure 60
0011
0000
0100
1000
,  // measure 61
1100
0000
0010
0000
,  // measure 62
0100
0000
1000
0000
,  // measure 63
0001
0000
0100
0000
,  // measure 64
0010
0000
2000
0000
,  // measure 65
3001
0001
0001
0000
,  // measure 66
1000
1000
0010
1000
,  // measure 67
0100
0100
0100
0000
,  // measure 68
0010
0010
0001
0100
,  // measure 69
0010
0010
0010
0000
,  // measure 70
1000
1000
0001
0100
,  // measure 71
0001
0100
0100
0010
,  // measure 72
1000
1000
0001
0001
,  // measure 73
0000
1000
0100
0000
,  // measure 74
0010
0010
0100
1000
,  // measure 75
0001
0000
0100
0000
,  // measure 76
0010
0010
0100
0001
,  // measure 77
0010
0000
0001
0000
,  // measure 78
1000
1000
0010
0100
,  // measure 79
0001
1000
0100
0100
,  // measure 80
0010
0100
1000
0100
,  // measure 81
0000
0011
0011
0000
,  // measure 82
0100
0100
1000
0001
,  // measure 83
0100
0110
0110
0000
,  // measure 84
0010
1000
0100
0010
,  // measure 85
0100
1100
1100
0000
,  // measure 86
0010
0001
1000
0010
,  // measure 87
0100
1001
1001
0000
,  // measure 88
0001
0001
1000
1000
,  // measure 89
0000
0001
0001
0010
,  // measure 90
0100
1000
0010
0100
,  // measure 91
0001
1000
1000
0100
,  // measure 92
0010
0100
1000
0010
,  // measure 93
0100
0010
0010
0100
,  // measure 94
0110
0110
0001
1000
,  // measure 95
0001
0000
1000
0000
,  // measure 96
1001
0000
0000
0000
;
