#TITLE:Thunderbolt;
#SUBTITLE:;
#ARTIST:Rairyuu;
#TITLETRANSLIT:;
#SUBTITLETRANSLIT:;
#ARTISTTRANSLIT:;
#GENRE:;
#CREDIT:;
#BANNER:bn.png;
#BACKGROUND:bg.png;
#LYRICSPATH:;
#CDTITLE:;
#MUSIC:Thunderbolt.mp3;
#OFFSET:-0.062;
#SAMPLESTART:12.800;
#SAMPLELENGTH:12.000;
#SELECTABLE:YES;
#BPMS:0.000=188.000
;
#STOPS:
;
#BGCHANGES:;
#KEYSOUNDS:;
#ATTACKS:;

//---------------dance-single - Blank----------------
#NOTES:
     dance-single:
     :
     Hard:
     9:
     0.600,0.605,0.234,0.016,0.000,489.000,29.000,2.000,0.000,0.000,0.000,0.600,0.605,0.234,0.016,0.000,489.000,29.000,2.000,0.000,0.000,0.000:
0000
0000
0000
0000
,
0000
0000
0000
0000
,
0000
0000
0000
0000
,
1000
0001
1000
1000
,
0001
1000
0001
0001
,
0100
0010
0100
0100
,
0010
0000
1000
0000
0100
0010
0010
0000
,
0110
0100
1000
0010
,
0101
0000
0100
0000
0010
0000
0100
0010
,
1010
1000
0001
0010
,
0000
0000
0000
0000
,
0010
0001
0100
0000
0010
0000
1000
0000
,
0010
0100
0010
0000
1000
0000
0001
0010
,
0100
1000
0010
0000
0100
0000
0001
0000
,
1000
0100
0010
0100
1000
0001
0100
0000
,
0010
1000
0010
0000
0100
0000
0001
0000
,
0010
0100
0010
0000
1000
0000
1000
0001
,
0100
0010
0100
0000
0010
0000
1000
0000
,
1000
0001
0100
0001
1000
0100
0010
0000
,
0001
0100
1000
0100
0001
0100
1000
0100
,
0010
1000
0010
0001
0010
1000
0010
0001
,
0010
1000
0100
0001
0100
1000
0010
0100
,
0001
0001
1000
1000
0010
0100
0001
0010
,
0001
1000
0100
1000
0001
0100
0001
0010
,
0001
1000
0100
1000
0001
0100
0001
1000
,
0010
0100
0001
0010
0100
1000
0001
0100
,
0000
0110
0000
0001
1000
0001
1000
0000
,
1001
0001
0100
0010
,
0110
0010
1000
0100
,
0110
0010
0001
0100
,
0110
0010
1000
0001
,
0011
0001
0100
1000
,
1100
0100
0010
1000
,
1100
1000
0001
0100
,
0010
0000
0000
0000
,
0100
0010
1000
0000
1000
0001
0010
0000
,
0000
0010
0100
1000
0001
1000
0001
0000
,
0001
0100
0010
0000
0100
0010
1000
0000
,
0000
1000
0001
0010
0000
0001
0000
0001
,
0001
0100
0010
0000
0100
0010
0100
0000
,
0000
0010
1000
0001
0010
0100
1000
0000
,
1000
0001
0100
0000
0100
0010
1000
0000
,
0000
1000
0010
0100
0000
0100
0010
1000
,
0100
0010
0001
0000
0001
0010
1000
0000
,
0000
1000
0010
0001
0100
0001
0010
0000
,
0001
1000
0100
0000
1000
0010
0100
0000
,
0000
0010
1000
0001
0000
0010
0000
0100
,
0100
1000
0010
0000
1000
0001
0010
0000
,
0000
0010
0001
0100
1000
0100
0010
0000
,
0010
0100
0010
0000
1000
0001
1000
0000
,
0000
0001
0100
0010
0000
0010
1000
0100
,
1100
1000
0010
0100
,
0101
0100
1000
0100
,
0110
0010
1000
0001
,
0011
0001
1000
0100
,
0110
0100
1000
0010
,
0101
0100
1000
0100
,
0110
0010
1000
0001
,
0011
0001
1000
0100
,
0110
0000
0000
0000
,
1001
0000
0000
0000
,
0101
0000
0000
0000
,
0001
0000
0100
0000
0010
0010
0010
0000
,
0100
0000
0010
0000
1000
0000
0001
1000
,
0001
0000
0100
0000
1000
0000
0100
0010
,
1000
0000
0001
0000
0010
0000
0100
1000
,
0001
1000
0100
1000
0001
0001
0001
0010
,
0100
0010
0001
0000
0100
0000
0110
0000
,
0010
1000
0100
0000
1000
0000
1010
0000
,
1000
0010
0100
0000
0010
0000
1001
0000
,
0001
0100
1000
0100
0001
0010
0100
0000
,
0100
1000
0010
0000
0100
0000
0101
0000
,
0001
0010
0100
0000
1000
0000
1001
0000
,
0001
1000
0100
0000
1000
0000
0110
0000
,
0100
0010
1000
0001
0010
0010
0010
0000
,
0100
1000
0010
0100
0001
0001
0001
0000
,
1000
0001
0010
0100
0010
0100
1000
0001
,
0000
1000
0100
0010
0001
0010
0100
0000
,
0010
0001
0100
1000
0100
0010
1000
0001
,
0000
1000
0010
0100
0000
0010
0000
1000
,
0001
0010
0100
0010
0001
1000
0001
0100
,
0000
0010
1000
0100
0001
0100
0010
0000
,
0010
0001
0100
0010
1000
0001
1000
0100
,
0000
1000
0010
1000
0000
0010
1000
0010
,
0100
0001
0010
0001
1000
0100
1000
0010
,
0000
0100
0010
1000
0001
0010
0001
0000
,
0001
1000
0100
1000
0001
0010
0001
1000
,
0000
1000
0100
0001
0100
1000
0010
0010
,
0100
0010
1000
0000
1000
0001
0010
0001
,
0000
0010
0100
0010
0001
1000
0010
0000
,
1000
0001
0010
0001
,
0100
0010
1000
0010
0000
0100
0010
0100
,
0000
0001
0100
0001
0000
1000
0001
1000
,
2002
0000
0000
3003
;

//---------------dance-single - Blank----------------
#NOTES:
     dance-single:
     :
     Challenge:
     10:
     0.707,0.681,0.161,0.105,0.226,580.000,20.000,13.000,0.000,0.000,0.000,0.707,0.681,0.161,0.105,0.226,580.000,20.000,13.000,0.000,0.000,0.000: // measure 0
0000
0000
0000
0000
,  // measure 1
2002
0000
0000
0000
,  // measure 2
0000
0000
0000
3003
,  // measure 3
0010
1000
0010
0000
0100
0000
0001
0000
,  // measure 4
1000
0100
1000
0000
0010
0000
0100
0010
,  // measure 5
1000
0001
1000
0000
0001
0000
0100
0000
,  // measure 6
0010
0001
0010
1000
0010
0010
0010
0000
,  // measure 7
0110
0000
0010
0000
1000
0000
0001
1000
,  // measure 8
1001
0000
0001
0000
0100
1000
0100
0010
,  // measure 9
0110
0010
1000
0001
,  // measure 10
1000
0000
0001
0000
1000
0000
0002
0000
0200
0000
0000
0000
0300
0003
0000
0000
,  // measure 11
0001
0000
0100
0000
0000
0010
0000
0000
1000
0000
0000
0100
0000
0000
0010
0000
,  // measure 12
0100
0000
1000
0000
0000
0001
0000
0000
0100
0000
0010
0000
1000
0000
0001
0000
,  // measure 13
1000
0000
0001
0000
0000
0010
0000
0000
1000
0000
0000
0010
0000
0000
0001
0000
,  // measure 14
0100
0000
0010
1000
0000
0010
0000
0100
0010
0000
1000
0000
0001
0000
0000
0000
,  // measure 15
1000
0000
0010
0000
0000
1000
0000
0000
0010
0000
0000
0100
0000
0000
0001
0000
,  // measure 16
0010
0000
0100
0000
0000
0010
0000
0000
0001
0000
1000
0000
0010
0000
1000
0000
,  // measure 17
0100
0000
0010
0000
0000
0100
0000
0000
1000
0000
0000
0001
0000
0000
0100
0000
,  // measure 18
0001
0000
0100
0010
0000
0001
0000
0100
0001
0000
1000
0000
0001
0000
0000
0000
,  // measure 19
0001
0100
0001
1000
0010
0100
0001
0001
,  // measure 20
0010
0100
0001
1000
0010
0100
0001
0001
,  // measure 21
0010
0100
0001
1000
0010
0100
0001
0001
,  // measure 22
1000
1000
0001
0001
1000
1000
0001
0001
,  // measure 23
0001
0010
0100
1000
0100
0010
0001
0001
,  // measure 24
0010
0100
1000
0100
0010
0001
0010
0010
,  // measure 25
0001
0100
0010
1000
,  // measure 26
0000
0000
0010
0000
0000
0000
1000
0000
0001
1000
0001
0000
1001
0000
0000
0000
,  // measure 27
0210
0301
1000
0010
,  // measure 28
0102
0000
0013
0000
0010
0000
0100
1000
,  // measure 29
2010
3010
0100
0010
,  // measure 30
1002
0000
0013
0000
0001
0000
0100
0001
,  // measure 31
1000
0100
1000
0001
0100
0001
0010
0001
,  // measure 32
1000
0100
1000
0010
0100
0001
0010
0100
,  // measure 33
1000
0000
0100
0000
0000
0010
0000
0000
0001
0000
0000
0001
0000
0000
1000
0000
,  // measure 34
0000
0010
0000
0000
1000
0000
0000
0100
0000
0000
1000
0000
0010
0000
1000
0000
,  // measure 35
0001
0000
1000
0000
0001
0000
0000
0010
0000
0000
0001
0000
0100
0000
1000
0000
,  // measure 36
0000
1000
0100
0010
1000
0001
1001
0000
,  // measure 37
0001
0000
1000
0000
0100
0000
0000
0010
0000
0000
0100
0000
1000
0000
0001
0000
,  // measure 38
0000
0001
0100
1000
0000
0100
0000
0100
,  // measure 39
0010
0000
1000
0000
0001
0000
0000
0010
0000
0000
0001
0000
1000
0000
0010
0000
,  // measure 40
0000
0100
0001
0010
0100
1000
1010
0000
,  // measure 41
1000
0000
0010
0000
0100
0000
0000
0100
0000
0000
0010
0000
1000
0000
0001
0000
,  // measure 42
0000
0001
0010
0001
0000
0010
0100
1000
,  // measure 43
0001
0000
1000
0000
0010
0000
0000
0010
0000
0000
0100
0000
0010
0000
1000
0000
,  // measure 44
0000
1000
0001
0100
0001
0010
0100
0000
,  // measure 45
0100
0000
0100
0000
0010
0000
0000
0001
0000
0000
1000
0000
0001
0000
1000
0000
,  // measure 46
0000
1000
0100
0001
0000
0100
0000
0010
,  // measure 47
0010
0000
0001
0000
0010
0000
0000
0100
0000
0000
0010
0000
0001
0000
1000
0000
,  // measure 48
0000
1000
0010
0100
0001
0001
1001
0000
,  // measure 49
0001
0000
1000
0000
0100
0000
0000
1000
0000
0000
1000
0000
0001
0000
0010
0000
,  // measure 50
0000
0001
0100
0010
0000
0100
0010
1000
,  // measure 51
0001
1000
0100
1000
0001
0100
0001
0010
,  // measure 52
1000
0010
0001
0100
1000
0100
0010
1000
,  // measure 53
0001
0010
0001
1000
0100
1000
0010
0100
,  // measure 54
0001
0010
0001
1000
0100
1000
0010
0100
,  // measure 55
0010
1000
0001
0010
0001
0100
0010
0100
,  // measure 56
0010
1000
0010
1000
0001
0010
0100
0010
,  // measure 57
0001
1000
0100
0010
0001
1000
0001
1000
,  // measure 58
0002
0000
0000
0000
,  // measure 59
1003
1000
0001
0000
1000
0000
0100
0000
,  // measure 60
0010
1000
0010
0000
0001
0000
1000
0001
,  // measure 61
0010
0100
0010
0000
0100
0000
1000
0000
,  // measure 62
0001
0100
0001
0010
0001
0001
0001
0000
,  // measure 63
1001
0000
0001
0000
0010
0000
0100
0010
,  // measure 64
0110
0000
0100
0000
1000
0010
1000
0001
,  // measure 65
1001
0001
0010
0100
,  // measure 66
1000
0001
1000
0001
0010
0100
1000
0001
,  // measure 67
1000
0000
0010
0000
0000
0100
0000
0000
0010
0000
0000
1000
0000
0000
0001
0000
,  // measure 68
0010
0000
0001
0000
0000
0100
0000
0000
0010
0000
0100
0000
1000
0000
0100
0000
,  // measure 69
0010
0000
1000
0000
0000
0001
0000
0000
0010
0000
0000
0100
0000
0000
0010
0000
,  // measure 70
0001
0000
0001
0100
0000
0010
0000
0100
0010
0000
1000
0000
0001
0000
0000
0000
,  // measure 71
1000
0000
0001
0000
0000
0010
0000
0000
0001
0000
0000
0100
0000
0000
0010
0000
,  // measure 72
1000
0000
0010
0000
0000
0100
0000
0000
0010
0000
1000
0000
0010
0000
1000
0000
,  // measure 73
0001
0000
0010
0000
0000
0001
0000
0000
0100
0000
0000
0010
0000
0000
1000
0000
,  // measure 74
0100
0000
0100
0010
0000
0001
0000
0001
0010
0000
0100
0000
1000
0000
0000
0000
,  // measure 75
0001
0000
0100
0010
0000
1000
0000
0001
0010
0000
0002
0000
2003
3000
0000
0000
,  // measure 76
0001
0000
0100
0000
1000
0000
0000
0100
0000
0000
0010
0000
1000
0000
0010
0000
,  // measure 77
0000
1000
0100
0010
0001
0010
0011
0000
,  // measure 78
0001
0000
0010
0000
0100
0000
0000
0010
0000
0000
0100
0000
1000
0000
0010
0000
,  // measure 79
0000
0100
0010
1000
0000
0001
0000
0001
,  // measure 80
1000
0000
0001
0000
0100
0000
0000
0001
0000
0000
0010
0000
0100
0000
1000
0000
,  // measure 81
0000
1000
0010
0100
0001
0010
0110
0000
,  // measure 82
0100
0000
1000
0000
0010
0000
0000
0100
0000
0000
0010
0000
1000
0000
0001
0000
,  // measure 83
0000
0001
0100
1000
0000
1000
0100
0001
,  // measure 84
0010
0000
0010
0000
0100
0000
0000
1000
0000
0000
0100
0000
0010
0000
0001
0000
,  // measure 85
0000
0001
1000
0100
0010
0100
0110
0000
,  // measure 86
0010
0000
0010
0000
0001
0000
0000
0100
0000
0000
1000
0000
0100
0000
0010
0000
,  // measure 87
0000
0100
0010
0001
0100
1000
0100
0010
,  // measure 88
1000
0000
0001
0000
0010
0000
0000
0100
0000
0000
0010
0000
0001
0000
1000
0000
,  // measure 89
0000
0001
0010
0100
1000
0100
1100
0000
,  // measure 90
1000
0000
0001
0000
0010
0000
0000
0100
0000
0000
0010
0000
0001
0000
0100
0000
,  // measure 91
0000
0010
0010
1000
0000
1000
1000
0001
,  // measure 92
0000
0001
0001
0010
0000
0001
0010
0100
,  // measure 93
2002
0000
0000
3003
;

//---------------dance-single - Blank----------------
#NOTES:
     dance-single:
     :
     Medium:
     8:
     0.488,0.530,0.178,0.024,0.000,398.000,22.000,3.000,0.000,0.000,0.000,0.488,0.530,0.178,0.024,0.000,398.000,22.000,3.000,0.000,0.000,0.000:
0000
0000
0000
0000
,
0000
0000
0000
0000
,
0000
0000
0000
0000
,
1001
0000
0000
0000
,
0101
0000
0000
0000
,
1010
0000
0000
0000
,
0110
0000
0000
0000
,
1001
0001
1000
0001
,
1001
0000
0001
0000
1000
0000
0001
1000
,
1001
0001
1000
0001
,
2002
0000
0000
3003
,
0001
0100
0010
1000
,
0010
0000
0001
0000
0010
0000
0100
0010
,
0100
0010
1000
0001
,
0001
0100
0010
1000
0001
0001
0001
0000
,
0001
0100
0010
1000
,
0100
0000
0001
0000
0100
0000
1000
0100
,
1000
0100
1000
0010
,
0100
0010
1000
0001
0010
0100
0010
0000
,
0010
0100
0010
0100
0010
0100
0010
0000
,
0001
1000
0001
1000
0001
1000
0001
0000
,
0010
0100
0010
0100
0010
0100
0010
0000
,
0100
0010
1000
0010
,
1000
0010
1000
0010
1000
0010
1000
0000
,
1000
0001
1000
0001
1000
0001
1000
0000
,
1000
0100
1000
0100
1000
0100
1000
0000
,
0100
0010
0001
0010
,
0110
0000
0000
0000
,
0101
0000
0000
0000
,
1010
0000
0000
0000
,
0110
0000
0000
0000
,
1001
0001
0100
0010
,
0110
0010
1000
0010
,
0110
0010
1000
0001
,
1000
0000
0000
0000
,
0001
0100
0010
1000
,
0010
0000
0100
0000
0010
1000
0010
0000
,
0100
0001
0010
0100
,
0000
1000
0100
1000
0000
0100
0000
0010
,
0001
0010
0001
0010
,
1000
0000
0010
0000
0001
0100
0010
0000
,
0100
0010
1000
0001
,
0000
1000
0001
1000
0000
0001
1000
0001
,
0100
0100
0010
0010
,
0100
0000
0010
0000
1000
0010
1000
0000
,
0010
0100
0001
0010
,
0000
0100
1000
0010
0000
0100
0000
0100
,
0010
0100
0010
1000
,
0001
0000
1000
0000
0100
1000
0100
0000
,
1000
0010
0100
0001
,
0000
1000
0001
1000
0000
0001
0100
0010
,
0100
0010
1000
0010
,
0001
0010
0100
0010
,
1000
0001
0010
0100
,
1000
0100
1000
0010
,
0100
0000
0000
0000
,
0010
0000
0000
0000
,
1000
0000
0000
0000
,
0001
0000
0000
0000
,
1001
0000
0000
0000
,
0101
0000
0000
0010
,
0110
0000
0000
0000
,
1001
0000
1000
0000
0001
1000
0001
0000
,
1001
0010
0100
0010
,
0110
0010
1000
0010
,
0110
0010
1000
0001
,
0001
0010
0100
1000
0100
0010
0001
0000
,
0001
0100
0010
0000
0100
0000
0010
0000
,
0100
0010
0100
0000
0010
0000
1000
0000
,
0001
1000
0001
0000
0100
0000
0010
0000
,
0010
0100
0001
1000
0010
0010
0010
0000
,
0010
0100
0010
0000
1000
0000
0001
0000
,
0010
0100
1000
0000
0010
0000
0100
0010
,
1000
0001
0100
0010
,
0001
0100
0001
0100
0001
0001
0001
0000
,
0100
0001
0100
0001
0100
0100
0100
0000
,
0010
0100
0010
0000
0010
0100
0010
0000
,
0100
0000
0010
0000
1000
0010
1000
0000
,
0010
0100
0010
0000
0010
1000
0001
0000
,
0000
0001
1000
0001
0000
0100
0000
0100
,
0001
0100
0010
0000
0010
1000
0100
0000
,
0100
0000
1000
0000
0010
0100
0001
0000
,
0001
1000
0100
0000
0100
1000
0010
0000
,
0100
0010
1000
0001
,
1000
0001
0100
0000
0001
0100
0010
0000
,
0000
1000
0100
0010
0001
0010
0001
0000
,
0001
0100
0010
0000
0010
1000
0001
0000
,
0000
0001
0010
0100
1000
0100
0010
0001
,
0010
0001
0010
0000
0001
0100
0001
0000
,
0000
0001
0100
0010
1000
0010
0100
0000
,
0010
1000
0001
0000
0010
0100
0010
0100
,
0000
0010
1000
0010
0000
0010
0100
0010
,
0000
0010
0001
0010
0000
0010
0100
0001
,
2000
0000
0000
3000
;

//---------------dance-single - Blank----------------
#NOTES:
     dance-single:
     :
     Easy:
     7:
     0.390,0.454,0.153,0.016,0.000,317.000,19.000,2.000,0.000,0.000,0.000,0.390,0.454,0.153,0.016,0.000,317.000,19.000,2.000,0.000,0.000,0.000:
0000
0000
0000
0000
,
0000
0000
0000
0000
,
0000
0000
0000
0000
,
0000
0000
0000
0000
,
0000
0000
0000
0000
,
0000
0000
0000
0000
,
0000
0000
0000
0000
,
0001
0000
0000
0000
,
1000
0000
0000
0000
,
0010
0000
0000
0000
,
0200
0000
0000
0300
,
0010
1000
0010
0010
,
1000
0001
1000
0001
,
0100
0001
0100
0010
,
0100
0000
0010
0000
1000
0010
1000
0000
,
0010
0100
0001
0010
,
0100
1000
0100
1000
,
0010
1000
0001
0100
,
0010
0000
1000
0000
0010
1000
0010
0000
,
1000
0001
1000
1001
,
0001
1000
0001
1001
,
1000
0001
1000
1001
,
0000
0101
0000
0101
0000
0101
0000
0101
,
0000
0000
0000
0000
0001
0100
0101
0000
,
0000
0000
0000
0000
0010
0100
0110
0000
,
0000
0000
0000
0000
0010
1000
0010
0000
,
0000
1000
0000
1000
0000
1000
0000
0001
,
1000
0000
0000
0000
,
0101
0000
0000
0000
,
0110
0000
0000
0000
,
1001
0000
0000
0000
,
1100
0100
0010
0001
,
0011
0010
0100
1000
,
1100
1000
0010
0100
,
0001
0000
0000
0000
,
0001
1000
0100
1000
,
0010
0000
0100
0000
0001
0100
0001
0000
,
0100
0010
1000
0001
,
0000
1000
0001
1000
0000
0001
0000
0001
,
0100
0010
1000
0100
,
0010
0000
0001
0000
0010
0001
0010
0000
,
0001
0100
0010
1000
,
0000
0001
1000
0001
0000
1000
0001
1000
,
0001
0100
0010
1000
,
0100
0000
1000
0000
0010
1000
0010
0000
,
0100
0010
1000
0001
,
0000
0001
1000
0001
0000
0001
0000
0001
,
0100
0010
1000
0100
,
0001
0000
0100
0000
0010
0010
0010
0000
,
0010
0001
0010
1000
,
0010
0001
0100
1000
,
0100
0000
0000
0000
,
1010
0000
0000
0000
,
0101
0000
0000
0000
,
0011
0000
0000
0000
,
0110
0000
0000
0000
,
1000
0000
0000
0000
,
0010
0000
0000
0000
,
0100
0000
0000
0000
,
0001
1000
0001
0000
0000
0000
0000
0000
,
1000
0001
1000
0000
0000
0000
0000
0000
,
0001
1000
0001
0000
0000
0000
0000
0000
,
1000
0000
0001
0000
1000
0001
1000
0000
,
0001
0100
0001
0000
0000
0000
0000
0000
,
0100
0010
0100
0000
0000
0000
0000
0000
,
0010
1000
0010
0000
0000
0000
0000
0000
,
0010
0000
1000
0000
0010
0100
0010
0000
,
0100
0010
1000
0001
,
0010
0000
0001
0000
1000
0000
0100
1000
,
0100
1000
0010
0100
,
0001
0000
1000
0000
0001
1000
0001
0000
,
0100
0100
0010
0010
,
1000
0010
0001
0010
,
0100
0001
0010
0100
,
1000
0000
0100
0000
1000
0100
1000
0000
,
0010
0000
1000
0000
0010
1000
0010
0000
,
1000
0001
0100
0001
,
0010
0000
0100
0000
1000
0010
0100
0000
,
0010
1000
0001
0010
,
0000
0100
1000
0100
0000
0100
0000
0100
,
0010
0001
0010
0001
,
0010
0000
1000
0000
0010
0010
0001
0000
,
0001
0100
0010
1000
,
0000
0001
0100
0010
0000
0100
0010
1000
,
0010
0100
0001
1000
,
0000
0001
0010
0100
1000
0100
1000
0000
,
0100
1000
0010
0100
,
0000
0010
0100
0010
0100
0010
0100
0010
,
0100
0100
0010
0010
,
0000
1000
0001
1000
0001
1000
0001
0000
,
1000
0001
0100
0010
,
0000
0001
1000
0001
0000
0001
1000
0001
,
0000
0001
1000
0001
0000
0001
1000
0001
,
2000
0000
0000
3000
;

//---------------dance-single - Blank----------------
#NOTES:
     dance-single:
     :
     Beginner:
     3:
     0.152,0.188,0.089,0.000,0.000,121.000,11.000,0.000,0.000,0.000,0.000,0.152,0.188,0.089,0.000,0.000,121.000,11.000,0.000,0.000,0.000,0.000:
0000
0000
0000
0000
,
0000
0000
0000
0000
,
0000
0000
0000
0000
,
0000
0000
0000
0000
,
0000
0000
0000
0000
,
0000
0000
0000
0000
,
0000
0000
0000
0000
,
1000
0000
0000
0000
,
0001
0000
0000
0000
,
1000
0000
0000
0000
,
0010
0000
0000
0000
,
0100
0000
0000
0000
,
0010
0000
0000
1000
,
0001
0000
0000
0000
,
1000
0000
1000
0000
,
0001
0000
0000
0000
,
0100
0000
0000
0010
,
1000
0000
0000
0000
,
0010
0000
0100
0000
,
0010
0000
0000
0000
,
1000
0000
0000
0000
,
0001
0000
0000
0000
,
1000
1000
1000
1000
,
0001
0000
0000
0000
,
1000
0000
0000
0000
,
0010
0000
0000
0000
,
0100
0000
0000
0000
,
0110
0000
0000
0000
,
1000
0000
0000
0000
,
0001
0000
0000
0000
,
0010
0000
0000
0000
,
1001
0000
0000
0000
,
0100
0000
0000
0000
,
0010
0000
0000
0000
,
1000
0000
0000
0000
,
0001
0000
0001
0000
,
0001
0001
0001
0000
,
1000
0000
1000
0000
,
1000
1000
1000
0000
,
0010
0000
0010
0000
,
0010
0010
0010
0000
,
0100
0000
0100
0000
,
0100
0100
0100
0000
,
0010
0000
0000
0000
,
1000
0000
1000
0000
,
0001
0000
0000
0000
,
0100
0000
0010
0000
,
1000
0000
0000
0000
,
0100
0000
0100
0000
,
0100
0000
0000
0000
,
0010
0000
0000
0000
,
0001
0000
0000
0000
,
1000
0000
0000
0000
,
0010
0000
0000
0000
,
0100
0000
0000
0000
,
0001
0000
0000
0000
,
0001
0000
0000
0000
,
1000
0000
0000
0000
,
0100
0000
0000
0000
,
1000
0000
0000
0000
,
1000
0000
0000
0000
,
0001
0000
0000
0000
,
0001
0000
0001
0000
,
0100
0000
0000
0000
,
0010
0000
0000
0000
,
1000
0000
0000
0000
,
0001
0000
1000
0000
,
0001
0000
0000
0000
,
0100
0000
0000
0010
,
0010
0000
0000
0000
,
1000
0000
1000
0000
,
1000
0000
0000
0000
,
0001
0000
0000
0010
,
0001
0000
0000
0000
,
0100
0000
0000
0000
,
0010
0000
0000
0000
,
1001
0000
0000
0000
,
1000
0000
1000
0000
,
1001
0000
0000
0000
,
0010
0000
0010
0000
,
1001
0000
0000
0000
,
0100
0000
0100
0000
,
1001
0000
0000
0000
,
0001
0000
0001
0000
,
0110
0000
0000
0000
,
0010
0000
0010
0000
,
0110
0000
0000
0000
,
1000
0000
1000
0000
,
0110
0000
0000
0000
,
0001
0000
0001
0000
,
0110
0000
0000
0000
,
0010
0000
0000
0000
,
1000
0000
0000
0000
,
1001
0000
0000
0000
;
